osu file format v14

[General]
AudioFilename: audio.mp3
AudioLeadIn: 0
PreviewTime: 55204
Countdown: 0
SampleSet: Normal
StackLeniency: 0.7
Mode: 3
LetterboxInBreaks: 0
SpecialStyle: 0
WidescreenStoryboard: 0

[Editor]
DistanceSpacing: 0.8
BeatDivisor: 16
GridSize: 16
TimelineZoom: 2.1

[Metadata]
Title:Megaburn
TitleUnicode:Megaburn
Artist:7 Sequence x M2U
ArtistUnicode:7 Sequence x M2U
Creator:Madoka2574
Version:EXplosion Lv.10
Source:节奏大师
Tags:Tencent Games Rhythm Master TGA2014 gabba drumstep core -H_i_k_a_r_i- Chenut_BS LuvGod Nananana ATing
BeatmapID:2045310
BeatmapSetID:977181

[Difficulty]
HPDrainRate:9
CircleSize:4
OverallDifficulty:9
ApproachRate:5
SliderMultiplier:1.4
SliderTickRate:1

[Events]
//Background and Video events
0,0,"BG.jpg",0,0
//Break Periods
//Storyboard Layer 0 (Background)
//Storyboard Layer 1 (Fail)
//Storyboard Layer 2 (Pass)
//Storyboard Layer 3 (Foreground)
//Storyboard Layer 4 (Overlay)
//Storyboard Sound Samples
Sample,89019,0,"edge.wav",70
Sample,121446,0,"cymbal.wav",70

[TimingPoints]
1100,346.820809248555,4,1,1,25,1,0
10810,-66.6666666666667,4,1,1,25,0,0
10897,-200,4,1,1,25,0,0
10984,-66.6666666666667,4,1,1,25,0,0
11071,-200,4,1,1,25,0,0
11157,-66.6666666666667,4,1,1,25,0,0
11244,-200,4,1,1,25,0,0
11331,-66.6666666666667,4,1,1,25,0,0
11374,-200,4,1,1,25,0,0
11417,-66.6666666666667,4,1,1,25,0,0
11461,-200,4,1,1,25,0,0
11504,-66.6666666666667,4,1,1,25,0,0
11547,-200,4,1,1,25,0,0
11591,-66.6666666666667,4,1,1,25,0,0
11634,-200,4,1,1,25,0,0
11678,-100,4,1,1,25,0,0
11851,-66.6666666666667,4,1,1,25,0,0
12024,-200,4,1,1,25,0,0
12198,-100,4,1,1,25,0,0
21042,-51.2820512820513,4,1,1,25,0,0
21063,-2000,4,1,1,25,0,0
21085,-51.2820512820513,4,1,1,25,0,0
21107,-2000,4,1,1,25,0,0
21128,-51.2820512820513,4,1,1,25,0,0
21150,-2000,4,1,1,25,0,0
21172,-51.2820512820513,4,1,1,25,0,0
21193,-2000,4,1,1,25,0,0
21215,-51.2820512820513,4,1,1,25,0,0
21237,-2000,4,1,1,25,0,0
21258,-51.2820512820513,4,1,1,25,0,0
21280,-2000,4,1,1,25,0,0
21302,-51.2820512820513,4,1,1,25,0,0
21323,-2000,4,1,1,25,0,0
21345,-51.2820512820513,4,1,1,25,0,0
21367,-2000,4,1,1,25,0,0
21389,-100,4,1,1,25,0,0
21909,-66.6666666666667,4,1,1,25,0,0
21952,-200,4,1,1,25,0,0
21995,-66.6666666666667,4,1,1,25,0,0
22039,-200,4,1,1,25,0,0
22082,-66.6666666666667,4,1,1,25,0,0
22126,-200,4,1,1,25,0,0
22169,-66.6666666666667,4,1,1,25,0,0
22212,-200,4,1,1,25,0,0
22256,-66.6666666666667,4,1,1,25,0,0
22342,-200,4,1,1,25,0,0
22429,-66.6666666666667,4,1,1,25,0,0
22472,-200,4,1,1,25,0,0
22516,-66.6666666666667,4,1,1,25,0,0
22559,-200,4,1,1,25,0,0
22602,-66.6666666666667,4,1,1,25,0,0
22646,-200,4,1,1,25,0,0
22689,-66.6666666666667,4,1,1,25,0,0
22732,-200,4,1,1,25,0,0
22776,-66.6666666666667,4,1,1,25,0,0
22819,-200,4,1,1,25,0,0
22863,-66.6666666666667,4,1,1,25,0,0
22906,-200,4,1,1,25,0,0
22949,-66.6666666666667,4,1,1,25,0,0
23123,-200,4,1,1,25,0,0
23296,-100,4,1,1,25,0,0
27978,-66.6666666666667,4,1,1,25,0,0
28021,-200,4,1,1,25,0,0
28065,-66.6666666666667,4,1,1,25,0,0
28108,-200,4,1,1,25,0,0
28152,-66.6666666666667,4,1,1,25,0,0
28238,-200,4,1,1,25,0,0
28325,-100,4,1,1,25,0,0
28498,-66.6666666666667,4,1,1,25,0,0
28585,-200,4,1,1,25,0,0
28672,-133.333333333333,4,1,1,25,0,0
28758,-66.6666666666667,4,1,1,25,0,0
28845,-100,4,1,1,25,0,0
32140,-51.2820512820513,4,1,1,25,0,0
32161,-2000,4,1,1,25,0,0
32183,-51.2820512820513,4,1,1,25,0,0
32205,-2000,4,1,1,25,0,0
32226,-51.2820512820513,4,1,1,25,0,0
32248,-2000,4,1,1,25,0,0
32270,-51.2820512820513,4,1,1,25,0,0
32291,-2000,4,1,1,25,0,0
32313,-51.2820512820513,4,1,1,25,0,0
32335,-2000,4,1,1,25,0,0
32356,-51.2820512820513,4,1,1,25,0,0
32378,-2000,4,1,1,25,0,0
32400,-51.2820512820513,4,1,1,25,0,0
32421,-2000,4,1,1,25,0,0
32443,-51.2820512820513,4,1,1,25,0,0
32465,-2000,4,1,1,25,0,0
32487,-100,4,1,1,25,0,0
33007,-71.4285714285714,4,1,1,25,0,0
33050,-83.3333333333333,4,1,1,25,0,0
33094,-100,4,1,1,25,0,0
33354,-71.4285714285714,4,1,1,25,0,0
33397,-83.3333333333333,4,1,1,25,0,0
33441,-100,4,1,1,25,0,0
33701,-71.4285714285714,4,1,1,25,0,0
33744,-83.3333333333333,4,1,1,25,0,0
33787,-100,4,1,1,25,0,0
34047,-66.6666666666667,4,1,1,25,0,0
34221,-200,4,1,1,25,0,0
34394,-100,4,1,1,25,0,1
45146,-50,4,1,1,25,0,1
45232,-200,4,1,1,25,0,1
45406,-100,4,1,1,25,0,1
45493,-100,4,1,1,25,0,0
50695,-62.5,4,1,1,25,0,0
50782,-83.3333333333333,4,1,1,25,0,0
50868,-125,4,1,1,25,0,0
50955,-250.000000000001,4,1,1,25,0,0
51042,-100,4,1,1,25,0,0
55204,-111.111111111111,4,1,1,25,0,0
55897,-142.857142857143,4,1,1,25,0,0
56071,-100,4,1,1,25,0,0
56114,-83.3333333333333,4,1,1,25,0,0
56157,-71.4285714285714,4,1,1,25,0,0
56201,-62.5,4,1,1,25,0,0
56244,-142.857142857143,4,1,1,25,0,0
56417,-100,4,1,1,25,0,0
56461,-83.3333333333333,4,1,1,25,0,0
56504,-71.4285714285714,4,1,1,25,0,0
56547,-62.5,4,1,1,25,0,0
56591,-100,4,1,1,25,0,0
57631,-55.5555555555556,4,1,1,25,0,0
57675,-500,4,1,1,25,0,0
57718,-100,4,1,1,25,0,0
57805,-55.5555555555556,4,1,1,25,0,0
57848,-500,4,1,1,25,0,0
57891,-100,4,1,1,25,0,0
58325,-55.5555555555556,4,1,1,25,0,0
58368,-500,4,1,1,25,0,0
58412,-100,4,1,1,25,0,0
60406,-55.5555555555556,4,1,1,25,0,0
60449,-500,4,1,1,25,0,0
60493,-100,4,1,1,25,0,0
60579,-55.5555555555556,4,1,1,25,0,0
60623,-500,4,1,1,25,0,0
60666,-100,4,1,1,25,0,0
61100,-55.5555555555556,4,1,1,25,0,0
61143,-500,4,1,1,25,0,0
61186,-100,4,1,1,25,0,0
62834,-66.6666666666667,4,1,1,25,0,0
62877,-200,4,1,1,25,0,0
62920,-66.6666666666667,4,1,1,25,0,0
62964,-200,4,1,1,25,0,0
63007,-66.6666666666667,4,1,1,25,0,0
63050,-200,4,1,1,25,0,0
63094,-66.6666666666667,4,1,1,25,0,0
63137,-200,4,1,1,25,0,0
63180,-100,4,1,1,25,0,0
63354,-66.6666666666667,4,1,1,25,0,0
63397,-200,4,1,1,25,0,0
63441,-66.6666666666667,4,1,1,25,0,0
63484,-200,4,1,1,25,0,0
63527,-66.6666666666667,4,1,1,25,0,0
63571,-200,4,1,1,25,0,0
63614,-66.6666666666667,4,1,1,25,0,0
63657,-200,4,1,1,25,0,0
63701,-66.6666666666667,4,1,1,25,0,0
63744,-200,4,1,1,25,0,0
63787,-66.6666666666667,4,1,1,25,0,0
63831,-200,4,1,1,25,0,0
63874,-100,4,1,1,25,0,0
65955,-66.6666666666667,4,1,1,25,0,0
65998,-200,4,1,1,25,0,0
66042,-66.6666666666667,4,1,1,25,0,0
66085,-200,4,1,1,25,0,0
66128,-66.6666666666667,4,1,1,25,0,0
66172,-200,4,1,1,25,0,0
66215,-66.6666666666667,4,1,1,25,0,0
66258,-200,4,1,1,25,0,0
66302,-250,4,1,1,25,0,0
66389,-62.5,4,1,1,25,0,0
66475,-250,4,1,1,25,0,0
66562,-62.5,4,1,1,25,0,0
66649,-250,4,1,1,25,0,0
66735,-62.5,4,1,1,25,0,0
66822,-250,4,1,1,25,0,0
66909,-62.5,4,1,1,25,0,0
66995,-142.857142857143,4,1,1,25,0,0
67169,-100,4,1,1,25,0,0
67212,-83.3333333333333,4,1,1,25,0,0
67256,-71.4285714285714,4,1,1,25,0,0
67299,-62.5,4,1,1,25,0,0
67342,-142.857142857143,4,1,1,25,0,0
67516,-100,4,1,1,25,0,0
67559,-83.3333333333333,4,1,1,25,0,0
67602,-71.4285714285714,4,1,1,25,0,0
67646,-62.5,4,1,1,25,0,0
67689,-100,4,1,1,25,0,0
68903,-200,4,1,1,25,0,0
68990,-66.6666666666667,4,1,1,25,0,0
69076,-100,4,1,1,25,0,0
69597,-200,4,1,1,25,0,0
69683,-66.6666666666667,4,1,1,25,0,0
69770,-100,4,1,1,25,0,0
71504,-55.5555555555556,4,1,1,25,0,0
71547,-500,4,1,1,25,0,0
71591,-100,4,1,1,25,0,0
71678,-55.5555555555556,4,1,1,25,0,0
71721,-500,4,1,1,25,0,0
71764,-100,4,1,1,25,0,0
71851,-66.6666666666667,4,1,1,25,0,0
71894,-200,4,1,1,25,0,0
71938,-66.6666666666667,4,1,1,25,0,0
71981,-200,4,1,1,25,0,0
72024,-66.6666666666667,4,1,1,25,0,0
72068,-200,4,1,1,25,0,0
72111,-66.6666666666667,4,1,1,25,0,0
72154,-200,4,1,1,25,0,0
72198,-100,4,1,1,25,0,0
74452,-200,4,1,1,25,0,0
74539,-66.6666666666667,4,1,1,25,0,0
74626,-100,4,1,1,25,0,0
75146,-200,4,1,1,25,0,0
75232,-66.6666666666667,4,1,1,25,0,0
75319,-100,4,1,1,25,0,0
77053,-66.6666666666667,4,1,1,25,0,0
77097,-200,4,1,1,25,0,0
77140,-66.6666666666667,4,1,1,25,0,0
77183,-200,4,1,1,25,0,0
77227,-66.6666666666667,4,1,1,25,0,0
77270,-200,4,1,1,25,0,0
77313,-66.6666666666667,4,1,1,25,0,0
77357,-200,4,1,1,25,0,0
77400,-40,4,1,1,25,0,0
77443,-250,4,1,1,25,0,0
77573,-40,4,1,1,25,0,0
77617,-250,4,1,1,25,0,0
77747,-40,4,1,1,25,0,0
77790,-250,4,1,1,25,0,0
77920,-40,4,1,1,25,0,0
77964,-250,4,1,1,25,0,0
78094,-40,4,1,1,25,0,0
78137,-250,4,1,1,25,0,0
78267,-40,4,1,1,25,0,0
78310,-250,4,1,1,25,0,0
78441,-52.6315789473684,4,1,1,25,0,0
78527,-142.857142857143,4,1,1,25,0,0
78787,-100,4,1,1,25,0,0
83990,-52.6315789473684,4,1,1,25,0,0
84076,-142.857142857143,4,1,1,25,0,0
84336,-40,4,1,1,25,0,0
84380,-250,4,1,1,25,0,0
84510,-40,4,1,1,25,0,0
84553,-250,4,1,1,25,0,0
84683,-40,4,1,1,25,0,0
84727,-250,4,1,1,25,0,0
84857,-40,4,1,1,25,0,0
84900,-250,4,1,1,25,0,0
85030,-40,4,1,1,25,0,0
85073,-250,4,1,1,25,0,0
85204,-40,4,1,1,25,0,0
85247,-250,4,1,1,25,0,0
85377,-40,4,1,1,25,0,0
85420,-250,4,1,1,25,0,0
85550,-40,4,1,1,25,0,0
85594,-250,4,1,1,25,0,0
85724,-40,4,1,1,25,0,0
85767,-250,4,1,1,25,0,0
85897,-40,4,1,1,25,0,0
85941,-250,4,1,1,25,0,0
86071,-40,4,1,1,25,0,0
86114,-250,4,1,1,25,0,0
86244,-40,4,1,1,25,0,0
86287,-250,4,1,1,25,0,0
86417,-40,4,1,1,25,0,0
86461,-250,4,1,1,25,0,0
86591,-40,4,1,1,25,0,0
86634,-250,4,1,1,25,0,0
86764,-40,4,1,1,25,0,0
86808,-250,4,1,1,25,0,0
86938,-40,4,1,1,25,0,0
86981,-250,4,1,1,25,0,0
87111,-100,4,1,1,25,0,0
88498,-66.6666666666667,4,1,1,25,0,0
88585,-200,4,1,1,25,0,0
88672,-100,4,1,1,25,0,0
88845,-66.6666666666667,4,1,1,25,0,0
88932,-200,4,1,1,25,0,0
89019,-100,4,1,1,25,0,0
89192,-57.1428571428571,4,1,1,25,0,0
89279,-400,4,1,1,25,0,0
89365,-57.1428571428571,4,1,1,25,0,0
89452,-400,4,1,1,25,0,0
89539,-52.6315789473684,4,1,1,25,0,0
89626,-142.857142857143,4,1,1,25,0,0
89886,-100,4,1,1,25,0,1
100637,-100,4,1,1,25,0,0
100984,-100,4,1,1,25,0,1
109654,-200,4,1,1,25,0,1
109741,-66.6666666666667,4,1,1,25,0,1
109828,-100,4,1,1,25,0,1
110348,-200,4,1,1,25,0,1
110435,-66.6666666666667,4,1,1,25,0,1
110521,-100,4,1,1,25,0,1
110695,-200,4,1,1,25,0,1
110782,-66.6666666666667,4,1,1,25,0,1
110868,-100,4,1,1,25,0,1
111042,-200,4,1,1,25,0,1
111128,-66.6666666666667,4,1,1,25,0,1
111215,-100,4,1,1,25,0,1
111389,-66.6666666666667,4,1,1,25,0,1
111475,-200,4,1,1,25,0,1
111562,-66.6666666666667,4,1,1,25,0,1
111649,-200,4,1,1,25,0,1
111735,-50,4,1,1,25,0,1
111822,-200,4,1,1,25,0,1
111995,-100,4,1,1,25,0,1
112082,-100,4,1,1,25,0,0

[HitObjects]
64,192,1100,5,0,0:0:0:70:kick.wav
320,192,1100,1,0,0:0:0:70:cymbal.wav
448,192,1100,1,0,0:0:0:0:
64,192,1273,128,0,1446:0:0:0:0:
192,192,1446,1,0,0:0:0:70:kick.wav
448,192,1446,1,0,0:0:0:0:
448,192,1620,128,0,1793:0:0:0:0:
64,192,1793,1,0,0:0:0:70:kick.wav
320,192,1793,1,0,0:0:0:0:
320,192,1967,128,0,2140:0:0:0:0:
64,192,2140,1,0,0:0:0:70:kick.wav
448,192,2140,1,0,0:0:0:0:
64,192,2313,128,0,2487:0:0:0:0:
192,192,2487,1,0,0:0:0:70:kick.wav
320,192,2487,1,0,0:0:0:0:
320,192,2660,128,0,2834:0:0:0:0:
192,192,2834,1,0,0:0:0:70:kick.wav
448,192,2834,1,0,0:0:0:0:
192,192,3007,128,0,3180:0:0:0:0:
64,192,3180,1,0,0:0:0:70:kick.wav
448,192,3180,1,0,0:0:0:0:
448,192,3354,128,0,3527:0:0:0:0:
64,192,3527,1,0,0:0:0:70:kick.wav
192,192,3527,1,0,0:0:0:0:
64,192,3701,128,0,3874:0:0:0:0:
320,192,3874,1,0,0:0:0:70:kick.wav
448,192,3874,1,0,0:0:0:0:
448,192,4047,128,0,4221:0:0:0:0:
64,192,4221,1,0,0:0:0:70:kick.wav
320,192,4221,1,0,0:0:0:0:
320,192,4394,128,0,4568:0:0:0:0:
192,192,4568,1,0,0:0:0:70:kick.wav
448,192,4568,1,0,0:0:0:0:
192,192,4741,128,0,4915:0:0:0:0:
64,192,4915,1,0,0:0:0:70:kick.wav
320,192,4915,1,0,0:0:0:0:
64,192,5088,128,0,5261:0:0:0:0:
320,192,5261,1,0,0:0:0:70:kick.wav
448,192,5261,1,0,0:0:0:0:
320,192,5435,128,0,5608:0:0:0:0:
192,192,5608,1,0,0:0:0:70:kick.wav
448,192,5608,1,0,0:0:0:0:
192,192,5782,128,0,5955:0:0:0:0:
64,192,5955,1,0,0:0:0:70:kick.wav
448,192,5955,1,0,0:0:0:0:
448,192,6128,128,0,6302:0:0:0:0:
64,192,6302,1,0,0:0:0:70:kick.wav
320,192,6302,1,0,0:0:0:0:
192,192,6389,1,0,0:0:0:0:
64,192,6475,1,0,0:0:0:0:
320,192,6475,128,0,6649:0:0:0:0:
192,192,6562,1,0,0:0:0:0:
64,192,6649,128,0,9423:0:0:0:70:kick.wav
448,192,6649,1,0,0:0:0:0:
448,192,6822,128,0,6995:0:0:0:0:
192,192,6995,1,0,0:0:0:70:kick.wav
320,192,6995,1,0,0:0:0:0:
192,192,7169,128,0,7342:0:0:0:0:
320,192,7342,1,0,0:0:0:70:kick.wav
448,192,7342,1,0,0:0:0:0:
320,192,7516,128,0,7689:0:0:0:0:
192,192,7689,1,0,0:0:0:70:kick.wav
448,192,7689,1,0,0:0:0:0:
448,192,7863,128,0,8036:0:0:0:0:
192,192,8036,1,0,0:0:0:70:kick.wav
320,192,8036,1,0,0:0:0:0:
192,192,8209,128,0,8383:0:0:0:0:
320,192,8383,1,0,0:0:0:70:kick.wav
448,192,8383,1,0,0:0:0:0:
448,192,8556,128,0,8730:0:0:0:0:
192,192,8730,1,0,0:0:0:70:kick.wav
320,192,8730,1,0,0:0:0:0:
192,192,8903,128,0,9076:0:0:0:0:
320,192,9076,1,0,0:0:0:70:kick.wav
448,192,9076,1,0,0:0:0:0:
448,192,9250,128,0,9423:0:0:0:0:
192,192,9423,1,0,0:0:0:70:kick.wav
320,192,9423,1,0,0:0:0:0:
192,192,9597,128,0,9770:0:0:0:0:
64,192,9770,1,0,0:0:0:70:kick.wav
320,192,9770,1,0,0:0:0:0:
320,192,9943,128,0,10117:0:0:0:0:
64,192,10117,1,0,0:0:0:70:kick.wav
448,192,10117,1,0,0:0:0:0:
64,192,10290,128,0,10464:0:0:0:0:
192,192,10464,1,0,0:0:0:70:kick.wav
448,192,10464,1,0,0:0:0:0:
448,192,10637,128,0,10810:0:0:0:0:
64,192,10810,1,0,0:0:0:70:kick.wav
192,192,10810,1,0,0:0:0:0:
192,192,10984,1,0,0:0:0:0:
320,192,10984,1,0,0:0:0:0:
320,192,11157,1,0,0:0:0:70:edge.wav
448,192,11157,1,0,0:0:0:0:
64,192,11331,1,0,0:0:0:0:
320,192,11331,1,0,0:0:0:0:
192,192,11417,1,0,0:0:0:0:
64,192,11504,1,0,0:0:0:0:
448,192,11504,1,0,0:0:0:0:
320,192,11591,1,0,0:0:0:0:
192,192,11678,1,0,0:0:0:0:
448,192,11678,1,0,0:0:0:0:
64,192,11851,1,0,0:0:0:70:snare.wav
192,192,11851,1,0,0:0:0:0:
320,192,11851,1,0,0:0:0:0:
448,192,11851,1,0,0:0:0:0:
64,192,12198,1,0,0:0:0:70:kick.wav
320,192,12198,1,0,0:0:0:70:cymbal.wav
448,192,12198,1,0,0:0:0:0:
192,192,12371,1,0,0:0:0:0:
320,192,12458,128,0,12545:0:0:0:0:
64,192,12545,1,0,0:0:0:70:kick.wav
448,192,12545,1,0,0:0:0:0:
192,192,12718,128,0,12891:0:0:0:0:
64,192,12891,1,0,0:0:0:70:kick.wav
320,192,12891,1,0,0:0:0:0:
192,192,13065,128,0,13238:0:0:0:0:
64,192,13238,1,0,0:0:0:70:kick.wav
448,192,13238,1,0,0:0:0:0:
320,192,13412,128,0,13585:0:0:0:0:
192,192,13585,1,0,0:0:0:70:kick.wav
448,192,13585,1,0,0:0:0:0:
64,192,13758,1,0,0:0:0:0:
448,192,13845,128,0,13932:0:0:0:0:
192,192,13932,1,0,0:0:0:70:kick.wav
320,192,13932,1,0,0:0:0:0:
64,192,14105,128,0,14279:0:0:0:0:
448,192,14105,1,0,0:0:0:0:
320,192,14192,1,0,0:0:0:0:
192,192,14279,1,0,0:0:0:70:kick.wav
448,192,14279,1,0,0:0:0:0:
64,192,14452,128,0,14626:0:0:0:0:
320,192,14452,1,0,0:0:0:0:
320,192,14539,1,0,0:0:0:0:
192,192,14626,1,0,0:0:0:70:kick.wav
448,192,14626,1,0,0:0:0:0:
192,192,14799,1,0,0:0:0:0:
448,192,14799,128,0,14972:0:0:0:0:
64,192,14972,1,0,0:0:0:70:kick.wav
320,192,14972,1,0,0:0:0:0:
192,192,15146,1,0,0:0:0:0:
320,192,15232,128,0,15319:0:0:0:0:
64,192,15319,1,0,0:0:0:70:kick.wav
448,192,15319,1,0,0:0:0:0:
192,192,15493,128,0,15666:0:0:0:0:
320,192,15666,1,0,0:0:0:70:kick.wav
448,192,15666,1,0,0:0:0:0:
192,192,15839,128,0,16013:0:0:0:0:
64,192,16013,1,0,0:0:0:70:kick.wav
448,192,16013,1,0,0:0:0:0:
448,192,16186,128,0,16360:0:0:0:0:
64,192,16360,1,0,0:0:0:70:kick.wav
192,192,16360,1,0,0:0:0:0:
320,192,16446,1,0,0:0:0:0:
448,192,16533,1,0,0:0:0:0:
192,192,16620,128,0,16706:0:0:0:0:
64,192,16706,1,0,0:0:0:70:kick.wav
320,192,16706,128,0,16880:0:0:0:0:
64,192,16880,128,0,17053:0:0:0:0:
320,192,17053,1,0,0:0:0:70:kick.wav
448,192,17053,1,0,0:0:0:0:
192,192,17227,1,0,0:0:0:0:
448,192,17227,128,0,17400:0:0:0:0:
192,192,17313,1,0,0:0:0:0:
64,192,17400,1,0,0:0:0:70:kick.wav
320,192,17400,1,0,0:0:0:0:
192,192,17573,128,0,17747:0:0:0:0:
64,192,17747,1,0,0:0:0:70:kick.wav
448,192,17747,1,0,0:0:0:0:
320,192,17920,1,0,0:0:0:0:
192,192,18007,128,0,18094:0:0:0:0:
64,192,18094,1,0,0:0:0:70:kick.wav
448,192,18094,1,0,0:0:0:0:
64,192,18267,128,0,18354:0:0:0:0:
448,192,18267,128,0,18441:0:0:0:0:
64,192,18441,128,0,18527:0:0:0:70:kick.wav
320,192,18441,1,0,0:0:0:0:
64,192,18614,128,0,18701:0:0:0:0:
448,192,18614,128,0,18787:0:0:0:0:
192,192,18787,1,0,0:0:0:70:kick.wav
320,192,18787,1,0,0:0:0:0:
192,192,18961,128,0,19134:0:0:0:0:
64,192,19134,1,0,0:0:0:70:kick.wav
448,192,19134,1,0,0:0:0:0:
320,192,19308,1,0,0:0:0:0:
320,192,19394,1,0,0:0:0:0:
192,192,19481,1,0,0:0:0:70:kick.wav
448,192,19481,1,0,0:0:0:0:
64,192,19654,1,0,0:0:0:0:
320,192,19654,128,0,19828:0:0:0:0:
192,192,19741,1,0,0:0:0:0:
64,192,19828,1,0,0:0:0:70:kick.wav
448,192,19828,1,0,0:0:0:0:
192,192,20001,1,0,0:0:0:0:
320,192,20001,128,0,20175:0:0:0:0:
192,192,20088,1,0,0:0:0:0:
64,192,20175,1,0,0:0:0:70:kick.wav
448,192,20175,1,0,0:0:0:0:
192,192,20348,128,0,20521:0:0:0:0:
64,192,20521,1,0,0:0:0:70:kick.wav
448,192,20521,1,0,0:0:0:0:
320,192,20695,1,0,0:0:0:0:
448,192,20782,128,0,20868:0:0:0:0:
64,192,20868,1,0,0:0:0:70:kick.wav
192,192,20868,1,0,0:0:0:0:
64,192,21042,128,0,21215:0:0:0:0:
448,192,21042,128,0,21389:0:0:0:0:
192,192,21215,1,0,0:0:0:70:kick.wav
320,192,21215,1,0,0:0:0:0:
64,192,21389,128,0,21562:0:0:0:0:
320,192,21475,1,0,0:0:0:0:
192,192,21562,1,0,0:0:0:70:kick.wav
448,192,21562,1,0,0:0:0:0:
320,192,21735,128,0,21909:0:0:0:0:
64,192,21909,1,0,0:0:0:70:kick.wav
192,192,21909,1,0,0:0:0:0:
320,192,21995,1,0,0:0:0:0:
448,192,21995,1,0,0:0:0:0:
64,192,22082,1,0,0:0:0:0:
192,192,22082,1,0,0:0:0:0:
320,192,22169,1,0,0:0:0:0:
448,192,22169,1,0,0:0:0:0:
64,192,22256,128,0,22429:0:0:0:70:kick.wav
192,192,22256,128,0,22429:0:0:0:0:
320,192,22429,1,0,0:0:0:0:
448,192,22429,1,0,0:0:0:0:
192,192,22516,1,0,0:0:0:0:
64,192,22602,1,0,0:0:0:0:
320,192,22602,1,0,0:0:0:0:
448,192,22689,1,0,0:0:0:0:
64,192,22776,1,0,0:0:0:0:
192,192,22776,1,0,0:0:0:0:
320,192,22863,1,0,0:0:0:0:
64,192,22949,1,0,0:0:0:70:snare.wav
192,192,22949,1,0,0:0:0:0:
448,192,22949,1,0,0:0:0:0:
64,192,23296,1,0,0:0:0:70:kick.wav
320,192,23296,1,0,0:0:0:70:cymbal.wav
448,192,23296,1,0,0:0:0:0:
64,192,23469,1,0,0:0:0:0:
448,192,23469,128,0,23513:0:0:0:0:
192,192,23556,1,0,0:0:0:0:
320,192,23643,1,0,0:0:0:70:kick.wav
448,192,23643,1,0,0:0:0:0:
192,192,23816,128,0,23990:0:0:0:0:
320,192,23816,128,0,23860:0:0:0:0:
64,192,23990,1,0,0:0:0:70:kick.wav
448,192,23990,1,0,0:0:0:0:
64,192,24163,128,0,24206:0:0:0:0:
320,192,24163,128,0,24336:0:0:0:0:
192,192,24336,1,0,0:0:0:70:kick.wav
448,192,24336,1,0,0:0:0:0:
192,192,24510,128,0,24553:0:0:0:0:
448,192,24510,128,0,24683:0:0:0:0:
64,192,24683,1,0,0:0:0:70:kick.wav
192,192,24683,1,0,0:0:0:0:
320,192,24857,128,0,24900:0:0:0:0:
448,192,24857,1,0,0:0:0:0:
192,192,24943,1,0,0:0:0:0:
64,192,25030,1,0,0:0:0:70:kick.wav
320,192,25030,1,0,0:0:0:0:
64,192,25204,128,0,25247:0:0:0:0:
448,192,25204,128,0,25377:0:0:0:0:
320,192,25290,1,0,0:0:0:0:
64,192,25377,1,0,0:0:0:70:kick.wav
192,192,25377,1,0,0:0:0:0:
192,192,25550,1,0,0:0:0:0:
320,192,25550,128,0,25724:0:0:0:0:
192,192,25637,1,0,0:0:0:0:
64,192,25724,1,0,0:0:0:70:kick.wav
448,192,25724,1,0,0:0:0:0:
64,192,25897,128,0,26071:0:0:0:0:
448,192,25897,128,0,25941:0:0:0:0:
192,192,26071,1,0,0:0:0:70:kick.wav
320,192,26071,1,0,0:0:0:0:
192,192,26244,128,0,26287:0:0:0:0:
448,192,26244,1,0,0:0:0:0:
320,192,26331,1,0,0:0:0:0:
64,192,26417,1,0,0:0:0:70:kick.wav
448,192,26417,1,0,0:0:0:0:
192,192,26591,128,0,26764:0:0:0:0:
320,192,26591,128,0,26634:0:0:0:0:
64,192,26764,1,0,0:0:0:70:kick.wav
448,192,26764,1,0,0:0:0:0:
64,192,26938,128,0,27111:0:0:0:0:
448,192,26938,128,0,26981:0:0:0:0:
192,192,27111,1,0,0:0:0:70:kick.wav
448,192,27111,1,0,0:0:0:0:
192,192,27284,128,0,27328:0:0:0:0:
320,192,27284,128,0,27458:0:0:0:0:
64,192,27458,1,0,0:0:0:70:kick.wav
448,192,27458,1,0,0:0:0:0:
320,192,27545,1,0,0:0:0:0:
64,192,27631,128,0,27675:0:0:0:0:
192,192,27631,1,0,0:0:0:0:
320,192,27718,1,0,0:0:0:0:
192,192,27805,1,0,0:0:0:70:kick.wav
448,192,27805,128,0,27978:0:0:0:0:
64,192,27978,1,0,0:0:0:0:
64,192,28065,1,0,0:0:0:0:
192,192,28152,1,0,0:0:0:70:kick.wav
448,192,28152,128,0,28498:0:0:0:0:
320,192,28325,128,0,28498:0:0:0:0:
64,192,28498,1,0,0:0:0:70:kick.wav
192,192,28498,128,0,28845:0:0:0:0:
320,192,28672,128,0,28845:0:0:0:0:
64,192,28845,1,0,0:0:0:70:kick.wav
448,192,28845,1,0,0:0:0:70:cymbal.wav
192,192,29019,1,0,0:0:0:0:
320,192,29019,128,0,29062:0:0:0:0:
64,192,29105,1,0,0:0:0:0:
192,192,29192,1,0,0:0:0:70:kick.wav
448,192,29192,1,0,0:0:0:0:
64,192,29365,128,0,29539:0:0:0:0:
448,192,29365,128,0,29452:0:0:0:0:
320,192,29539,1,0,0:0:0:70:kick.wav
448,192,29539,128,0,29626:0:0:0:0:
192,192,29712,128,0,29886:0:0:0:0:
448,192,29712,128,0,29799:0:0:0:0:
64,192,29886,1,0,0:0:0:70:kick.wav
448,192,29886,1,0,0:0:0:0:
192,192,30059,128,0,30102:0:0:0:0:
320,192,30059,128,0,30232:0:0:0:0:
64,192,30232,1,0,0:0:0:70:kick.wav
448,192,30232,1,0,0:0:0:0:
64,192,30406,128,0,30449:0:0:0:0:
320,192,30406,1,0,0:0:0:0:
448,192,30493,1,0,0:0:0:0:
192,192,30579,1,0,0:0:0:70:kick.wav
320,192,30579,1,0,0:0:0:0:
64,192,30753,128,0,30926:0:0:0:0:
448,192,30753,128,0,30796:0:0:0:0:
192,192,30839,1,0,0:0:0:0:
320,192,30926,1,0,0:0:0:70:kick.wav
448,192,30926,1,0,0:0:0:0:
192,192,31100,128,0,31273:0:0:0:0:
448,192,31100,1,0,0:0:0:0:
448,192,31186,1,0,0:0:0:0:
64,192,31273,1,0,0:0:0:70:kick.wav
320,192,31273,1,0,0:0:0:0:
192,192,31446,128,0,31490:0:0:0:0:
448,192,31446,128,0,31620:0:0:0:0:
64,192,31620,1,0,0:0:0:70:kick.wav
320,192,31620,1,0,0:0:0:0:
64,192,31793,128,0,31836:0:0:0:0:
448,192,31793,1,0,0:0:0:0:
320,192,31880,1,0,0:0:0:0:
192,192,31967,1,0,0:0:0:70:kick.wav
448,192,31967,1,0,0:0:0:0:
64,192,32140,128,0,32487:0:0:0:0:
192,192,32140,128,0,32183:0:0:0:0:
320,192,32313,1,0,0:0:0:70:kick.wav
448,192,32313,1,0,0:0:0:0:
192,192,32487,1,0,0:0:0:0:
448,192,32487,128,0,32530:0:0:0:0:
320,192,32573,1,0,0:0:0:0:
64,192,32660,1,0,0:0:0:70:kick.wav
192,192,32660,1,0,0:0:0:0:
320,192,32834,128,0,32877:0:0:0:0:
448,192,32834,1,0,0:0:0:0:
64,192,33007,128,0,33180:0:0:0:70:kick.wav
192,192,33007,128,0,33180:0:0:0:0:
320,192,33094,1,0,0:0:0:0:
448,192,33180,1,0,0:0:0:0:
320,192,33267,1,0,0:0:0:0:
64,192,33354,128,0,33527:0:0:0:70:kick.wav
192,192,33354,128,0,33527:0:0:0:70:edge.wav
448,192,33527,1,0,0:0:0:0:
320,192,33614,1,0,0:0:0:0:
64,192,33701,128,0,33874:0:0:0:70:kick.wav
192,192,33701,128,0,33874:0:0:0:0:
320,192,33787,1,0,0:0:0:0:
448,192,33874,1,0,0:0:0:0:
320,192,33961,1,0,0:0:0:0:
64,192,34047,1,0,0:0:0:70:snare.wav
192,192,34047,1,0,0:0:0:0:
448,192,34047,1,0,0:0:0:0:
64,192,34394,128,0,34481:0:0:0:70:kick.wav
192,192,34394,128,0,34481:0:0:0:70:cymbal.wav
320,192,34394,1,0,0:0:0:0:
448,192,34394,1,0,0:0:0:0:
64,192,34568,128,0,34654:0:0:0:0:
320,192,34568,128,0,34654:0:0:0:0:
64,192,34741,128,0,34915:0:0:0:70:kick.wav
192,192,34741,128,0,34915:0:0:0:0:
448,192,34741,128,0,34915:0:0:0:0:
320,192,34915,128,0,35001:0:0:0:0:
192,192,35001,128,0,35088:0:0:0:0:
64,192,35088,128,0,35175:0:0:0:70:kick.wav
320,192,35088,1,0,0:0:0:0:
448,192,35088,128,0,35175:0:0:0:0:
192,192,35261,128,0,35348:0:0:0:0:
448,192,35261,128,0,35348:0:0:0:0:
192,192,35435,1,0,0:0:0:70:kick.wav
320,192,35435,128,0,35521:0:0:0:0:
448,192,35435,128,0,35608:0:0:0:0:
64,192,35521,128,0,35608:0:0:0:0:
192,192,35608,128,0,35695:0:0:0:0:
320,192,35695,128,0,35782:0:0:0:0:
64,192,35782,128,0,35955:0:0:0:70:kick.wav
192,192,35782,128,0,35955:0:0:0:0:
448,192,35782,1,0,0:0:0:0:
448,192,35955,128,0,36042:0:0:0:0:
192,192,36042,128,0,36128:0:0:0:0:
64,192,36128,1,0,0:0:0:70:kick.wav
320,192,36128,128,0,36302:0:0:0:0:
448,192,36128,128,0,36302:0:0:0:0:
192,192,36302,128,0,36389:0:0:0:0:
320,192,36389,128,0,36475:0:0:0:0:
64,192,36475,128,0,36649:0:0:0:70:kick.wav
192,192,36475,128,0,36649:0:0:0:0:
448,192,36475,1,0,0:0:0:0:
320,192,36649,128,0,36735:0:0:0:0:
192,192,36735,128,0,36822:0:0:0:0:
64,192,36822,128,0,36995:0:0:0:70:kick.wav
320,192,36822,128,0,36995:0:0:0:0:
448,192,36822,128,0,37169:0:0:0:0:
192,192,36995,128,0,37169:0:0:0:0:
64,192,37169,128,0,37256:0:0:0:70:kick.wav
320,192,37169,128,0,37256:0:0:0:0:
192,192,37342,128,0,37429:0:0:0:0:
320,192,37342,128,0,37429:0:0:0:0:
64,192,37516,128,0,37689:0:0:0:70:kick.wav
320,192,37516,128,0,37689:0:0:0:0:
448,192,37516,128,0,37689:0:0:0:0:
192,192,37689,128,0,37776:0:0:0:0:
448,192,37776,128,0,37863:0:0:0:0:
64,192,37863,128,0,37949:0:0:0:70:kick.wav
192,192,37863,1,0,0:0:0:0:
320,192,37863,128,0,37949:0:0:0:0:
192,192,38036,128,0,38123:0:0:0:0:
448,192,38036,128,0,38123:0:0:0:0:
64,192,38209,128,0,38383:0:0:0:70:kick.wav
320,192,38209,128,0,38296:0:0:0:0:
448,192,38209,1,0,0:0:0:0:
192,192,38296,128,0,38383:0:0:0:0:
448,192,38383,128,0,38469:0:0:0:0:
320,192,38469,128,0,38556:0:0:0:0:
64,192,38556,1,0,0:0:0:70:kick.wav
192,192,38556,128,0,38730:0:0:0:0:
448,192,38556,128,0,38730:0:0:0:0:
64,192,38730,128,0,38816:0:0:0:0:
320,192,38816,128,0,38903:0:0:0:0:
64,192,38903,128,0,39076:0:0:0:70:kick.wav
192,192,38903,128,0,39076:0:0:0:0:
448,192,38903,1,0,0:0:0:0:
448,192,39076,128,0,39163:0:0:0:0:
320,192,39163,128,0,39250:0:0:0:0:
64,192,39250,128,0,39423:0:0:0:70:kick.wav
192,192,39250,1,0,0:0:0:0:
448,192,39250,128,0,39423:0:0:0:0:
320,192,39423,128,0,39510:0:0:0:0:
192,192,39510,128,0,39597:0:0:0:0:
64,192,39597,128,0,39943:0:0:0:70:kick.wav
320,192,39597,128,0,39770:0:0:0:0:
448,192,39597,128,0,39770:0:0:0:0:
192,192,39770,128,0,39943:0:0:0:0:
320,192,39943,128,0,40030:0:0:0:70:kick.wav
448,192,39943,128,0,40030:0:0:0:0:
192,192,40117,128,0,40204:0:0:0:0:
320,192,40117,128,0,40204:0:0:0:0:
64,192,40290,128,0,40464:0:0:0:70:kick.wav
320,192,40290,128,0,40464:0:0:0:0:
448,192,40290,128,0,40464:0:0:0:0:
192,192,40464,128,0,40550:0:0:0:0:
320,192,40550,128,0,40637:0:0:0:0:
64,192,40637,128,0,40724:0:0:0:70:kick.wav
192,192,40637,1,0,0:0:0:0:
448,192,40637,128,0,40724:0:0:0:0:
64,192,40810,128,0,40897:0:0:0:0:
320,192,40810,128,0,40897:0:0:0:0:
64,192,40984,128,0,41157:0:0:0:70:kick.wav
192,192,40984,128,0,41071:0:0:0:0:
448,192,40984,1,0,0:0:0:0:
320,192,41071,128,0,41157:0:0:0:0:
448,192,41157,128,0,41244:0:0:0:0:
192,192,41244,128,0,41331:0:0:0:0:
64,192,41331,128,0,41504:0:0:0:70:kick.wav
320,192,41331,1,0,0:0:0:0:
448,192,41331,128,0,41504:0:0:0:0:
192,192,41504,128,0,41591:0:0:0:0:
320,192,41591,128,0,41678:0:0:0:0:
64,192,41678,128,0,41851:0:0:0:70:kick.wav
192,192,41678,128,0,41851:0:0:0:0:
448,192,41678,1,0,0:0:0:0:
320,192,41851,128,0,41938:0:0:0:0:
192,192,41938,128,0,42024:0:0:0:0:
64,192,42024,1,0,0:0:0:70:kick.wav
320,192,42024,128,0,42198:0:0:0:0:
448,192,42024,128,0,42198:0:0:0:0:
64,192,42198,128,0,42284:0:0:0:0:
192,192,42284,128,0,42371:0:0:0:0:
64,192,42371,128,0,42545:0:0:0:70:kick.wav
320,192,42371,128,0,42718:0:0:0:0:
448,192,42371,128,0,42545:0:0:0:0:
192,192,42545,128,0,42718:0:0:0:0:
64,192,42718,128,0,42805:0:0:0:70:kick.wav
448,192,42718,128,0,42805:0:0:0:0:
192,192,42891,128,0,42978:0:0:0:0:
448,192,42891,128,0,42978:0:0:0:0:
64,192,43065,128,0,43238:0:0:0:70:kick.wav
320,192,43065,128,0,43238:0:0:0:0:
448,192,43065,128,0,43238:0:0:0:0:
192,192,43238,128,0,43325:0:0:0:0:
320,192,43325,128,0,43412:0:0:0:0:
64,192,43412,128,0,43498:0:0:0:70:kick.wav
192,192,43412,1,0,0:0:0:0:
448,192,43412,128,0,43498:0:0:0:0:
64,192,43585,128,0,43672:0:0:0:0:
320,192,43585,128,0,43672:0:0:0:0:
192,192,43758,128,0,43845:0:0:0:70:kick.wav
320,192,43758,1,0,0:0:0:0:
448,192,43758,128,0,43932:0:0:0:0:
64,192,43845,128,0,43932:0:0:0:0:
320,192,43932,128,0,44019:0:0:0:0:
192,192,44019,128,0,44105:0:0:0:0:
64,192,44105,128,0,44279:0:0:0:70:kick.wav
320,192,44105,128,0,44279:0:0:0:0:
448,192,44105,128,0,44279:0:0:0:0:
192,192,44279,128,0,44365:0:0:0:0:
320,192,44365,128,0,44452:0:0:0:0:
64,192,44452,128,0,44626:0:0:0:70:kick.wav
192,192,44452,128,0,44626:0:0:0:0:
448,192,44452,128,0,44626:0:0:0:0:
320,192,44626,128,0,44712:0:0:0:0:
192,192,44712,128,0,44799:0:0:0:0:
64,192,44799,128,0,44972:0:0:0:70:kick.wav
320,192,44799,128,0,44972:0:0:0:0:
448,192,44799,128,0,44972:0:0:0:0:
192,192,44972,128,0,45059:0:0:0:0:
320,192,45059,128,0,45146:0:0:0:0:
64,192,45146,1,0,0:0:0:70:snare.wav
192,192,45146,1,0,0:0:0:0:
448,192,45146,1,0,0:0:0:0:
64,192,45493,1,0,0:0:0:70:kick.wav
320,192,45493,1,0,0:0:0:70:cymbal.wav
448,192,45493,1,0,0:0:0:0:
64,192,45666,1,0,0:0:0:0:
64,192,45839,1,0,0:0:0:70:kick.wav
448,192,45839,128,0,45897:0:0:0:70:edge.wav
192,192,46013,1,0,0:0:0:0:
320,192,46100,1,0,0:0:0:0:
64,192,46186,1,0,0:0:0:70:kick.wav
448,192,46186,1,0,0:0:0:0:
320,192,46273,1,0,0:0:0:0:
64,192,46360,1,0,0:0:0:0:
192,192,46446,1,0,0:0:0:0:
320,192,46533,128,0,46591:0:0:0:70:kick.wav
448,192,46533,1,0,0:0:0:70:edge.wav
192,192,46706,1,0,0:0:0:0:
448,192,46793,1,0,0:0:0:0:
64,192,46880,1,0,0:0:0:70:kick.wav
320,192,46880,1,0,0:0:0:0:
320,192,47053,1,0,0:0:0:0:
192,192,47227,128,0,47284:0:0:0:70:kick.wav
320,192,47227,1,0,0:0:0:70:edge.wav
64,192,47400,1,0,0:0:0:0:
192,192,47487,1,0,0:0:0:0:
320,192,47573,1,0,0:0:0:70:kick.wav
448,192,47573,1,0,0:0:0:0:
64,192,47747,128,0,47805:0:0:0:70:edge.wav
448,192,47747,1,0,0:0:0:0:
64,192,47920,1,0,0:0:0:70:kick.wav
192,192,47920,1,0,0:0:0:0:
448,192,48007,1,0,0:0:0:0:
320,192,48094,1,0,0:0:0:0:
64,192,48180,1,0,0:0:0:0:
192,192,48267,1,0,0:0:0:70:kick.wav
448,192,48267,1,0,0:0:0:0:
192,192,48441,1,0,0:0:0:0:
192,192,48614,1,0,0:0:0:70:kick.wav
320,192,48614,128,0,48672:0:0:0:70:edge.wav
64,192,48787,1,0,0:0:0:0:
448,192,48874,1,0,0:0:0:0:
192,192,48961,1,0,0:0:0:70:kick.wav
320,192,48961,1,0,0:0:0:0:
64,192,49047,1,0,0:0:0:0:
320,192,49134,1,0,0:0:0:0:
192,192,49221,1,0,0:0:0:0:
64,192,49308,1,0,0:0:0:70:kick.wav
448,192,49308,128,0,49365:0:0:0:70:edge.wav
192,192,49481,1,0,0:0:0:0:
320,192,49568,1,0,0:0:0:0:
64,192,49654,128,0,49828:0:0:0:70:kick.wav
448,192,49654,1,0,0:0:0:0:
320,192,49828,1,0,0:0:0:0:
192,192,49915,1,0,0:0:0:0:
320,192,50001,128,0,50059:0:0:0:70:kick.wav
448,192,50001,128,0,50175:0:0:0:70:edge.wav
64,192,50175,1,0,0:0:0:0:
192,192,50261,1,0,0:0:0:0:
320,192,50348,128,0,50521:0:0:0:70:kick.wav
448,192,50348,1,0,0:0:0:0:
64,192,50521,128,0,50579:0:0:0:70:edge.wav
192,192,50521,1,0,0:0:0:0:
448,192,50608,1,0,0:0:0:0:
192,192,50695,128,0,51042:0:0:0:70:kick.wav
320,192,50695,1,0,0:0:0:0:
64,192,51042,1,0,0:0:0:70:kick.wav
448,192,51042,128,0,51215:0:0:0:0:
64,192,51215,1,0,0:0:0:70:kick.wav
320,192,51215,128,0,51389:0:0:0:0:
64,192,51389,1,0,0:0:0:70:kick.wav
192,192,51389,1,0,0:0:0:70:edge.wav
448,192,51389,128,0,51735:0:0:0:0:
64,192,51562,1,0,0:0:0:70:kick.wav
320,192,51562,128,0,51649:0:0:0:0:
192,192,51649,128,0,51735:0:0:0:0:
64,192,51735,128,0,51909:0:0:0:70:kick.wav
320,192,51735,1,0,0:0:0:0:
320,192,51909,1,0,0:0:0:70:kick.wav
448,192,51909,128,0,52082:0:0:0:0:
64,192,52082,128,0,52429:0:0:0:70:kick.wav
192,192,52082,1,0,0:0:0:70:edge.wav
320,192,52082,1,0,0:0:0:0:
192,192,52256,128,0,52342:0:0:0:70:kick.wav
320,192,52256,1,0,0:0:0:0:
448,192,52342,128,0,52429:0:0:0:0:
192,192,52429,1,0,0:0:0:70:kick.wav
320,192,52429,128,0,52602:0:0:0:0:
64,192,52602,128,0,52776:0:0:0:70:kick.wav
192,192,52602,1,0,0:0:0:0:
192,192,52776,1,0,0:0:0:70:kick.wav
320,192,52776,128,0,53123:0:0:0:70:edge.wav
448,192,52776,1,0,0:0:0:0:
192,192,52949,1,0,0:0:0:70:kick.wav
448,192,52949,128,0,53036:0:0:0:0:
64,192,53036,128,0,53123:0:0:0:0:
192,192,53123,128,0,53296:0:0:0:70:kick.wav
448,192,53123,1,0,0:0:0:0:
64,192,53296,128,0,53469:0:0:0:70:kick.wav
320,192,53296,1,0,0:0:0:70:edge.wav
448,192,53296,1,0,0:0:0:0:
320,192,53469,128,0,53556:0:0:0:70:kick.wav
448,192,53469,1,0,0:0:0:0:
192,192,53556,128,0,53643:0:0:0:0:
64,192,53643,128,0,53730:0:0:0:70:kick.wav
448,192,53643,1,0,0:0:0:0:
320,192,53730,128,0,53816:0:0:0:0:
64,192,53816,128,0,53903:0:0:0:70:kick.wav
192,192,53816,128,0,53903:0:0:0:70:edge.wav
320,192,53903,128,0,53990:0:0:0:70:kick.wav
448,192,53903,128,0,53990:0:0:0:0:
64,192,53990,128,0,54076:0:0:0:70:kick.wav
192,192,53990,128,0,54076:0:0:0:0:
448,192,54076,128,0,54163:0:0:0:70:kick.wav
192,192,54163,128,0,54250:0:0:0:70:kick.wav
320,192,54163,128,0,54250:0:0:0:0:
64,192,54250,128,0,54336:0:0:0:70:kick.wav
448,192,54250,128,0,54336:0:0:0:0:
192,192,54336,128,0,54423:0:0:0:70:kick.wav
320,192,54336,128,0,54423:0:0:0:70:edge.wav
64,192,54423,128,0,54510:0:0:0:70:kick.wav
320,192,54510,128,0,54597:0:0:0:70:kick.wav
448,192,54510,128,0,54597:0:0:0:0:
64,192,54597,128,0,54683:0:0:0:70:kick.wav
192,192,54597,128,0,54683:0:0:0:0:
320,192,54683,128,0,54770:0:0:0:70:kick.wav
448,192,54683,128,0,54770:0:0:0:70:edge.wav
64,192,54770,128,0,54857:0:0:0:70:kick.wav
192,192,54770,128,0,54943:0:0:0:70:edge.wav
320,192,54857,128,0,55030:0:0:0:70:kick.wav
448,192,54857,128,0,55117:0:0:0:70:edge.wav
64,192,54943,1,0,0:0:0:70:kick.wav
192,192,55030,1,0,0:0:0:70:kick.wav
320,192,55117,1,0,0:0:0:70:kick.wav
64,192,55204,128,0,55334:0:0:0:70:kick.wav
448,192,55204,1,0,0:0:0:0:
320,192,55420,128,0,55464:0:0:0:0:
448,192,55550,128,0,55680:0:0:0:0:
192,192,55767,128,0,55810:0:0:0:0:
320,192,55897,128,0,56244:0:0:0:0:
64,192,56244,1,0,0:0:0:70:snare.wav
192,192,56244,1,0,0:0:0:0:
448,192,56244,1,0,0:0:0:0:
64,192,56591,1,0,0:0:0:70:kick.wav
448,192,56591,1,0,0:0:0:70:cymbal.wav
320,192,56634,1,0,0:0:0:0:
192,192,56678,1,0,0:0:0:0:
64,192,56721,1,0,0:0:0:0:
448,192,56764,1,0,0:0:0:0:
320,192,56808,1,0,0:0:0:0:
64,192,56938,1,0,0:0:0:70:drum.wav
192,192,56938,1,0,0:0:0:0:
448,192,56938,128,0,57024:0:0:0:0:
448,192,57111,128,0,57198:0:0:0:0:
192,192,57284,1,0,0:0:0:0:
192,192,57371,1,0,0:0:0:0:
64,192,57458,1,0,0:0:0:70:kick.wav
320,192,57458,128,0,57631:0:0:0:0:
64,192,57631,128,0,57718:0:0:0:70:drum.wav
192,192,57631,128,0,57718:0:0:0:0:
448,192,57631,1,0,0:0:0:0:
64,192,57805,128,0,57891:0:0:0:0:
192,192,57805,128,0,57891:0:0:0:0:
320,192,57978,128,0,58065:0:0:0:70:kick.wav
448,192,57978,1,0,0:0:0:0:
320,192,58152,128,0,58238:0:0:0:0:
64,192,58325,128,0,58412:0:0:0:70:drum.wav
192,192,58325,128,0,58412:0:0:0:0:
448,192,58325,1,0,0:0:0:0:
320,192,58498,128,0,58672:0:0:0:0:
448,192,58498,128,0,58672:0:0:0:0:
64,192,58672,1,0,0:0:0:0:
192,192,58758,1,0,0:0:0:0:
320,192,58758,1,0,0:0:0:0:
64,192,58845,1,0,0:0:0:70:kick.wav
448,192,58845,128,0,59019:0:0:0:0:
64,192,59019,128,0,59192:0:0:0:70:drum.wav
192,192,59019,1,0,0:0:0:0:
320,192,59019,128,0,59365:0:0:0:0:
448,192,59192,128,0,59365:0:0:0:0:
192,192,59365,1,0,0:0:0:70:kick.wav
64,192,59409,1,0,0:0:0:0:
320,192,59452,1,0,0:0:0:0:
448,192,59495,1,0,0:0:0:0:
192,192,59539,1,0,0:0:0:0:
64,192,59582,1,0,0:0:0:0:
192,192,59712,128,0,59799:0:0:0:70:drum.wav
320,192,59712,1,0,0:0:0:0:
448,192,59712,1,0,0:0:0:0:
192,192,59886,128,0,59972:0:0:0:0:
320,192,60059,1,0,0:0:0:0:
320,192,60146,1,0,0:0:0:0:
64,192,60232,128,0,60406:0:0:0:70:kick.wav
448,192,60232,1,0,0:0:0:0:
192,192,60406,1,0,0:0:0:70:drum.wav
320,192,60406,128,0,60493:0:0:0:0:
448,192,60406,128,0,60493:0:0:0:0:
320,192,60579,128,0,60666:0:0:0:0:
448,192,60579,128,0,60666:0:0:0:0:
64,192,60753,1,0,0:0:0:70:kick.wav
192,192,60753,128,0,60839:0:0:0:0:
192,192,60926,128,0,61013:0:0:0:0:
64,192,61100,1,0,0:0:0:70:drum.wav
320,192,61100,128,0,61186:0:0:0:0:
448,192,61100,128,0,61186:0:0:0:0:
192,192,61273,128,0,61446:0:0:0:0:
448,192,61273,128,0,61446:0:0:0:0:
320,192,61446,1,0,0:0:0:0:
64,192,61533,1,0,0:0:0:0:
192,192,61533,1,0,0:0:0:0:
320,192,61620,128,0,61793:0:0:0:70:kick.wav
448,192,61620,1,0,0:0:0:0:
64,192,61793,128,0,62140:0:0:0:70:drum.wav
192,192,61793,1,0,0:0:0:0:
448,192,61793,128,0,61967:0:0:0:0:
192,192,61967,128,0,62140:0:0:0:0:
448,192,62140,1,0,0:0:0:70:kick.wav
320,192,62183,1,0,0:0:0:0:
64,192,62227,1,0,0:0:0:0:
192,192,62270,1,0,0:0:0:0:
448,192,62313,1,0,0:0:0:0:
320,192,62357,1,0,0:0:0:0:
64,192,62487,128,0,62573:0:0:0:70:drum.wav
192,192,62487,1,0,0:0:0:0:
448,192,62487,1,0,0:0:0:0:
64,192,62660,128,0,62747:0:0:0:0:
320,192,62834,1,0,0:0:0:0:
320,192,62920,1,0,0:0:0:0:
64,192,63007,1,0,0:0:0:70:kick.wav
448,192,63007,1,0,0:0:0:0:
64,192,63094,1,0,0:0:0:0:
192,192,63180,128,0,63354:0:0:0:70:drum.wav
320,192,63180,1,0,0:0:0:0:
448,192,63180,1,0,0:0:0:0:
320,192,63354,1,0,0:0:0:0:
320,192,63441,1,0,0:0:0:0:
192,192,63527,1,0,0:0:0:70:kick.wav
448,192,63527,128,0,63614:0:0:0:0:
64,192,63614,128,0,63701:0:0:0:0:
448,192,63701,128,0,63787:0:0:0:0:
64,192,63787,128,0,63874:0:0:0:0:
192,192,63874,128,0,63961:0:0:0:70:drum.wav
320,192,63874,1,0,0:0:0:0:
448,192,63874,1,0,0:0:0:0:
64,192,64047,128,0,64221:0:0:0:0:
192,192,64047,128,0,64221:0:0:0:0:
448,192,64221,1,0,0:0:0:0:
64,192,64308,1,0,0:0:0:0:
320,192,64308,1,0,0:0:0:0:
192,192,64394,128,0,64568:0:0:0:70:kick.wav
448,192,64394,1,0,0:0:0:0:
64,192,64568,128,0,64741:0:0:0:70:drum.wav
320,192,64568,1,0,0:0:0:0:
448,192,64568,128,0,64915:0:0:0:0:
320,192,64741,128,0,64915:0:0:0:0:
64,192,64915,1,0,0:0:0:70:kick.wav
192,192,64958,1,0,0:0:0:0:
320,192,65001,1,0,0:0:0:0:
448,192,65045,1,0,0:0:0:0:
64,192,65088,1,0,0:0:0:0:
192,192,65131,1,0,0:0:0:0:
64,192,65261,1,0,0:0:0:70:drum.wav
320,192,65261,1,0,0:0:0:0:
448,192,65261,128,0,65348:0:0:0:0:
448,192,65435,128,0,65521:0:0:0:0:
64,192,65608,1,0,0:0:0:0:
64,192,65695,1,0,0:0:0:0:
192,192,65782,128,0,65955:0:0:0:70:kick.wav
448,192,65782,1,0,0:0:0:0:
64,192,65955,1,0,0:0:0:70:drum.wav
320,192,65955,1,0,0:0:0:0:
448,192,65955,128,0,66215:0:0:0:0:
192,192,66042,1,0,0:0:0:70:kick.wav
64,192,66128,1,0,0:0:0:70:kick.wav
320,192,66128,1,0,0:0:0:0:
192,192,66215,1,0,0:0:0:70:kick.wav
64,192,66302,1,0,0:0:0:70:drum.wav
320,192,66302,1,0,0:0:0:0:
448,192,66302,1,0,0:0:0:0:
192,192,66475,1,0,0:0:0:0:
448,192,66649,1,0,0:0:0:0:
448,192,66822,1,0,0:0:0:0:
192,192,66995,128,0,67342:0:0:0:0:
64,192,67342,1,0,0:0:0:70:snare.wav
320,192,67342,1,0,0:0:0:0:
448,192,67342,1,0,0:0:0:0:
64,192,67689,1,0,0:0:0:70:kick.wav
448,192,67689,1,0,0:0:0:70:cymbal.wav
192,192,67732,1,0,0:0:0:0:
320,192,67776,1,0,0:0:0:0:
448,192,67819,1,0,0:0:0:0:
64,192,67863,1,0,0:0:0:0:
192,192,67906,1,0,0:0:0:0:
64,192,68036,128,0,68123:0:0:0:70:drum.wav
320,192,68036,1,0,0:0:0:0:
448,192,68036,1,0,0:0:0:0:
64,192,68209,128,0,68296:0:0:0:0:
320,192,68383,128,0,68469:0:0:0:0:
192,192,68469,128,0,68556:0:0:0:0:
320,192,68556,128,0,68643:0:0:0:70:kick.wav
448,192,68556,1,0,0:0:0:0:
192,192,68643,128,0,68730:0:0:0:0:
64,192,68730,1,0,0:0:0:70:drum.wav
320,192,68730,128,0,68816:0:0:0:0:
448,192,68730,1,0,0:0:0:0:
192,192,68816,128,0,68903:0:0:0:0:
320,192,68903,128,0,69076:0:0:0:0:
64,192,69076,128,0,69163:0:0:0:70:kick.wav
192,192,69076,1,0,0:0:0:0:
448,192,69163,128,0,69250:0:0:0:0:
64,192,69250,128,0,69336:0:0:0:0:
448,192,69336,128,0,69423:0:0:0:0:
64,192,69423,128,0,69510:0:0:0:70:drum.wav
192,192,69423,1,0,0:0:0:0:
320,192,69423,1,0,0:0:0:0:
448,192,69510,128,0,69597:0:0:0:0:
64,192,69597,128,0,69770:0:0:0:0:
192,192,69597,128,0,69770:0:0:0:0:
320,192,69770,128,0,69857:0:0:0:0:
192,192,69857,128,0,69943:0:0:0:0:
64,192,69943,1,0,0:0:0:70:kick.wav
320,192,69943,128,0,70117:0:0:0:0:
64,192,70117,128,0,70290:0:0:0:70:drum.wav
192,192,70117,1,0,0:0:0:0:
448,192,70117,128,0,70464:0:0:0:0:
320,192,70290,128,0,70464:0:0:0:0:
64,192,70464,1,0,0:0:0:70:kick.wav
192,192,70507,1,0,0:0:0:0:
448,192,70550,1,0,0:0:0:0:
320,192,70594,1,0,0:0:0:0:
64,192,70637,1,0,0:0:0:0:
192,192,70680,1,0,0:0:0:0:
64,192,70810,1,0,0:0:0:70:drum.wav
320,192,70810,128,0,70897:0:0:0:0:
448,192,70810,1,0,0:0:0:0:
320,192,70984,128,0,71071:0:0:0:0:
64,192,71157,1,0,0:0:0:0:
64,192,71244,1,0,0:0:0:0:
192,192,71331,128,0,71504:0:0:0:70:kick.wav
448,192,71331,1,0,0:0:0:0:
64,192,71504,1,0,0:0:0:70:drum.wav
320,192,71504,128,0,71591:0:0:0:0:
448,192,71504,128,0,71591:0:0:0:0:
320,192,71678,128,0,71764:0:0:0:0:
448,192,71678,128,0,71764:0:0:0:0:
64,192,71851,128,0,71938:0:0:0:70:kick.wav
448,192,71851,1,0,0:0:0:0:
192,192,71938,128,0,72024:0:0:0:0:
64,192,72024,128,0,72111:0:0:0:0:
192,192,72111,128,0,72198:0:0:0:0:
64,192,72198,1,0,0:0:0:70:drum.wav
320,192,72198,1,0,0:0:0:0:
448,192,72198,1,0,0:0:0:0:
320,192,72371,128,0,72545:0:0:0:0:
448,192,72371,128,0,72545:0:0:0:0:
64,192,72545,1,0,0:0:0:0:
192,192,72631,1,0,0:0:0:0:
320,192,72631,1,0,0:0:0:0:
64,192,72718,1,0,0:0:0:70:kick.wav
448,192,72718,128,0,72891:0:0:0:0:
64,192,72891,128,0,73238:0:0:0:70:drum.wav
192,192,72891,1,0,0:0:0:0:
320,192,72891,128,0,73065:0:0:0:0:
192,192,73065,128,0,73238:0:0:0:0:
448,192,73238,1,0,0:0:0:70:kick.wav
320,192,73282,1,0,0:0:0:0:
64,192,73325,1,0,0:0:0:0:
192,192,73368,1,0,0:0:0:0:
448,192,73412,1,0,0:0:0:0:
320,192,73455,1,0,0:0:0:0:
64,192,73585,1,0,0:0:0:70:drum.wav
192,192,73585,1,0,0:0:0:0:
448,192,73585,128,0,73672:0:0:0:0:
448,192,73758,128,0,73845:0:0:0:0:
64,192,73932,128,0,74019:0:0:0:0:
320,192,74019,128,0,74105:0:0:0:0:
64,192,74105,128,0,74192:0:0:0:70:kick.wav
192,192,74105,1,0,0:0:0:0:
320,192,74192,128,0,74279:0:0:0:0:
64,192,74279,128,0,74365:0:0:0:70:drum.wav
192,192,74279,1,0,0:0:0:0:
448,192,74279,1,0,0:0:0:0:
320,192,74365,128,0,74452:0:0:0:0:
64,192,74452,128,0,74626:0:0:0:0:
320,192,74626,1,0,0:0:0:70:kick.wav
448,192,74626,128,0,74712:0:0:0:0:
192,192,74712,128,0,74799:0:0:0:0:
448,192,74799,128,0,74886:0:0:0:0:
192,192,74886,128,0,74972:0:0:0:0:
64,192,74972,1,0,0:0:0:70:drum.wav
320,192,74972,1,0,0:0:0:0:
448,192,74972,128,0,75059:0:0:0:0:
192,192,75059,128,0,75146:0:0:0:0:
320,192,75146,128,0,75319:0:0:0:0:
448,192,75146,128,0,75319:0:0:0:0:
192,192,75319,128,0,75406:0:0:0:0:
320,192,75406,128,0,75493:0:0:0:0:
192,192,75493,128,0,75666:0:0:0:70:kick.wav
448,192,75493,1,0,0:0:0:0:
64,192,75666,128,0,75839:0:0:0:70:drum.wav
320,192,75666,1,0,0:0:0:0:
448,192,75666,128,0,76013:0:0:0:0:
320,192,75839,128,0,76013:0:0:0:0:
192,192,76013,1,0,0:0:0:70:kick.wav
64,192,76056,1,0,0:0:0:0:
448,192,76100,1,0,0:0:0:0:
320,192,76143,1,0,0:0:0:0:
192,192,76186,1,0,0:0:0:0:
64,192,76230,1,0,0:0:0:0:
192,192,76360,128,0,76446:0:0:0:70:drum.wav
320,192,76360,1,0,0:0:0:0:
448,192,76360,1,0,0:0:0:0:
192,192,76533,128,0,76620:0:0:0:0:
448,192,76706,1,0,0:0:0:0:
448,192,76793,1,0,0:0:0:0:
64,192,76880,1,0,0:0:0:70:kick.wav
320,192,76880,128,0,77053:0:0:0:0:
64,192,77053,128,0,77313:0:0:0:70:drum.wav
192,192,77053,1,0,0:0:0:0:
448,192,77053,1,0,0:0:0:0:
320,192,77140,1,0,0:0:0:70:kick.wav
192,192,77227,1,0,0:0:0:70:kick.wav
448,192,77227,1,0,0:0:0:0:
320,192,77313,1,0,0:0:0:70:kick.wav
64,192,77400,1,0,0:0:0:70:drum.wav
192,192,77400,1,0,0:0:0:0:
448,192,77400,1,0,0:0:0:0:
192,192,77573,1,0,0:0:0:0:
448,192,77573,1,0,0:0:0:0:
64,192,77747,1,0,0:0:0:0:
320,192,77747,1,0,0:0:0:0:
192,192,77920,1,0,0:0:0:0:
448,192,77920,1,0,0:0:0:0:
64,192,78094,1,0,0:0:0:0:
448,192,78094,1,0,0:0:0:0:
192,192,78267,1,0,0:0:0:0:
448,192,78267,1,0,0:0:0:0:
64,192,78441,1,0,0:0:0:70:snare.wav
192,192,78441,1,0,0:0:0:0:
320,192,78441,1,0,0:0:0:0:
448,192,78441,1,0,0:0:0:0:
64,192,78787,1,0,0:0:0:70:kick.wav
192,192,78787,1,0,0:0:0:70:cymbal.wav
448,192,78787,1,0,0:0:0:0:
64,192,78961,128,0,79134:0:0:0:0:
448,192,79047,1,0,0:0:0:0:
192,192,79134,1,0,0:0:0:70:kick.wav
320,192,79134,1,0,0:0:0:0:
320,192,79308,128,0,79481:0:0:0:0:
64,192,79394,1,0,0:0:0:0:
192,192,79481,1,0,0:0:0:70:kick.wav
448,192,79481,1,0,0:0:0:0:
448,192,79654,128,0,79828:0:0:0:0:
320,192,79741,1,0,0:0:0:0:
64,192,79828,1,0,0:0:0:70:kick.wav
192,192,79828,1,0,0:0:0:0:
192,192,80001,128,0,80175:0:0:0:0:
320,192,80088,1,0,0:0:0:0:
64,192,80175,1,0,0:0:0:70:kick.wav
448,192,80175,1,0,0:0:0:0:
64,192,80348,128,0,80521:0:0:0:0:
192,192,80435,1,0,0:0:0:0:
320,192,80521,1,0,0:0:0:70:kick.wav
448,192,80521,1,0,0:0:0:0:
448,192,80695,128,0,80868:0:0:0:0:
64,192,80782,1,0,0:0:0:0:
192,192,80868,1,0,0:0:0:70:kick.wav
320,192,80868,1,0,0:0:0:0:
192,192,81042,128,0,81215:0:0:0:0:
448,192,81128,1,0,0:0:0:0:
64,192,81215,1,0,0:0:0:70:kick.wav
320,192,81215,1,0,0:0:0:0:
320,192,81389,128,0,81562:0:0:0:0:
448,192,81475,1,0,0:0:0:0:
64,192,81562,1,0,0:0:0:70:kick.wav
192,192,81562,1,0,0:0:0:0:
64,192,81735,128,0,81909:0:0:0:0:
320,192,81822,1,0,0:0:0:0:
192,192,81909,1,0,0:0:0:70:kick.wav
448,192,81909,1,0,0:0:0:0:
448,192,82082,128,0,82256:0:0:0:0:
64,192,82169,1,0,0:0:0:0:
192,192,82256,1,0,0:0:0:70:kick.wav
320,192,82256,1,0,0:0:0:0:
192,192,82429,128,0,82602:0:0:0:0:
64,192,82516,1,0,0:0:0:0:
320,192,82602,1,0,0:0:0:70:kick.wav
448,192,82602,1,0,0:0:0:0:
320,192,82776,128,0,82949:0:0:0:0:
192,192,82863,1,0,0:0:0:0:
64,192,82949,1,0,0:0:0:70:kick.wav
448,192,82949,1,0,0:0:0:70:edge.wav
64,192,83123,128,0,83296:0:0:0:0:
320,192,83123,1,0,0:0:0:0:
192,192,83209,1,0,0:0:0:0:
320,192,83296,1,0,0:0:0:70:kick.wav
448,192,83296,1,0,0:0:0:0:
64,192,83469,1,0,0:0:0:70:edge.wav
448,192,83469,128,0,83643:0:0:0:0:
64,192,83643,1,0,0:0:0:70:kick.wav
192,192,83643,1,0,0:0:0:0:
320,192,83730,1,0,0:0:0:0:
192,192,83816,128,0,83990:0:0:0:0:
448,192,83816,1,0,0:0:0:0:
320,192,83903,1,0,0:0:0:0:
64,192,83990,1,0,0:0:0:70:snare.wav
448,192,83990,1,0,0:0:0:0:
64,192,84336,1,0,0:0:0:70:kick.wav
192,192,84336,1,0,0:0:0:70:cymbal.wav
320,192,84336,1,0,0:0:0:0:
448,192,84336,1,0,0:0:0:0:
192,192,84510,1,0,0:0:0:70:kick.wav
320,192,84510,1,0,0:0:0:0:
64,192,84683,1,0,0:0:0:70:kick.wav
320,192,84683,1,0,0:0:0:0:
448,192,84683,1,0,0:0:0:0:
192,192,84857,1,0,0:0:0:70:kick.wav
448,192,84857,1,0,0:0:0:0:
64,192,85030,1,0,0:0:0:70:kick.wav
192,192,85030,1,0,0:0:0:0:
320,192,85030,1,0,0:0:0:0:
320,192,85204,1,0,0:0:0:70:kick.wav
448,192,85204,1,0,0:0:0:0:
64,192,85377,1,0,0:0:0:70:kick.wav
192,192,85377,1,0,0:0:0:0:
448,192,85377,1,0,0:0:0:0:
64,192,85550,1,0,0:0:0:70:kick.wav
320,192,85550,1,0,0:0:0:0:
64,192,85724,1,0,0:0:0:70:kick.wav
192,192,85724,1,0,0:0:0:70:cymbal.wav
320,192,85724,1,0,0:0:0:0:
448,192,85724,1,0,0:0:0:0:
192,192,85897,1,0,0:0:0:70:kick.wav
448,192,85897,1,0,0:0:0:0:
64,192,86071,1,0,0:0:0:70:kick.wav
320,192,86071,1,0,0:0:0:0:
448,192,86071,1,0,0:0:0:0:
64,192,86244,1,0,0:0:0:70:kick.wav
192,192,86244,1,0,0:0:0:0:
192,192,86417,1,0,0:0:0:70:kick.wav
320,192,86417,1,0,0:0:0:0:
448,192,86417,1,0,0:0:0:0:
64,192,86591,1,0,0:0:0:70:kick.wav
448,192,86591,1,0,0:0:0:0:
64,192,86764,1,0,0:0:0:70:kick.wav
192,192,86764,1,0,0:0:0:0:
320,192,86764,1,0,0:0:0:0:
320,192,86938,1,0,0:0:0:70:kick.wav
448,192,86938,1,0,0:0:0:0:
64,192,87111,1,0,0:0:0:70:kick.wav
192,192,87111,1,0,0:0:0:70:cymbal.wav
448,192,87111,1,0,0:0:0:0:
320,192,87198,1,0,0:0:0:70:kick.wav
64,192,87284,1,0,0:0:0:70:kick.wav
192,192,87284,1,0,0:0:0:0:
320,192,87371,1,0,0:0:0:70:kick.wav
448,192,87371,1,0,0:0:0:0:
64,192,87458,1,0,0:0:0:70:kick.wav
192,192,87458,1,0,0:0:0:0:
320,192,87545,1,0,0:0:0:70:kick.wav
448,192,87545,1,0,0:0:0:0:
64,192,87631,1,0,0:0:0:70:kick.wav
192,192,87631,1,0,0:0:0:0:
320,192,87718,1,0,0:0:0:70:kick.wav
64,192,87805,1,0,0:0:0:70:kick.wav
192,192,87805,1,0,0:0:0:70:cymbal.wav
448,192,87805,1,0,0:0:0:0:
320,192,87891,1,0,0:0:0:70:kick.wav
64,192,87978,1,0,0:0:0:70:kick.wav
448,192,87978,1,0,0:0:0:0:
192,192,88065,1,0,0:0:0:70:kick.wav
320,192,88065,1,0,0:0:0:0:
64,192,88152,1,0,0:0:0:70:kick.wav
448,192,88152,1,0,0:0:0:0:
192,192,88238,1,0,0:0:0:70:kick.wav
320,192,88238,1,0,0:0:0:0:
64,192,88325,1,0,0:0:0:70:kick.wav
448,192,88325,1,0,0:0:0:0:
192,192,88412,1,0,0:0:0:70:kick.wav
64,192,88498,1,0,0:0:0:70:kick.wav
320,192,88498,1,0,0:0:0:70:edge.wav
448,192,88498,1,0,0:0:0:70:cymbal.wav
448,192,88672,1,0,0:0:0:70:kick.wav
320,192,88715,1,0,0:0:0:70:kick.wav
192,192,88758,1,0,0:0:0:70:kick.wav
64,192,88802,1,0,0:0:0:70:kick.wav
320,192,88845,1,0,0:0:0:70:kick.wav
448,192,88845,1,0,0:0:0:0:
64,192,89019,1,0,0:0:0:70:kick.wav
192,192,89062,1,0,0:0:0:70:kick.wav
320,192,89105,1,0,0:0:0:70:kick.wav
448,192,89149,1,0,0:0:0:70:kick.wav
64,192,89192,1,0,0:0:0:70:kick.wav
192,192,89192,1,0,0:0:0:0:
64,192,89365,1,0,0:0:0:70:kick.wav
192,192,89365,1,0,0:0:0:0:
320,192,89365,1,0,0:0:0:0:
64,192,89539,1,0,0:0:0:70:snare.wav
192,192,89539,1,0,0:0:0:0:
320,192,89539,1,0,0:0:0:0:
448,192,89539,1,0,0:0:0:0:
64,192,89886,128,0,90059:0:0:0:70:kick.wav
192,192,89886,128,0,89972:0:0:0:70:cymbal.wav
320,192,89886,1,0,0:0:0:0:
448,192,89886,1,0,0:0:0:0:
192,192,90059,128,0,90232:0:0:0:0:
320,192,90059,128,0,90146:0:0:0:0:
64,192,90232,1,0,0:0:0:70:kick.wav
448,192,90232,128,0,90406:0:0:0:0:
320,192,90319,128,0,90493:0:0:0:0:
64,192,90406,128,0,90493:0:0:0:0:
192,192,90493,128,0,90579:0:0:0:0:
64,192,90579,128,0,90839:0:0:0:70:kick.wav
320,192,90579,128,0,90666:0:0:0:0:
448,192,90579,128,0,90753:0:0:0:0:
320,192,90753,128,0,90926:0:0:0:0:
192,192,90839,128,0,91013:0:0:0:0:
64,192,90926,1,0,0:0:0:70:kick.wav
448,192,90926,128,0,91100:0:0:0:0:
320,192,91013,128,0,91186:0:0:0:0:
64,192,91100,128,0,91273:0:0:0:0:
192,192,91186,128,0,91273:0:0:0:0:
320,192,91273,128,0,91360:0:0:0:70:kick.wav
448,192,91273,128,0,91446:0:0:0:0:
192,192,91446,128,0,91533:0:0:0:0:
320,192,91446,128,0,91620:0:0:0:0:
64,192,91620,128,0,91793:0:0:0:70:kick.wav
448,192,91620,1,0,0:0:0:0:
320,192,91706,128,0,91880:0:0:0:0:
192,192,91793,128,0,91880:0:0:0:0:
448,192,91880,128,0,91967:0:0:0:0:
64,192,91967,128,0,92227:0:0:0:70:kick.wav
192,192,91967,128,0,92140:0:0:0:0:
320,192,91967,128,0,92053:0:0:0:0:
448,192,92140,128,0,92313:0:0:0:0:
192,192,92227,128,0,92400:0:0:0:0:
64,192,92313,1,0,0:0:0:70:kick.wav
320,192,92313,128,0,92487:0:0:0:0:
448,192,92400,128,0,92573:0:0:0:0:
192,192,92487,128,0,92660:0:0:0:0:
64,192,92573,128,0,92660:0:0:0:0:
320,192,92660,128,0,92834:0:0:0:70:kick.wav
448,192,92660,128,0,92747:0:0:0:0:
64,192,92834,128,0,93007:0:0:0:0:
192,192,92834,128,0,92920:0:0:0:0:
320,192,93007,1,0,0:0:0:70:kick.wav
448,192,93007,128,0,93180:0:0:0:0:
64,192,93094,128,0,93267:0:0:0:0:
320,192,93180,128,0,93267:0:0:0:0:
192,192,93267,128,0,93354:0:0:0:0:
64,192,93354,128,0,93527:0:0:0:70:kick.wav
320,192,93354,128,0,93441:0:0:0:0:
448,192,93354,128,0,93614:0:0:0:0:
192,192,93527,128,0,93701:0:0:0:0:
320,192,93614,128,0,93787:0:0:0:0:
64,192,93701,128,0,93874:0:0:0:70:kick.wav
448,192,93701,1,0,0:0:0:0:
192,192,93787,128,0,93961:0:0:0:0:
448,192,93874,128,0,94047:0:0:0:0:
320,192,93961,128,0,94047:0:0:0:0:
64,192,94047,128,0,94221:0:0:0:70:kick.wav
192,192,94047,128,0,94134:0:0:0:0:
320,192,94221,128,0,94308:0:0:0:0:
448,192,94221,128,0,94394:0:0:0:0:
64,192,94394,128,0,94568:0:0:0:70:kick.wav
192,192,94394,1,0,0:0:0:0:
320,192,94481,128,0,94654:0:0:0:0:
448,192,94568,128,0,94654:0:0:0:0:
192,192,94654,128,0,94741:0:0:0:0:
64,192,94741,128,0,94828:0:0:0:70:kick.wav
320,192,94741,128,0,95001:0:0:0:0:
448,192,94741,128,0,94915:0:0:0:0:
64,192,94915,128,0,95088:0:0:0:0:
448,192,95001,128,0,95175:0:0:0:0:
192,192,95088,1,0,0:0:0:70:kick.wav
320,192,95088,128,0,95261:0:0:0:0:
64,192,95175,128,0,95348:0:0:0:0:
192,192,95261,128,0,95435:0:0:0:0:
448,192,95348,128,0,95435:0:0:0:0:
64,192,95435,128,0,95521:0:0:0:70:kick.wav
320,192,95435,128,0,95608:0:0:0:0:
192,192,95608,128,0,95695:0:0:0:0:
448,192,95608,128,0,95782:0:0:0:0:
64,192,95782,128,0,95955:0:0:0:70:kick.wav
320,192,95782,1,0,0:0:0:0:
448,192,95868,128,0,96042:0:0:0:0:
192,192,95955,128,0,96042:0:0:0:0:
320,192,96042,128,0,96128:0:0:0:0:
64,192,96128,128,0,96389:0:0:0:70:kick.wav
192,192,96128,128,0,96302:0:0:0:0:
448,192,96128,128,0,96215:0:0:0:0:
448,192,96302,128,0,96475:0:0:0:0:
192,192,96389,128,0,96562:0:0:0:0:
64,192,96475,1,0,0:0:0:70:kick.wav
320,192,96475,128,0,96649:0:0:0:0:
448,192,96562,128,0,96735:0:0:0:0:
192,192,96649,128,0,96822:0:0:0:0:
64,192,96735,128,0,96822:0:0:0:0:
320,192,96822,128,0,96909:0:0:0:70:kick.wav
448,192,96822,128,0,96995:0:0:0:0:
192,192,96995,128,0,97082:0:0:0:0:
320,192,96995,128,0,97169:0:0:0:0:
64,192,97169,128,0,97342:0:0:0:70:kick.wav
448,192,97169,1,0,0:0:0:0:
192,192,97256,128,0,97429:0:0:0:0:
448,192,97342,128,0,97429:0:0:0:0:
320,192,97429,128,0,97516:0:0:0:0:
64,192,97516,128,0,97602:0:0:0:70:kick.wav
192,192,97516,128,0,97689:0:0:0:0:
448,192,97516,128,0,97776:0:0:0:0:
320,192,97689,128,0,97863:0:0:0:0:
64,192,97776,128,0,97949:0:0:0:0:
192,192,97863,128,0,98036:0:0:0:70:kick.wav
448,192,97863,1,0,0:0:0:0:
320,192,97949,128,0,98123:0:0:0:0:
448,192,98036,128,0,98209:0:0:0:0:
64,192,98123,128,0,98209:0:0:0:0:
192,192,98209,128,0,98383:0:0:0:70:kick.wav
320,192,98209,128,0,98296:0:0:0:0:
64,192,98383,128,0,98469:0:0:0:0:
448,192,98383,128,0,98556:0:0:0:0:
192,192,98556,128,0,98730:0:0:0:70:kick.wav
320,192,98556,1,0,0:0:0:0:
64,192,98643,128,0,98816:0:0:0:0:
448,192,98730,128,0,98816:0:0:0:0:
320,192,98816,128,0,98903:0:0:0:0:
64,192,98903,128,0,99163:0:0:0:70:kick.wav
192,192,98903,128,0,99076:0:0:0:0:
448,192,98903,128,0,98990:0:0:0:0:
320,192,99076,128,0,99250:0:0:0:0:
448,192,99163,128,0,99336:0:0:0:0:
64,192,99250,1,0,0:0:0:70:kick.wav
192,192,99250,128,0,99423:0:0:0:0:
320,192,99336,128,0,99510:0:0:0:0:
64,192,99423,128,0,99597:0:0:0:0:
192,192,99510,128,0,99597:0:0:0:0:
320,192,99597,128,0,99683:0:0:0:70:kick.wav
448,192,99597,128,0,99770:0:0:0:0:
64,192,99770,128,0,99943:0:0:0:0:
192,192,99770,128,0,99857:0:0:0:0:
192,192,99943,1,0,0:0:0:70:kick.wav
320,192,99943,128,0,100117:0:0:0:0:
448,192,100030,128,0,100204:0:0:0:0:
192,192,100117,128,0,100204:0:0:0:0:
320,192,100204,128,0,100290:0:0:0:0:
64,192,100290,128,0,100550:0:0:0:70:kick.wav
192,192,100290,128,0,100377:0:0:0:0:
448,192,100290,128,0,100464:0:0:0:0:
320,192,100464,128,0,100550:0:0:0:0:
192,192,100550,128,0,100637:0:0:0:0:
64,192,100637,128,0,100810:0:0:0:70:kick.wav
320,192,100637,128,0,100810:0:0:0:70:snare.wav
448,192,100637,128,0,100724:0:0:0:0:
192,192,100724,128,0,100897:0:0:0:0:
448,192,100810,128,0,100897:0:0:0:0:
320,192,100897,128,0,100984:0:0:0:0:
64,192,100984,128,0,101157:0:0:0:70:kick.wav
192,192,100984,128,0,101071:0:0:0:70:cymbal.wav
448,192,100984,1,0,0:0:0:0:
320,192,101157,128,0,101244:0:0:0:0:
448,192,101157,128,0,101331:0:0:0:0:
64,192,101331,1,0,0:0:0:70:kick.wav
192,192,101331,128,0,101417:0:0:0:0:
320,192,101417,128,0,101504:0:0:0:0:
64,192,101504,128,0,101591:0:0:0:0:
448,192,101504,128,0,101678:0:0:0:0:
192,192,101591,128,0,101678:0:0:0:0:
64,192,101678,128,0,101938:0:0:0:70:kick.wav
320,192,101678,128,0,101851:0:0:0:0:
192,192,101851,128,0,101938:0:0:0:0:
448,192,101851,128,0,102024:0:0:0:0:
320,192,101938,128,0,102111:0:0:0:0:
64,192,102024,128,0,102284:0:0:0:70:kick.wav
192,192,102024,128,0,102198:0:0:0:0:
448,192,102111,128,0,102284:0:0:0:0:
320,192,102198,128,0,102371:0:0:0:0:
192,192,102284,128,0,102371:0:0:0:0:
64,192,102371,128,0,102545:0:0:0:70:kick.wav
448,192,102371,128,0,102458:0:0:0:0:
192,192,102545,128,0,102718:0:0:0:0:
320,192,102545,128,0,102631:0:0:0:0:
64,192,102718,1,0,0:0:0:70:kick.wav
448,192,102718,128,0,102805:0:0:0:0:
320,192,102805,128,0,102891:0:0:0:0:
64,192,102891,128,0,102978:0:0:0:0:
192,192,102891,128,0,102978:0:0:0:0:
320,192,102978,128,0,103065:0:0:0:0:
448,192,102978,128,0,103065:0:0:0:0:
64,192,103065,128,0,103238:0:0:0:70:kick.wav
192,192,103065,128,0,103325:0:0:0:0:
448,192,103238,1,0,0:0:0:0:
64,192,103325,128,0,103498:0:0:0:0:
448,192,103325,1,0,0:0:0:0:
192,192,103412,128,0,103585:0:0:0:70:kick.wav
320,192,103412,128,0,103672:0:0:0:0:
448,192,103498,128,0,103672:0:0:0:0:
64,192,103585,128,0,103758:0:0:0:0:
192,192,103672,128,0,103758:0:0:0:0:
320,192,103758,128,0,103845:0:0:0:70:kick.wav
448,192,103758,128,0,103932:0:0:0:0:
192,192,103932,128,0,104019:0:0:0:0:
320,192,103932,128,0,104105:0:0:0:0:
64,192,104105,128,0,104192:0:0:0:70:kick.wav
192,192,104105,1,0,0:0:0:0:
448,192,104192,128,0,104279:0:0:0:0:
64,192,104279,128,0,104365:0:0:0:0:
320,192,104279,128,0,104452:0:0:0:0:
448,192,104365,128,0,104452:0:0:0:0:
64,192,104452,128,0,104712:0:0:0:70:kick.wav
192,192,104452,128,0,104626:0:0:0:0:
320,192,104626,128,0,104799:0:0:0:0:
448,192,104626,128,0,104712:0:0:0:0:
192,192,104712,128,0,104886:0:0:0:0:
64,192,104799,128,0,104886:0:0:0:70:kick.wav
448,192,104799,128,0,105059:0:0:0:0:
320,192,104886,128,0,104972:0:0:0:0:
64,192,104972,128,0,105146:0:0:0:0:
192,192,104972,128,0,105059:0:0:0:0:
320,192,105059,128,0,105146:0:0:0:0:
192,192,105146,128,0,105232:0:0:0:70:kick.wav
448,192,105146,128,0,105319:0:0:0:0:
64,192,105319,128,0,105493:0:0:0:0:
320,192,105319,128,0,105406:0:0:0:0:
192,192,105493,128,0,105579:0:0:0:70:kick.wav
448,192,105493,128,0,105579:0:0:0:0:
320,192,105579,128,0,105666:0:0:0:0:
64,192,105666,128,0,105839:0:0:0:0:
448,192,105666,128,0,105753:0:0:0:0:
192,192,105753,128,0,105839:0:0:0:0:
320,192,105839,128,0,106013:0:0:0:70:kick.wav
448,192,105839,128,0,106186:0:0:0:0:
64,192,106013,128,0,106100:0:0:0:0:
192,192,106013,128,0,106100:0:0:0:0:
320,192,106100,128,0,106273:0:0:0:0:
64,192,106186,128,0,106446:0:0:0:70:kick.wav
192,192,106186,128,0,106360:0:0:0:0:
448,192,106273,128,0,106360:0:0:0:0:
320,192,106360,128,0,106446:0:0:0:0:
192,192,106446,128,0,106533:0:0:0:0:
64,192,106533,128,0,106706:0:0:0:70:kick.wav
320,192,106533,1,0,0:0:0:70:cymbal.wav
448,192,106533,1,0,0:0:0:0:
192,192,106706,128,0,106880:0:0:0:70:kick.wav
448,192,106706,1,0,0:0:0:0:
64,192,106880,1,0,0:0:0:70:kick.wav
320,192,106880,128,0,106967:0:0:0:0:
448,192,106880,1,0,0:0:0:0:
192,192,106967,128,0,107053:0:0:0:0:
320,192,107053,128,0,107140:0:0:0:70:kick.wav
448,192,107053,1,0,0:0:0:0:
192,192,107140,128,0,107227:0:0:0:0:
64,192,107227,128,0,107400:0:0:0:70:kick.wav
320,192,107227,1,0,0:0:0:0:
448,192,107227,1,0,0:0:0:0:
192,192,107400,128,0,107573:0:0:0:70:kick.wav
448,192,107400,1,0,0:0:0:0:
320,192,107487,128,0,107660:0:0:0:0:
64,192,107573,128,0,107834:0:0:0:70:kick.wav
448,192,107573,1,0,0:0:0:0:
192,192,107660,128,0,107747:0:0:0:0:
320,192,107747,128,0,107920:0:0:0:70:kick.wav
448,192,107747,1,0,0:0:0:0:
192,192,107834,128,0,107920:0:0:0:0:
64,192,107920,1,0,0:0:0:70:kick.wav
448,192,107920,128,0,108094:0:0:0:0:
64,192,108094,1,0,0:0:0:70:kick.wav
320,192,108094,1,0,0:0:0:0:
320,192,108180,1,0,0:0:0:0:
64,192,108267,1,0,0:0:0:70:kick.wav
192,192,108267,128,0,108354:0:0:0:0:
448,192,108267,1,0,0:0:0:0:
320,192,108354,128,0,108441:0:0:0:0:
64,192,108441,1,0,0:0:0:70:kick.wav
448,192,108441,128,0,108527:0:0:0:0:
192,192,108527,128,0,108614:0:0:0:0:
64,192,108614,1,0,0:0:0:70:kick.wav
320,192,108614,128,0,108787:0:0:0:0:
448,192,108614,1,0,0:0:0:0:
64,192,108787,1,0,0:0:0:70:kick.wav
448,192,108787,128,0,108874:0:0:0:0:
192,192,108874,1,0,0:0:0:0:
320,192,108874,128,0,108961:0:0:0:0:
64,192,108961,1,0,0:0:0:70:kick.wav
448,192,108961,128,0,109221:0:0:0:0:
320,192,109047,128,0,109134:0:0:0:0:
64,192,109134,1,0,0:0:0:70:kick.wav
192,192,109134,128,0,109221:0:0:0:0:
320,192,109221,128,0,109308:0:0:0:0:
64,192,109308,1,0,0:0:0:70:kick.wav
192,192,109308,1,0,0:0:0:70:cymbal.wav
448,192,109308,1,0,0:0:0:0:
192,192,109481,1,0,0:0:0:70:kick.wav
320,192,109481,1,0,0:0:0:0:
64,192,109654,1,0,0:0:0:70:snare.wav
192,192,109654,1,0,0:0:0:0:
320,192,109654,1,0,0:0:0:0:
448,192,109654,1,0,0:0:0:0:
64,192,109828,1,0,0:0:0:70:kick.wav
192,192,109857,1,0,0:0:0:70:kick.wav
448,192,109886,1,0,0:0:0:70:kick.wav
320,192,109915,1,0,0:0:0:70:kick.wav
64,192,109943,1,0,0:0:0:70:kick.wav
192,192,109972,1,0,0:0:0:70:kick.wav
320,192,110001,1,0,0:0:0:70:kick.wav
448,192,110001,1,0,0:0:0:70:cymbal.wav
64,192,110175,1,0,0:0:0:70:kick.wav
192,192,110175,1,0,0:0:0:0:
64,192,110348,1,0,0:0:0:70:snare.wav
192,192,110348,1,0,0:0:0:0:
320,192,110348,1,0,0:0:0:0:
448,192,110348,1,0,0:0:0:0:
64,192,110521,1,0,0:0:0:70:kick.wav
448,192,110521,1,0,0:0:0:0:
320,192,110565,1,0,0:0:0:70:kick.wav
192,192,110608,1,0,0:0:0:70:kick.wav
64,192,110652,1,0,0:0:0:70:kick.wav
320,192,110695,1,0,0:0:0:70:kick.wav
448,192,110695,1,0,0:0:0:70:cymbal.wav
64,192,110868,1,0,0:0:0:70:kick.wav
448,192,110868,1,0,0:0:0:0:
192,192,110912,1,0,0:0:0:70:kick.wav
320,192,110955,1,0,0:0:0:70:kick.wav
448,192,110998,1,0,0:0:0:70:kick.wav
64,192,111042,1,0,0:0:0:70:kick.wav
192,192,111042,1,0,0:0:0:70:cymbal.wav
64,192,111215,1,0,0:0:0:70:kick.wav
448,192,111215,1,0,0:0:0:0:
320,192,111258,1,0,0:0:0:70:kick.wav
192,192,111302,1,0,0:0:0:70:kick.wav
64,192,111345,1,0,0:0:0:70:kick.wav
320,192,111389,1,0,0:0:0:70:kick.wav
448,192,111389,1,0,0:0:0:70:cymbal.wav
192,192,111562,1,0,0:0:0:70:kick.wav
320,192,111562,1,0,0:0:0:0:
64,192,111735,128,0,111995:0:0:0:70:snare.wav
192,192,111735,128,0,111995:0:0:0:0:
320,192,111735,128,0,111995:0:0:0:0:
448,192,111735,128,0,111995:0:0:0:0:
64,192,112082,1,0,0:0:0:70:kick.wav
192,192,112082,1,0,0:0:0:70:cymbal.wav
448,192,112082,128,0,112169:0:0:0:0:
448,192,112256,128,0,112342:0:0:0:0:
64,192,112429,128,0,112487:0:0:0:70:kick.wav
448,192,112429,128,0,112516:0:0:0:70:edge.wav
192,192,112602,128,0,112689:0:0:0:0:
320,192,112689,128,0,112776:0:0:0:0:
64,192,112776,128,0,112863:0:0:0:70:kick.wav
192,192,112776,1,0,0:0:0:0:
448,192,112863,1,0,0:0:0:0:
320,192,112949,128,0,113036:0:0:0:0:
64,192,113036,1,0,0:0:0:0:
192,192,113123,128,0,113209:0:0:0:70:kick.wav
448,192,113123,128,0,113180:0:0:0:70:edge.wav
320,192,113296,128,0,113383:0:0:0:0:
448,192,113383,128,0,113469:0:0:0:0:
64,192,113469,1,0,0:0:0:70:kick.wav
192,192,113469,128,0,113556:0:0:0:0:
192,192,113643,128,0,113730:0:0:0:0:
448,192,113730,1,0,0:0:0:0:
192,192,113816,128,0,113903:0:0:0:70:kick.wav
320,192,113816,128,0,113874:0:0:0:70:edge.wav
448,192,113990,128,0,114076:0:0:0:0:
320,192,114076,128,0,114163:0:0:0:0:
64,192,114163,128,0,114250:0:0:0:70:kick.wav
192,192,114163,1,0,0:0:0:0:
192,192,114336,128,0,114394:0:0:0:70:edge.wav
448,192,114336,128,0,114423:0:0:0:0:
64,192,114510,128,0,114597:0:0:0:70:kick.wav
448,192,114510,1,0,0:0:0:0:
320,192,114597,1,0,0:0:0:0:
192,192,114683,128,0,114770:0:0:0:0:
448,192,114770,128,0,114857:0:0:0:0:
64,192,114857,1,0,0:0:0:70:kick.wav
320,192,114857,128,0,114943:0:0:0:0:
320,192,115030,128,0,115117:0:0:0:0:
64,192,115117,1,0,0:0:0:0:
192,192,115204,128,0,115261:0:0:0:70:kick.wav
320,192,115204,128,0,115290:0:0:0:70:edge.wav
448,192,115377,128,0,115464:0:0:0:0:
192,192,115464,128,0,115550:0:0:0:0:
64,192,115550,128,0,115637:0:0:0:70:kick.wav
320,192,115550,1,0,0:0:0:0:
448,192,115637,1,0,0:0:0:0:
192,192,115724,128,0,115810:0:0:0:0:
64,192,115810,1,0,0:0:0:0:
320,192,115897,128,0,115984:0:0:0:70:kick.wav
448,192,115897,128,0,115955:0:0:0:70:edge.wav
192,192,116071,128,0,116157:0:0:0:0:
320,192,116157,128,0,116244:0:0:0:0:
64,192,116244,1,0,0:0:0:70:kick.wav
448,192,116244,128,0,116417:0:0:0:0:
320,192,116417,128,0,116504:0:0:0:0:
64,192,116504,128,0,116591:0:0:0:0:
192,192,116591,128,0,116764:0:0:0:70:kick.wav
448,192,116591,128,0,116649:0:0:0:70:edge.wav
320,192,116764,128,0,116851:0:0:0:0:
64,192,116851,128,0,116938:0:0:0:0:
192,192,116938,1,0,0:0:0:70:kick.wav
448,192,116938,128,0,117111:0:0:0:0:
64,192,117111,128,0,117169:0:0:0:70:edge.wav
320,192,117111,128,0,117198:0:0:0:0:
192,192,117198,128,0,117284:0:0:0:0:
64,192,117284,128,0,117458:0:0:0:70:kick.wav
448,192,117284,1,0,0:0:0:0:
320,192,117371,1,0,0:0:0:0:
192,192,117458,1,0,0:0:0:0:
320,192,117545,1,0,0:0:0:0:
64,192,117631,128,0,117805:0:0:0:70:kick.wav
192,192,117631,1,0,0:0:0:70:cymbal.wav
448,192,117631,1,0,0:0:0:0:
320,192,117805,128,0,117978:0:0:0:70:kick.wav
448,192,117805,1,0,0:0:0:0:
64,192,117978,128,0,118152:0:0:0:70:kick.wav
192,192,117978,1,0,0:0:0:70:edge.wav
448,192,117978,1,0,0:0:0:0:
192,192,118152,128,0,118238:0:0:0:70:kick.wav
448,192,118152,1,0,0:0:0:0:
320,192,118238,128,0,118325:0:0:0:0:
64,192,118325,1,0,0:0:0:70:kick.wav
192,192,118325,1,0,0:0:0:70:cymbal.wav
448,192,118325,128,0,118498:0:0:0:0:
192,192,118498,1,0,0:0:0:70:kick.wav
320,192,118498,128,0,118672:0:0:0:0:
64,192,118672,128,0,118845:0:0:0:70:kick.wav
192,192,118672,1,0,0:0:0:70:edge.wav
448,192,118672,1,0,0:0:0:0:
192,192,118845,1,0,0:0:0:70:kick.wav
320,192,118845,128,0,118932:0:0:0:0:
448,192,118932,128,0,119019:0:0:0:0:
64,192,119019,1,0,0:0:0:70:kick.wav
192,192,119019,128,0,119192:0:0:0:70:cymbal.wav
320,192,119019,1,0,0:0:0:0:
320,192,119192,1,0,0:0:0:70:kick.wav
448,192,119192,128,0,119365:0:0:0:0:
64,192,119365,1,0,0:0:0:70:kick.wav
192,192,119365,128,0,119539:0:0:0:70:edge.wav
320,192,119365,1,0,0:0:0:0:
64,192,119539,128,0,119626:0:0:0:70:kick.wav
320,192,119539,1,0,0:0:0:0:
448,192,119626,128,0,119712:0:0:0:0:
64,192,119712,1,0,0:0:0:70:kick.wav
192,192,119712,1,0,0:0:0:70:cymbal.wav
320,192,119712,128,0,119886:0:0:0:0:
64,192,119886,1,0,0:0:0:70:kick.wav
192,192,119886,1,0,0:0:0:70:edge.wav
448,192,119886,128,0,120059:0:0:0:0:
64,192,120059,1,0,0:0:0:70:kick.wav
320,192,120059,128,0,120146:0:0:0:0:
192,192,120146,128,0,120232:0:0:0:0:
64,192,120232,1,0,0:0:0:70:kick.wav
448,192,120232,128,0,120319:0:0:0:0:
320,192,120319,128,0,120406:0:0:0:0:
64,192,120406,1,0,0:0:0:70:kick.wav
192,192,120406,1,0,0:0:0:70:edge.wav
448,192,120406,1,0,0:0:0:70:cymbal.wav
64,192,120493,128,0,120579:0:0:0:70:kick.wav
192,192,120493,128,0,120579:0:0:0:0:
320,192,120579,128,0,120666:0:0:0:70:kick.wav
448,192,120579,128,0,120666:0:0:0:0:
64,192,120666,128,0,120753:0:0:0:70:kick.wav
192,192,120666,128,0,120753:0:0:0:0:
320,192,120753,1,0,0:0:0:70:kick.wav
448,192,120753,1,0,0:0:0:70:cymbal.wav
320,192,120839,128,0,120926:0:0:0:70:kick.wav
448,192,120839,128,0,120926:0:0:0:0:
64,192,120926,128,0,121013:0:0:0:70:kick.wav
192,192,120926,128,0,121013:0:0:0:70:edge.wav
320,192,121013,128,0,121100:0:0:0:70:kick.wav
448,192,121013,128,0,121100:0:0:0:0:
64,192,121100,1,0,0:0:0:70:kick.wav
192,192,121100,1,0,0:0:0:70:cymbal.wav
64,192,121186,128,0,121273:0:0:0:70:kick.wav
192,192,121186,128,0,121273:0:0:0:0:
320,192,121273,128,0,121360:0:0:0:70:kick.wav
448,192,121273,128,0,121360:0:0:0:70:edge.wav
64,192,121360,128,0,121446:0:0:0:70:kick.wav
192,192,121360,128,0,121446:0:0:0:70:edge.wav
320,192,121446,128,0,121533:0:0:0:70:kick.wav
448,192,121446,128,0,121533:0:0:0:70:edge.wav
64,192,121533,1,0,0:0:0:70:kick.wav
192,192,121533,1,0,0:0:0:0:
64,192,121620,128,0,121706:0:0:0:70:kick.wav
192,192,121620,128,0,121706:0:0:0:0:
320,192,121706,1,0,0:0:0:70:kick.wav
448,192,121706,1,0,0:0:0:0:
64,192,121793,128,0,122747:0:0:0:70:kick.wav
192,192,121793,128,0,122140:0:0:0:70:snare.wav
320,192,121793,1,0,0:0:0:70:cymbal.wav
448,192,121793,128,0,122227:0:0:0:0:
320,192,122140,128,0,122573:0:0:0:0:
448,192,122313,128,0,124047:0:0:0:0:
192,192,122487,128,0,122920:0:0:0:0:
320,192,122660,128,0,124221:0:0:0:0:
64,192,122834,128,0,124568:0:0:0:0:
192,192,123007,128,0,124394:0:0:0:0:
