osu file format v14

[General]
AudioFilename: xd.mp3
AudioLeadIn: 0
PreviewTime: 69120
Countdown: 0
SampleSet: Soft
StackLeniency: 0.5
Mode: 0
LetterboxInBreaks: 0
EpilepsyWarning: 1
WidescreenStoryboard: 1

[Editor]
Bookmarks: 0,69120,115200,184320,245760,307200,322560,384000,445440
DistanceSpacing: 1.1
BeatDivisor: 6
GridSize: 16
TimelineZoom: 3.299999

[Metadata]
Title:The Follower
TitleUnicode:The Follower
Artist:7 Minutes Dead
ArtistUnicode:7 Minutes Dead
Creator:DeRandom Otaku
Version:Stalker
Source:
Tags:7md seven monstercat electronic edm ep marathon ren akitoshi laura corinn -_frontier_- deppyforce alphabet squirrelpascals erasome wajinshu venax
BeatmapID:1762797
BeatmapSetID:842440

[Difficulty]
HPDrainRate:5
CircleSize:4.3
OverallDifficulty:9
ApproachRate:9.5
SliderMultiplier:2.1
SliderTickRate:1

[Events]
//Background and Video events
0,0,"shadow.jpg",0,0
//Break Periods
//Storyboard Layer 0 (Background)
//Storyboard Layer 1 (Fail)
//Storyboard Layer 2 (Pass)
//Storyboard Layer 3 (Foreground)
//Storyboard Sound Samples

[TimingPoints]
0,480,4,2,9,35,1,0
0,-200,4,2,9,35,0,0
15360,-166.666666666667,4,2,9,40,0,0
22080,-166.666666666667,4,2,9,40,0,0
22400,-166.666666666667,4,2,9,40,0,0
24960,-142.857142857143,4,2,9,42,0,0
29760,-133.333333333333,4,2,9,46,0,0
37440,-125,4,2,2,35,0,0
38240,-125,4,2,9,51,0,0
41760,-125,4,2,2,35,0,0
41920,-125,4,2,9,51,0,0
44960,-125,4,2,9,51,0,0
45120,-125,4,2,2,45,0,0
45440,-125,4,2,9,58,0,0
45600,-125,4,2,2,45,0,0
45920,-125,4,2,9,58,0,0
49440,-125,4,2,2,45,0,0
49920,-125,4,2,9,58,0,0
52800,-111.111111111111,4,2,2,45,0,0
53120,-111.111111111111,4,2,9,63,0,0
53280,-111.111111111111,4,2,2,45,0,0
53600,-111.111111111111,4,2,9,63,0,0
57120,-111.111111111111,4,2,2,55,0,0
57440,-111.111111111111,4,2,9,63,0,0
61440,-200,4,2,12,35,0,0
67200,-200,4,2,12,25,0,0
69120,-58.8235294117647,4,2,2,92,0,0
69280,-58.8235294117647,4,2,1,92,0,0
71120,-58.8235294117647,4,2,1,5,0,0
71200,-58.8235294117647,4,2,1,92,0,0
71280,-58.8235294117647,4,2,1,5,0,0
71360,-58.8235294117647,4,2,1,92,0,0
71440,-58.8235294117647,4,2,1,5,0,0
71520,-54.054054054054,4,2,1,92,0,0
72960,-100,4,2,1,92,0,0
73040,-100,4,2,1,5,0,0
73120,-57.1428571428571,4,2,1,92,0,0
73200,-57.1428571428571,4,2,1,5,0,0
73280,-57.1428571428571,4,2,1,92,0,0
73360,-57.1428571428571,4,2,1,5,0,0
73440,-50,4,2,1,92,0,0
74960,-50,4,2,1,5,0,0
75040,-50,4,2,1,92,0,0
75120,-50,4,2,1,5,0,0
75200,-50,4,2,1,92,0,0
75280,-50,4,2,1,5,0,0
75360,-58.8235294117647,4,2,1,92,0,0
76800,-153.846153846154,4,2,1,92,0,0
77280,-52.6315789473684,4,2,1,92,0,0
78720,-181.818181818182,4,2,1,92,0,0
79200,-54.054054054054,4,2,1,92,0,0
80640,-90.9090909090909,4,2,1,92,0,0
81120,-41.6666666666667,4,2,1,92,0,0
81760,-66.6666666666667,4,2,1,92,0,0
82560,-111.111111111111,4,2,1,92,0,0
83040,-50,4,2,1,92,0,0
84000,-50,4,2,9,92,0,0
84480,-50,4,2,2,92,0,0
84640,-50,4,2,1,92,0,0
86080,-50,4,2,1,92,0,0
86400,-55.5555555555556,4,2,1,92,0,0
86480,-55.5555555555556,4,2,1,5,0,0
86560,-55.5555555555556,4,2,1,92,0,0
86640,-55.5555555555556,4,2,1,5,0,0
86720,-55.5555555555556,4,2,1,92,0,0
86800,-55.5555555555556,4,2,1,5,0,0
86880,-55.5555555555556,4,2,1,92,0,0
88320,-100,4,2,1,92,0,0
88400,-100,4,2,1,5,0,0
88480,-54.054054054054,4,2,1,92,0,0
88560,-54.054054054054,4,2,1,5,0,0
88640,-54.054054054054,4,2,1,92,0,0
88720,-54.054054054054,4,2,1,5,0,0
88800,-41.6666666666667,4,2,1,92,0,0
90240,-45.4545454545455,4,2,1,92,0,0
90320,-45.4545454545455,4,2,1,5,0,0
90400,-45.4545454545455,4,2,1,92,0,0
90480,-45.4545454545455,4,2,1,5,0,0
90560,-45.4545454545455,4,2,1,92,0,0
90640,-45.4545454545455,4,2,1,5,0,0
90720,-45.4545454545455,4,2,1,92,0,0
92160,-133.333333333333,4,2,1,92,0,0
92640,-55.5555555555556,4,2,1,92,0,0
94080,-117.647058823529,4,2,1,92,0,0
94560,-44.4444444444445,4,2,1,92,0,0
96000,-133.333333333333,4,2,1,92,0,0
96480,-37.7358490566038,4,2,1,92,0,0
97120,-66.6666666666667,4,2,1,92,0,0
97920,-83.3333333333333,4,2,1,92,0,0
98400,-44.4444444444445,4,2,1,92,0,0
99840,-44.4444444444445,4,2,1,100,0,0
101760,-55.5555555555556,4,2,1,100,0,0
101840,-55.5555555555556,4,2,1,5,0,0
101920,-55.5555555555556,4,2,1,100,0,0
102000,-55.5555555555556,4,2,1,5,0,0
102080,-55.5555555555556,4,2,1,100,0,0
102160,-55.5555555555556,4,2,1,5,0,0
102240,-45.4545454545455,4,2,1,100,0,0
103680,-90.9090909090909,4,2,1,100,0,0
103760,-90.9090909090909,4,2,1,5,0,0
103840,-50,4,2,1,100,0,0
103920,-50,4,2,1,5,0,0
104000,-50,4,2,1,100,0,0
104080,-50,4,2,1,5,0,0
104160,-41.6666666666667,4,2,1,100,0,0
105600,-52.6315789473684,4,2,1,100,0,0
105680,-52.6315789473684,4,2,1,5,0,0
105760,-52.6315789473684,4,2,1,100,0,0
105840,-52.6315789473684,4,2,1,5,0,0
105920,-52.6315789473684,4,2,1,100,0,0
106000,-52.6315789473684,4,2,1,5,0,0
106080,-42.5531914893617,4,2,1,100,0,0
106880,-42.5531914893617,4,2,27,100,0,0
106960,-42.5531914893617,4,2,1,100,0,0
107360,-55.5555555555556,4,2,1,100,0,0
107520,-90.9090909090909,4,2,1,100,0,0
108000,-45.4545454545455,4,2,1,100,0,0
109440,-50,4,2,1,100,0,0
109520,-50,4,2,1,5,0,0
109600,-50,4,2,1,100,0,0
109680,-50,4,2,1,5,0,0
109760,-50,4,2,1,100,0,0
109840,-50,4,2,1,5,0,0
109920,-41.6666666666667,4,2,1,100,0,0
111360,-76.9230769230769,4,2,1,100,0,0
111840,-34.7222222222222,4,2,1,100,0,0
112480,-66.6666666666667,4,2,1,100,0,0
113280,-71.4285714285714,4,2,1,100,0,0
113760,-35.0877192982456,4,2,1,100,0,0
114240,-35.0877192982456,4,2,12,70,0,0
114720,-35.0877192982456,4,2,1,60,0,0
114800,-35.0877192982456,4,2,12,60,0,0
115200,-100,4,2,7,55,0,0
117120,-100,4,2,7,48,0,0
126720,-100,4,2,7,50,0,0
127840,-100,4,2,7,35,0,0
128000,-100,4,2,7,35,0,0
128640,-100,4,2,7,52,0,0
129760,-100,4,2,7,35,0,0
129920,-100,4,2,7,52,0,0
130560,-100,4,2,7,55,0,0
131680,-100,4,2,7,35,0,0
131840,-100,4,2,7,55,0,0
133600,-100,4,2,7,37,0,0
133760,-100,4,2,7,55,0,0
134400,-100,4,2,7,58,0,0
135680,-100,4,2,7,35,0,0
135840,-100,4,2,7,35,0,0
135920,-100,4,2,7,58,0,0
136320,-100,4,2,7,45,0,0
136720,-100,4,2,7,61,0,0
137600,-100,4,2,7,37,0,0
137680,-100,4,2,7,61,0,0
139200,-100,4,2,7,65,0,0
139360,-100,4,2,7,38,0,0
139520,-100,4,2,7,65,0,0
140160,-86.9565217391304,4,2,7,65,0,0
141280,-86.9565217391304,4,2,7,40,0,0
141440,-86.9565217391304,4,2,7,65,0,0
142080,-86.9565217391304,4,2,7,68,0,0
143040,-86.9565217391304,4,2,7,45,0,0
143120,-86.9565217391304,4,2,7,68,0,0
144000,-86.9565217391304,4,2,7,70,0,0
145280,-86.9565217391304,4,2,7,40,0,0
145360,-86.9565217391304,4,2,7,70,0,0
145920,-86.9565217391304,4,2,7,72,0,0
147040,-86.9565217391304,4,2,7,40,0,0
147200,-86.9565217391304,4,2,7,72,0,0
147840,-86.9565217391304,4,2,7,74,0,0
149120,-86.9565217391304,4,2,7,55,0,0
149200,-86.9565217391304,4,2,7,74,0,0
151040,-86.9565217391304,4,2,7,35,0,0
151200,-86.9565217391304,4,2,7,74,0,0
151680,-86.9565217391304,4,2,7,76,0,0
152000,-86.9565217391304,4,2,7,55,0,0
152160,-86.9565217391304,4,2,7,76,0,0
152960,-86.9565217391304,4,2,7,35,0,0
153040,-86.9565217391304,4,2,7,76,0,0
153600,-86.9565217391304,4,2,7,77,0,0
154880,-86.9565217391304,4,2,7,55,0,0
155040,-86.9565217391304,4,2,7,77,0,0
155520,-86.9565217391304,4,2,7,78,0,0
156800,-86.9565217391304,4,2,7,58,0,0
156960,-86.9565217391304,4,2,7,78,0,0
157440,-86.9565217391304,4,2,7,79,0,0
159360,-86.9565217391304,4,2,7,80,0,0
160640,-86.9565217391304,4,2,7,60,0,0
160720,-86.9565217391304,4,2,7,80,0,0
162240,-86.9565217391304,4,2,7,83,0,0
162720,-86.9565217391304,4,2,7,66,0,0
162880,-86.9565217391304,4,2,7,83,0,0
163200,-86.9565217391304,4,2,7,86,0,0
165120,-86.9565217391304,4,2,7,88,0,0
167040,-86.9565217391304,4,2,7,90,0,0
167200,-86.9565217391304,4,2,7,55,0,0
167360,-86.9565217391304,4,2,7,90,0,0
168000,-86.9565217391304,4,2,7,93,0,0
170880,-86.9565217391304,4,2,7,94,0,0
171840,-86.9565217391304,4,2,7,96,0,0
173760,-86.9565217391304,4,2,7,98,0,0
176640,-400,4,2,1,60,0,0
177120,-400,4,2,12,30,0,0
177600,-400,4,2,12,30,0,0
183840,-90.9090909090909,4,2,2,70,0,0
184320,-90.9090909090909,4,2,1,90,0,0
184800,-58.8235294117647,4,2,1,90,0,0
185280,-100,4,2,1,90,0,0
186320,-100,4,2,1,5,0,0
186400,-100,4,2,1,90,0,0
186480,-100,4,2,1,5,0,0
186560,-100,4,2,1,90,0,0
186640,-100,4,2,1,5,0,0
186720,-58.8235294117647,4,2,1,90,0,0
188160,-100,4,2,1,90,0,0
188640,-58.8235294117647,4,2,1,90,0,0
189120,-100,4,2,1,90,0,0
190160,-100,4,2,1,5,0,0
190240,-100,4,2,1,90,0,0
190320,-100,4,2,1,5,0,0
190400,-100,4,2,1,90,0,0
190480,-100,4,2,1,5,0,0
190560,-58.8235294117647,4,2,1,90,0,0
191040,-100,4,2,1,90,0,0
192000,-153.846153846154,4,2,1,90,0,0
192480,-52.6315789473684,4,2,1,90,0,0
192960,-100,4,2,1,90,0,0
193920,-153.846153846154,4,2,1,90,0,0
194400,-52.6315789473684,4,2,1,90,0,0
194880,-100,4,2,1,90,0,0
195840,-90.9090909090909,4,2,1,90,0,0
196320,-41.6666666666667,4,2,1,90,0,0
196800,-66.6666666666667,4,2,1,90,0,0
197760,-111.111111111111,4,2,1,90,0,0
198240,-41.6666666666667,4,2,1,90,0,0
198720,-100,4,2,1,90,0,0
199200,-100,4,2,1,90,0,0
199680,-80,4,2,1,90,0,0
199760,-80,4,2,1,5,0,0
199840,-80,4,2,1,90,0,0
199920,-80,4,2,1,5,0,0
200000,-80,4,2,1,90,0,0
200080,-80,4,2,1,5,0,0
200160,-50,4,2,1,90,0,0
200400,-50,4,2,1,5,0,0
200480,-50,4,2,1,90,0,0
200640,-80,4,2,1,90,0,0
200720,-80,4,2,1,5,0,0
200800,-80,4,2,1,90,0,0
200880,-80,4,2,1,5,0,0
200960,-80,4,2,1,90,0,0
201040,-80,4,2,1,5,0,0
201120,-80,4,2,1,90,0,0
201200,-80,4,2,1,5,0,0
201280,-80,4,2,1,90,0,0
201360,-80,4,2,1,5,0,0
201440,-80,4,2,1,90,0,0
201520,-80,4,2,1,5,0,0
201600,-80,4,2,1,90,0,0
201680,-80,4,2,1,5,0,0
201760,-80,4,2,1,90,0,0
201840,-80,4,2,1,5,0,0
201920,-80,4,2,1,90,0,0
202000,-80,4,2,1,5,0,0
202080,-50,4,2,1,90,0,0
202560,-80,4,2,1,90,0,0
202640,-80,4,2,1,5,0,0
202720,-80,4,2,1,90,0,0
202800,-80,4,2,1,5,0,0
202880,-80,4,2,1,90,0,0
202960,-80,4,2,1,5,0,0
203040,-80,4,2,1,90,0,0
203120,-80,4,2,1,5,0,0
203200,-80,4,2,1,90,0,0
203280,-80,4,2,1,5,0,0
203360,-80,4,2,1,90,0,0
203440,-80,4,2,1,5,0,0
203520,-100,4,2,1,90,0,0
204000,-50,4,2,1,90,0,0
204240,-50,4,2,1,5,0,0
204320,-50,4,2,1,90,0,0
204480,-80,4,2,1,90,0,0
204560,-80,4,2,1,5,0,0
204640,-80,4,2,1,90,0,0
204720,-80,4,2,1,5,0,0
204800,-80,4,2,1,90,0,0
204880,-80,4,2,1,5,0,0
204960,-80,4,2,1,90,0,0
205040,-80,4,2,1,5,0,0
205120,-80,4,2,1,90,0,0
205200,-80,4,2,1,5,0,0
205280,-80,4,2,1,90,0,0
205360,-80,4,2,1,5,0,0
205440,-80,4,2,1,90,0,0
205520,-80,4,2,1,5,0,0
205600,-80,4,2,1,90,0,0
205680,-80,4,2,1,5,0,0
205760,-80,4,2,1,90,0,0
205840,-80,4,2,1,5,0,0
205920,-50,4,2,1,90,0,0
206000,-50,4,2,1,5,0,0
206080,-50,4,2,1,90,0,0
206160,-50,4,2,1,5,0,0
206240,-50,4,2,1,90,0,0
206320,-50,4,2,1,5,0,0
206400,-50,4,2,1,90,0,0
207360,-100,4,2,1,90,0,0
207840,-50,4,2,1,90,0,0
208320,-66.6666666666667,4,2,1,90,0,0
208400,-66.6666666666667,4,2,1,5,0,0
208480,-66.6666666666667,4,2,1,90,0,0
208560,-66.6666666666667,4,2,1,5,0,0
208640,-66.6666666666667,4,2,1,90,0,0
208720,-66.6666666666667,4,2,1,5,0,0
208800,-66.6666666666667,4,2,1,90,0,0
208880,-66.6666666666667,4,2,1,5,0,0
208960,-66.6666666666667,4,2,1,90,0,0
209040,-66.6666666666667,4,2,1,5,0,0
209120,-66.6666666666667,4,2,1,90,0,0
209200,-66.6666666666667,4,2,1,5,0,0
209280,-100,4,2,1,90,0,0
209760,-50,4,2,1,90,0,0
210240,-66.6666666666667,4,2,1,90,0,0
210320,-66.6666666666667,4,2,1,5,0,0
210400,-66.6666666666667,4,2,1,90,0,0
210480,-66.6666666666667,4,2,1,5,0,0
210560,-66.6666666666667,4,2,1,90,0,0
210640,-66.6666666666667,4,2,1,5,0,0
210720,-66.6666666666667,4,2,1,90,0,0
210800,-66.6666666666667,4,2,1,5,0,0
210880,-66.6666666666667,4,2,1,90,0,0
210960,-66.6666666666667,4,2,1,5,0,0
211040,-66.6666666666667,4,2,1,90,0,0
211120,-66.6666666666667,4,2,1,5,0,0
211200,-90.9090909090909,4,2,1,90,0,0
211680,-41.6666666666667,4,2,1,90,0,0
212160,-66.6666666666667,4,2,1,90,0,0
212240,-66.6666666666667,4,2,1,5,0,0
212320,-66.6666666666667,4,2,1,90,0,0
212400,-66.6666666666667,4,2,1,5,0,0
212480,-66.6666666666667,4,2,1,90,0,0
212560,-66.6666666666667,4,2,1,5,0,0
212640,-66.6666666666667,4,2,1,90,0,0
212720,-66.6666666666667,4,2,1,5,0,0
212800,-66.6666666666667,4,2,1,90,0,0
212880,-66.6666666666667,4,2,1,5,0,0
212960,-66.6666666666667,4,2,1,90,0,0
213040,-66.6666666666667,4,2,1,5,0,0
213120,-100,4,2,1,90,0,0
213600,-50,4,2,1,90,0,0
214080,-40,4,2,1,90,0,0
214160,-40,4,2,1,5,0,0
214240,-40,4,2,1,90,0,0
214320,-40,4,2,1,5,0,0
214400,-40,4,2,1,90,0,0
214480,-40,4,2,1,5,0,0
214560,-200,4,2,2,90,0,0
215040,-100,4,2,1,90,0,0
215520,-57.1428571428571,4,2,1,90,0,0
216960,-100,4,2,1,90,0,0
217440,-57.1428571428571,4,2,1,90,0,0
218880,-100,4,2,1,90,0,0
219840,-57.1428571428571,4,2,1,90,0,0
220800,-100,4,2,1,90,0,0
221280,-57.1428571428571,4,2,1,90,0,0
222080,-57.1428571428571,4,2,27,90,0,0
222160,-57.1428571428571,4,2,1,90,0,0
222720,-100,4,2,1,90,0,0
223200,-57.1428571428571,4,2,1,90,0,0
224640,-66.6666666666667,4,2,1,90,0,0
224720,-66.6666666666667,4,2,1,5,0,0
224800,-66.6666666666667,4,2,1,90,0,0
224880,-66.6666666666667,4,2,1,5,0,0
224960,-66.6666666666667,4,2,1,90,0,0
225040,-66.6666666666667,4,2,1,5,0,0
225120,-50,4,2,1,90,0,0
226560,-90.9090909090909,4,2,1,90,0,0
227040,-41.6666666666667,4,2,1,90,0,0
228480,-100,4,2,1,90,0,0
228960,-50,4,2,1,90,0,0
229440,-80,4,2,1,90,0,0
229920,-100,4,2,1,90,0,0
230320,-100,4,2,1,5,0,0
230400,-66.6666666666667,4,2,1,90,0,0
230880,-50,4,2,1,90,0,0
231360,-66.6666666666667,4,2,1,90,0,0
232800,-50,4,2,1,90,0,0
233280,-66.6666666666667,4,2,1,90,0,0
234720,-50,4,2,1,90,0,0
235200,-66.6666666666667,4,2,1,90,0,0
238080,-100,4,2,1,90,0,0
238560,-50,4,2,1,90,0,0
240000,-66.6666666666667,4,2,1,90,0,0
240080,-66.6666666666667,4,2,1,5,0,0
240160,-66.6666666666667,4,2,1,90,0,0
240240,-66.6666666666667,4,2,1,5,0,0
240320,-66.6666666666667,4,2,1,90,0,0
240400,-66.6666666666667,4,2,1,5,0,0
240480,-50,4,2,1,90,0,0
241920,-90.9090909090909,4,2,1,90,0,0
242400,-41.6666666666667,4,2,1,90,0,0
242880,-66.6666666666667,4,2,1,90,0,0
243840,-100,4,2,1,90,0,0
244320,-50,4,2,1,90,0,0
244800,-50,4,2,1,65,0,0
245760,-100,4,2,7,66,0,0
249440,-600.240096038415,4,2,7,66,0,0
249520,-600.240096038415,4,2,7,66,0,0
251520,-100,4,2,7,66,0,0
251600,-100,4,2,7,66,0,0
253280,-600.240096038415,4,2,7,66,0,0
253360,-600.240096038415,4,2,7,66,0,0
255200,-600.240096038415,4,2,7,66,0,0
255360,-549.450549450549,4,2,7,66,0,0
255440,-549.450549450549,4,2,7,66,0,0
257280,-125,4,2,7,66,0,0
260640,-125,4,2,7,70,0,0
260800,-125,4,2,7,70,0,0
263520,-125,4,2,7,70,0,0
263680,-125,4,2,7,70,0,0
263840,-125,4,2,7,70,0,0
264000,-125,4,2,7,70,0,0
265760,-125,4,2,7,70,0,0
266080,-125,4,2,7,70,0,0
266240,-125,4,2,7,70,0,0
266320,-125,4,2,7,70,0,0
268160,-125,4,2,7,70,0,0
268240,-125,4,2,7,70,0,0
268640,-125,4,2,7,70,0,0
268800,-125,4,2,7,70,0,0
270720,-600.240096038415,4,2,7,70,0,0
272160,-333.333333333333,4,2,7,75,0,0
272480,-600.240096038415,4,2,7,75,0,0
272640,-125,4,2,7,75,0,0
273920,-125,4,2,7,75,0,0
274000,-125,4,2,7,75,0,0
274400,-125,4,2,7,75,0,0
276480,-111.111111111111,4,2,7,75,0,0
277040,-111.111111111111,4,2,7,75,0,0
277440,-111.111111111111,4,2,7,75,0,0
279360,-111.111111111111,4,2,7,75,0,0
279520,-111.111111111111,4,2,7,75,0,0
279680,-111.111111111111,4,2,7,75,0,0
279840,-111.111111111111,4,2,7,75,0,0
280480,-111.111111111111,4,2,7,75,0,0
280720,-111.111111111111,4,2,7,75,0,0
281600,-111.111111111111,4,2,7,75,0,0
281680,-111.111111111111,4,2,7,75,0,0
282240,-111.111111111111,4,2,7,75,0,0
282640,-111.111111111111,4,2,7,75,0,0
284160,-111.111111111111,4,2,7,75,0,0
284560,-111.111111111111,4,2,7,75,0,0
285440,-111.111111111111,4,2,7,75,0,0
285600,-111.111111111111,4,2,7,79,0,0
287520,-111.111111111111,4,2,7,79,0,0
288000,-111.111111111111,4,2,7,79,0,0
289280,-111.111111111111,4,2,7,79,0,0
289920,-133.333333333333,4,2,7,79,0,0
291191,-200,4,2,7,79,0,0
291840,-100,4,2,7,84,0,0
292800,-100,4,2,7,84,0,0
295040,-333.333333333333,4,2,7,84,0,0
295680,-66.6666666666667,4,2,7,84,0,0
299310,-55.5555555555556,4,2,1,84,0,0
299520,-66.6666666666667,4,2,1,84,0,0
300800,-66.6666666666667,4,2,7,84,0,0
300880,-66.6666666666667,4,2,1,84,0,0
302720,-66.6666666666667,4,2,7,84,0,0
302800,-66.6666666666667,4,2,1,84,0,0
304640,-66.6666666666667,4,2,7,86,0,0
304720,-66.6666666666667,4,2,1,86,0,0
306560,-66.6666666666667,4,2,7,86,0,0
306640,-66.6666666666667,4,2,1,86,0,0
307200,-166.666666666667,4,2,7,90,0,0
307360,-166.666666666667,4,3,1,30,0,0
321600,-66.6666666666667,4,2,1,45,0,0
322080,-66.6666666666667,4,2,1,20,0,0
322560,-66.6666666666667,4,2,2,90,0,0
323040,-50,4,2,1,90,0,0
324480,-66.6666666666667,4,2,1,90,0,0
324560,-66.6666666666667,4,2,1,5,0,0
324640,-66.6666666666667,4,2,1,90,0,0
324720,-66.6666666666667,4,2,1,5,0,0
324800,-66.6666666666667,4,2,1,90,0,0
324880,-66.6666666666667,4,2,1,5,0,0
324960,-50,4,2,1,90,0,0
326400,-66.6666666666667,4,2,1,90,0,0
326480,-66.6666666666667,4,2,1,5,0,0
326560,-66.6666666666667,4,2,1,90,0,0
326640,-66.6666666666667,4,2,1,5,0,0
326720,-66.6666666666667,4,2,1,90,0,0
326800,-66.6666666666667,4,2,1,5,0,0
326880,-50,4,2,1,90,0,0
328320,-66.6666666666667,4,2,1,90,0,0
328400,-66.6666666666667,4,2,1,5,0,0
328480,-66.6666666666667,4,2,1,90,0,0
328560,-66.6666666666667,4,2,1,5,0,0
328640,-66.6666666666667,4,2,1,90,0,0
328720,-66.6666666666667,4,2,1,5,0,0
328800,-50,4,2,1,90,0,0
330240,-200,4,2,1,90,0,0
330720,-40,4,2,1,90,0,0
331200,-50,4,2,1,90,0,0
332080,-50,4,2,1,5,0,0
332160,-50,4,2,1,90,0,0
332640,-33.3333333333333,4,2,1,90,0,0
334080,-200,4,2,1,90,0,0
335680,-66.6666666666667,4,2,1,90,0,0
335760,-66.6666666666667,4,2,1,5,0,0
335840,-66.6666666666667,4,2,1,90,0,0
335920,-66.6666666666667,4,2,1,5,0,0
336000,-50,4,2,1,90,0,0
337440,-50,4,2,9,66,0,0
337920,-50,4,2,2,90,0,0
338080,-50,4,2,1,90,0,0
339840,-66.6666666666667,4,2,1,90,0,0
340000,-66.6666666666667,4,2,1,90,0,0
340080,-66.6666666666667,4,2,1,5,0,0
340160,-66.6666666666667,4,2,1,90,0,0
340240,-66.6666666666667,4,2,1,5,0,0
340320,-50,4,2,1,90,0,0
349920,-40,4,2,1,90,0,0
352800,-333.333333333333,4,2,2,85,0,0
352880,-333.333333333333,4,2,1,90,0,0
353440,-50,4,2,1,90,0,0
355200,-66.6666666666667,4,2,1,90,0,0
355280,-66.6666666666667,4,2,1,5,0,0
355360,-66.6666666666667,4,2,1,90,0,0
355440,-66.6666666666667,4,2,1,5,0,0
355520,-66.6666666666667,4,2,1,90,0,0
355600,-66.6666666666667,4,2,1,5,0,0
355680,-40,4,2,1,90,0,0
357120,-66.6666666666667,4,2,1,90,0,0
357200,-66.6666666666667,4,2,1,5,0,0
357280,-66.6666666666667,4,2,1,90,0,0
357360,-66.6666666666667,4,2,1,5,0,0
357440,-66.6666666666667,4,2,1,90,0,0
357600,-50,4,2,1,90,0,0
360320,-50,4,2,27,85,0,0
360400,-50,4,2,1,90,0,0
362000,-50,4,2,1,5,0,0
362080,-66.6666666666667,4,2,1,90,0,0
362160,-66.6666666666667,4,2,1,5,0,0
362240,-100,4,2,1,90,0,0
362320,-100,4,2,1,5,0,0
362400,-133.333333333333,4,2,2,90,0,0
362480,-133.333333333333,4,2,1,5,0,0
362560,-200,4,2,1,90,0,0
362640,-200,4,2,1,5,0,0
362720,-200,4,2,1,90,0,0
363360,-50,4,2,1,90,0,0
364800,-100,4,2,1,90,0,0
365280,-50,4,2,1,90,0,0
366720,-40,4,2,1,90,0,0
367120,-40,4,2,1,5,0,0
367200,-66.6666666666667,4,2,1,90,0,0
367680,-50,4,2,1,90,0,0
372480,-66.6666666666667,4,2,1,90,0,0
372560,-66.6666666666667,4,2,1,5,0,0
372640,-66.6666666666667,4,2,1,90,0,0
372720,-66.6666666666667,4,2,1,5,0,0
372800,-66.6666666666667,4,2,1,90,0,0
372960,-50,4,2,1,90,0,0
376320,-66.6666666666667,4,2,1,90,0,0
376800,-50,4,2,1,90,0,0
378240,-66.6666666666667,4,2,1,90,0,0
378320,-66.6666666666667,4,2,1,5,0,0
378400,-66.6666666666667,4,2,1,90,0,0
378480,-66.6666666666667,4,2,1,5,0,0
378560,-66.6666666666667,4,2,1,90,0,0
378640,-66.6666666666667,4,2,1,5,0,0
378720,-50,4,2,1,90,0,0
380160,-200,4,2,1,90,0,0
380640,-50,4,2,1,90,0,0
382560,-37.037037037037,4,2,1,90,0,0
383040,-28.5714285714286,4,2,1,90,0,0
384000,-100,4,2,7,63,0,0
401280,-100,4,2,7,50,0,0
401680,-100,4,2,7,63,0,0
406400,-100,4,2,7,30,0,0
406560,-100,4,2,7,63,0,0
408480,-100,4,2,7,35,0,0
408640,-100,4,2,7,63,0,0
409760,-100,4,2,7,35,0,0
409920,-100,4,2,7,63,0,0
410720,-100,4,2,7,45,0,0
410880,-100,4,2,7,63,0,0
414720,-100,4,2,7,35,0,0
415040,-100,4,2,7,63,0,0
416000,-100,4,2,7,45,0,0
416160,-100,4,2,7,63,0,0
416640,-100,4,2,7,45,0,0
416960,-100,4,2,7,63,0,0
417920,-100,4,2,7,35,0,0
418080,-100,4,2,7,63,0,0
419520,-100,4,2,7,45,0,0
419600,-100,4,2,7,63,0,0
420480,-100,4,2,7,45,0,0
420800,-100,4,2,7,63,0,0
421760,-100,4,2,7,45,0,0
421920,-100,4,2,7,63,0,0
423680,-100,4,2,7,35,0,0
423840,-100,4,2,7,63,0,0
425120,-100,4,2,7,45,0,0
425280,-100,4,2,7,63,0,0
425760,-100,4,2,7,45,0,0
425920,-100,4,2,7,63,0,0
429440,-100,4,2,7,35,0,0
429600,-100,4,2,7,63,0,0
429760,-100,4,2,7,40,0,0
429920,-100,4,2,7,63,0,0
430080,-100,4,2,7,45,0,0
430160,-100,4,2,7,63,0,0
431360,-100,4,2,7,50,0,0
431520,-100,4,2,7,63,0,0
432000,-100,4,2,7,45,0,0
432080,-100,4,2,7,63,0,0
432960,-100,4,2,7,45,0,0
433440,-100,4,2,7,63,0,0
433920,-100,4,2,7,45,0,0
434000,-100,4,2,7,63,0,0
437120,-100,4,2,7,63,0,0
437280,-100,4,2,7,63,0,0
440960,-100,4,2,7,55,0,0
441120,-100,4,2,7,63,0,0
442560,-100,4,2,7,45,0,0
443040,-100,4,2,1,63,0,0
445440,-100,4,2,9,40,0,0
447360,-125,4,2,9,35,0,0
453120,-181.818181818182,4,2,9,20,0,0
457920,-200,4,2,9,18,0,0
458880,-222.222222222222,4,2,9,16,0,0
459840,-250,4,2,9,14,0,0
460800,-270.27027027027,4,2,9,12,0,0
462400,-270.27027027027,4,2,9,10,0,0
464640,-344.827586206897,4,2,9,10,0,0
466240,-344.827586206897,4,2,9,5,0,0
466560,-500,4,2,9,14,0,0
468160,-500,4,2,1,5,0,0

[Colours]
Combo1 : 255,83,83
Combo2 : 128,128,255
Combo3 : 0,128,128
Combo4 : 206,0,103

[HitObjects]
126,165,0,6,0,L|85:169,2,35,2|2|2,0:0|0:0|0:0,0:0:0:0:
189,114,480,2,0,L|265:119,1,70,2|2,0:0|0:0,0:0:0:0:
339,107,960,1,0,0:0:0:0:
339,107,1120,2,0,P|344:71|341:46,1,35,0|2,0:0|0:0,0:0:0:0:
399,160,1440,1,0,0:0:0:0:
399,160,1600,2,0,P|432:146|452:131,1,35,2|2,0:0|0:0,0:0:0:0:
342,218,1920,6,0,P|308:204|288:189,2,35,2|2|2,0:0|0:0|0:0,0:0:0:0:
369,293,2400,2,0,P|330:315|276:314,1,70,2|2,0:0|0:0,0:0:0:0:
231,286,2880,2,0,L|233:239,2,35,0|0|2,0:0|0:0|0:0,0:0:0:0:
171,340,3360,1,0,0:0:0:0:
171,340,3520,2,0,L|173:387,1,35,0|2,0:0|0:0,0:0:0:0:
105,292,3840,6,0,P|75:298|57:297,2,35,2|2|2,0:0|0:0|0:0,0:0:0:0:
152,227,4320,2,0,L|156:139,1,70,2|2,0:0|0:0,0:0:0:0:
165,77,4800,2,0,P|149:68|120:61,2,35,0|2|2,0:0|0:0|0:0,0:0:0:0:
244,62,5280,1,0,0:0:0:0:
244,62,5440,2,0,P|243:43|235:15,1,35,2|2,0:0|0:0,0:0:0:0:
218,139,5760,6,0,P|202:147|173:155,2,35,2|2|2,0:0|0:0|0:0,0:0:0:0:
298,127,6240,2,0,L|381:134,1,70,2|2,0:0|0:0,0:0:0:0:
434,178,6720,2,0,L|492:173,2,35,2|0|2,0:0|0:0|0:0,0:0:0:0:
377,234,7200,2,0,L|318:229,2,35,0|2|2,0:0|0:0|0:0,0:0:0:0:
433,290,7680,6,0,P|456:287|478:288,2,35,2|2|2,0:0|0:0|0:0,0:0:0:0:
370,341,8160,2,0,P|298:331|275:328,1,70,2|2,0:0|0:0,0:0:0:0:
245,272,8640,1,0,0:0:0:0:
245,272,8800,1,2,0:0:0:0:
245,272,8960,1,2,0:0:0:0:
186,327,9120,2,0,L|194:384,2,35,2|2|2,0:0|0:0|0:0,0:0:0:0:
138,261,9600,6,0,L|146:204,2,35,2|2|2,0:0|0:0|0:0,0:0:0:0:
66,298,10080,2,0,P|45:265|34:230,1,70,2|2,0:0|0:0,0:0:0:0:
28,155,10560,1,0,0:0:0:0:
28,155,10720,1,0,0:0:0:0:
28,155,10880,1,2,0:0:0:0:
92,106,11040,2,0,L|88:50,2,35,0|2|2,0:0|0:0|0:0,0:0:0:0:
147,163,11520,6,0,L|143:219,2,35,2|2|2,0:0|0:0|0:0,0:0:0:0:
199,102,12000,2,0,P|230:139|239:170,1,70,2|2,0:0|0:0,0:0:0:0:
256,246,12480,1,0,0:0:0:0:
256,246,12640,1,2,0:0:0:0:
256,246,12800,1,2,0:0:0:0:
327,283,12960,2,0,L|380:278,2,35,2|2|2,0:0|0:0|0:0,0:0:0:0:
267,338,13440,6,0,L|214:333,2,35,2|2|2,0:0|0:0|0:0,0:0:0:0:
341,369,13920,2,0,P|388:356|429:356,1,70,2|2,0:0|0:0,0:0:0:0:
472,304,14400,1,8,0:0:0:0:
472,304,14560,1,0,0:0:0:0:
472,304,14720,1,2,0:0:0:0:
437,231,14880,2,0,L|442:179,2,35,10|0|2,0:0|0:0|0:0,0:0:0:0:
353,279,15360,6,0,P|317:283|299:280,1,41.9999987182618,10|0,0:0|0:0,0:0:0:0:
221,245,15680,1,0,0:0:0:0:
221,245,15840,2,0,L|125:254,1,83.9999974365235,8|0,0:0|0:0,0:0:0:0:
48,212,16320,2,0,P|43:187|45:166,1,41.9999987182618,10|0,0:0|0:0,0:0:0:0:
74,81,16640,1,2,0:0:0:0:
74,81,16800,2,0,P|93:64|112:55,1,41.9999987182618,8|0,0:0|0:0,0:0:0:0:
208,77,17120,1,0,0:0:0:0:
208,77,17280,6,0,L|215:143,1,41.9999987182618,10|0,0:0|0:0,0:0:0:0:
279,196,17600,1,0,0:0:0:0:
279,196,17760,2,0,P|325:175|380:175,1,83.9999974365235,8|0,0:0|0:0,0:0:0:0:
446,210,18240,2,0,L|441:263,1,41.9999987182618,10|0,0:0|0:0,0:0:0:0:
356,295,18560,1,0,0:0:0:0:
356,295,18720,2,0,L|352:253,1,41.9999987182618,10|0,0:0|0:0,0:0:0:0:
279,196,19040,1,0,0:0:0:0:
279,196,19200,6,0,P|252:194|223:200,1,41.9999987182618,10|0,0:0|0:0,0:0:0:0:
149,237,19520,1,0,0:0:0:0:
149,237,19680,2,0,P|107:235|43:231,1,83.9999974365235,8|0,0:0|0:0,0:0:0:0:
33,140,20160,2,0,P|54:139|86:137,1,41.9999987182618,8|2,0:0|0:0,0:0:0:0:
135,62,20480,1,2,0:0:0:0:
135,62,20640,2,0,P|114:61|82:59,1,41.9999987182618,8|0,0:0|0:0,0:0:0:0:
182,142,20960,1,0,0:0:0:0:
182,142,21120,6,0,P|203:141|235:139,1,41.9999987182618,10|0,0:0|0:0,0:0:0:0:
306,89,21440,1,0,0:0:0:0:
306,89,21600,2,0,P|357:75|395:77,1,83.9999974365235,10|0,0:0|0:0,0:0:0:0:
458,141,22080,2,0,L|456:207,1,41.9999987182618,8|2,0:0|0:0,0:0:0:0:
362,203,22400,1,2,0:0:0:0:
362,203,22560,2,0,L|360:161,1,41.9999987182618,8|0,0:0|0:0,0:0:0:0:
306,89,22880,1,2,0:0:0:0:
306,89,23040,6,0,P|270:73|208:71,1,83.9999974365235,10|0,0:0|0:0,0:0:0:0:
137,109,23520,2,0,L|143:212,1,83.9999974365235,10|0,0:0|0:0,0:0:0:0:
205,265,24000,2,0,L|200:320,1,41.9999987182618,8|2,0:0|0:0,0:0:0:0:
119,357,24320,2,0,P|64:362|16:347,1,83.9999974365235,2|0,0:0|0:0,0:0:0:0:
4,264,24800,1,2,0:0:0:0:
4,264,24960,6,0,L|0:188,2,48.9999985046387,10|0|0,0:0|0:0|0:0,0:0:0:0:
102,208,25440,1,10,0:0:0:0:
26,123,25600,1,2,0:0:0:0:
102,208,25760,1,0,0:0:0:0:
171,119,25920,6,0,L|256:113,1,48.9999985046387,10|2,0:0|0:0,0:0:0:0:
317,58,26240,2,0,P|359:52|430:64,1,97.9999970092774,2|2,0:0|0:0,0:0:0:0:
500,139,26720,1,2,0:0:0:0:
500,139,26880,2,0,L|494:248,1,97.9999970092774,10|2,0:0|0:0,0:0:0:0:
397,293,27360,2,0,B|382:248|382:248|391:195,1,97.9999970092774,10|0,0:0|0:0,0:0:0:0:
291,145,27840,6,0,P|245:144|221:149,1,48.9999985046387,10|2,0:0|0:0,0:0:0:0:
146,203,28160,2,0,P|131:134|127:100,1,97.9999970092774,2|2,0:0|0:0,0:0:0:0:
39,46,28640,1,2,0:0:0:0:
39,46,28800,2,0,P|31:94|20:142,1,97.9999970092774,10|0,0:0|0:0,0:0:0:0:
12,255,29280,2,0,B|39:277|39:277|31:363,1,97.9999970092774,10|0,0:0|0:0,0:0:0:0:
148,378,29760,6,0,P|164:342|164:319,1,52.5000020027161,10|2,0:0|0:0,0:0:0:0:
284,348,30080,2,0,P|260:316|240:304,1,52.5000020027161,2|8,0:0|0:0,0:0:0:0:
323,213,30400,2,0,P|283:217|263:228,1,52.5000020027161,2|2,0:0|0:0,0:0:0:0:
225,111,30720,2,0,P|209:147|208:170,1,52.5000020027161,10|0,0:0|0:0,0:0:0:0:
87,143,31040,2,0,P|110:174|130:186,1,52.5000020027161,0|10,0:0|0:0,0:0:0:0:
45,277,31360,2,0,P|84:272|104:261,1,52.5000020027161,2|0,0:0|0:0,0:0:0:0:
215,249,31680,6,0,L|283:258,1,52.5000020027161,10|2,0:0|0:0,0:0:0:0:
371,194,32000,2,0,L|328:249,1,52.5000020027161,2|8,0:0|0:0,0:0:0:0:
345,356,32320,2,0,L|318:291,1,52.5000020027161,2|2,0:0|0:0,0:0:0:0:
271,175,32640,1,10,0:0:0:0:
191,266,32800,1,0,0:0:0:0:
191,266,32960,2,0,L|120:257,1,52.5000020027161,2|10,0:0|0:0,0:0:0:0:
62,165,33280,2,0,L|133:156,1,52.5000020027161,2|0,0:0|0:0,0:0:0:0:
208,83,33600,6,0,P|221:45|221:21,1,52.5000020027161,10|2,0:0|0:0,0:0:0:0:
274,142,33920,2,0,P|313:134|334:122,1,52.5000020027161,2|8,0:0|0:0,0:0:0:0:
251,225,34240,2,0,P|277:255|298:267,1,52.5000020027161,2|2,0:0|0:0,0:0:0:0:
390,187,34560,2,0,P|377:225|377:249,1,52.5000020027161,10|0,0:0|0:0,0:0:0:0:
324,128,34880,2,0,P|284:135|263:147,1,52.5000020027161,2|10,0:0|0:0,0:0:0:0:
347,45,35200,2,0,P|320:14|299:2,1,52.5000020027161,2|0,0:0|0:0,0:0:0:0:
189,9,35520,6,0,L|185:74,1,52.5000020027161,10|2,0:0|0:0,0:0:0:0:
101,148,35840,2,0,L|159:118,1,52.5000020027161,2|10,0:0|0:0,0:0:0:0:
264,155,36160,2,0,L|209:119,1,52.5000020027161,0|2,0:0|0:0,0:0:0:0:
105,43,36480,1,10,0:0:0:0:
7,114,36640,1,0,0:0:0:0:
7,114,36800,2,0,L|11:178,1,52.5000020027161,2|10,0:0|0:0,0:0:0:0:
68,272,37120,2,0,L|72:208,1,52.5000020027161,2|0,0:0|0:0,0:0:0:0:
168,135,37440,6,0,B|198:123|198:123|298:138,1,112,8|0,0:0|0:0,0:0:0:0:
347,235,37920,2,0,B|317:223|317:223|217:238,1,112,8|2,0:0|0:0,0:0:0:0:
136,305,38400,2,0,L|145:383,1,56,10|0,0:0|0:0,0:0:0:0:
36,296,38720,1,0,0:0:0:0:
36,296,38880,2,0,L|45:218,1,56,10|2,0:0|0:0,0:0:0:0:
60,117,39200,1,0,0:0:0:0:
60,117,39360,6,0,P|45:79|43:49,2,56,10|2|2,0:0|0:0|0:0,0:0:0:0:
167,176,39840,2,0,P|152:214|150:244,2,56,8|0|2,0:0|0:0|0:0,0:0:0:0:
248,82,40320,1,10,0:0:0:0:
286,199,40480,1,0,0:0:0:0:
248,82,40640,1,2,0:0:0:0:
362,127,40800,2,0,L|435:119,1,56,10|2,0:0|0:0,0:0:0:0:
488,222,41120,1,0,0:0:0:0:
488,222,41280,6,0,L|415:214,1,56,8|2,0:0|0:0,0:0:0:0:
352,309,41600,1,2,0:0:0:0:
352,309,41760,2,0,L|425:301,1,56,8|0,0:0|0:0,0:0:0:0:
321,215,42080,1,2,0:0:0:0:
321,215,42240,2,0,P|285:214|246:222,1,56,10|0,0:0|0:0,0:0:0:0:
337,117,42560,1,0,0:0:0:0:
337,117,42720,2,0,P|373:118|412:110,1,56,10|2,0:0|0:0,0:0:0:0:
307,25,43040,1,0,0:0:0:0:
307,25,43200,6,0,L|248:16,2,56,10|2|2,0:0|0:0|0:0,0:0:0:0:
241,129,43680,2,0,L|194:91,2,56,8|0|2,0:0|0:0|0:0,0:0:0:0:
166,227,44160,2,0,P|128:232|77:218,1,56,10|0,0:0|0:0,0:0:0:0:
185,327,44480,1,0,0:0:0:0:
185,327,44640,2,0,P|223:332|274:318,1,56,10|2,0:0|0:0,0:0:0:0:
354,282,44960,1,0,0:0:0:0:
354,282,45120,6,0,L|357:220,1,56,8|2,0:0|0:0,0:0:0:0:
422,121,45440,1,2,0:0:0:0:
422,121,45600,2,0,L|419:59,1,56,8|0,0:0|0:0,0:0:0:0:
303,21,45920,1,2,0:0:0:0:
303,21,46080,2,0,L|300:83,1,56,10|0,0:0|0:0,0:0:0:0:
235,182,46400,1,0,0:0:0:0:
235,182,46560,2,0,L|238:244,1,56,10|2,0:0|0:0,0:0:0:0:
142,315,46880,1,0,0:0:0:0:
142,315,47040,6,0,P|95:324|77:322,2,56,10|2|2,0:0|0:0|0:0,0:0:0:0:
142,191,47520,2,0,P|95:182|77:184,2,56,8|2|2,0:0|0:0|0:0,0:0:0:0:
239,266,48000,2,0,L|325:261,1,56,10|0,0:0|0:0,0:0:0:0:
366,161,48320,1,0,0:0:0:0:
366,161,48480,2,0,L|280:156,1,56,10|2,0:0|0:0,0:0:0:0:
203,96,48800,1,0,0:0:0:0:
203,96,48960,6,0,P|199:66|203:36,1,56,8|2,0:0|0:0,0:0:0:0:
323,63,49280,1,2,0:0:0:0:
323,63,49440,2,0,B|360:47|360:47|451:56,1,112,10|0,0:0|0:0,0:0:0:0:
493,160,49920,2,0,P|497:200|493:232,1,56,10|0,0:0|0:0,0:0:0:0:
368,216,50240,1,0,0:0:0:0:
368,216,50400,2,0,P|364:176|368:144,1,56,10|2,0:0|0:0,0:0:0:0:
431,54,50720,1,0,0:0:0:0:
431,54,50880,6,0,L|490:56,2,56,8|2|2,0:0|0:0|0:0,0:0:0:0:
343,140,51360,2,0,L|284:142,2,56,8|2|2,0:0|0:0|0:0,0:0:0:0:
289,28,51840,1,10,0:0:0:0:
207,120,52000,1,0,0:0:0:0:
289,28,52160,1,2,0:0:0:0:
166,42,52320,2,0,L|105:36,1,56,8|2,0:0|0:0,0:0:0:0:
6,103,52640,1,0,0:0:0:0:
6,102,52800,6,0,P|9:134|12:165,1,62.9999980773926,10|0,0:0|0:0,0:0:0:0:
117,247,53120,1,2,0:0:0:0:
117,247,53280,2,0,P|119:215|123:184,1,62.9999980773926,10|0,0:0|0:0,0:0:0:0:
236,113,53600,1,0,0:0:0:0:
236,113,53760,2,0,P|306:111|353:146,1,125.999996154785,8|0,0:0|0:0,0:0:0:0:
442,238,54240,2,0,L|512:233,1,62.9999980773926,8|0,0:0|0:0,0:0:0:0:
379,338,54560,1,0,0:0:0:0:
379,338,54720,6,0,L|309:333,2,62.9999980773926,10|2|2,0:0|0:0|0:0,0:0:0:0:
305,228,55200,2,0,L|235:233,2,62.9999980773926,8|0|2,0:0|0:0|0:0,0:0:0:0:
194,155,55680,1,2,0:0:0:0:
173,285,55840,1,0,0:0:0:0:
194,155,56000,1,0,0:0:0:0:
86,232,56160,2,0,L|23:227,1,62.9999980773926,10|0,0:0|0:0,0:0:0:0:
10,94,56480,1,0,0:0:0:0:
10,94,56640,6,0,L|72:89,1,62.9999980773926,10|2,0:0|0:0,0:0:0:0:
189,28,56960,1,0,0:0:0:0:
189,28,57120,2,0,L|251:32,1,62.9999980773926,8|0,0:0|0:0,0:0:0:0:
342,129,57440,1,0,0:0:0:0:
342,129,57600,2,0,L|279:133,1,62.9999980773926,10|2,0:0|0:0,0:0:0:0:
163,194,57920,1,2,0:0:0:0:
163,194,58080,2,0,L|100:189,1,62.9999980773926,8|0,0:0|0:0,0:0:0:0:
166,305,58400,1,2,0:0:0:0:
166,305,58560,6,0,P|205:312|229:308,2,62.9999980773926,2|2|2,0:0|0:0|0:0,0:0:0:0:
273,227,59040,2,0,P|312:220|336:224,2,62.9999980773926,10|2|2,0:0|0:0|0:0,0:0:0:0:
364,323,59520,1,10,0:0:0:0:
364,323,59680,1,0,0:0:0:0:
364,323,59840,1,0,0:0:0:0:
437,212,60000,1,8,0:0:0:0:
437,212,60160,1,0,0:0:0:0:
437,212,60320,1,0,0:0:0:0:
304,220,60480,5,10,0:0:0:0:
385,99,60640,1,2,0:0:0:0:
304,220,60800,1,2,0:0:0:0:
241,89,60960,5,10,0:0:0:0:
385,99,61120,1,2,0:0:0:0:
241,89,61280,1,2,0:0:0:0:
309,142,61440,5,2,3:0:0:0:
151,142,61920,5,0,3:0:0:0:
151,299,62400,5,0,3:0:0:0:
308,299,62880,5,0,3:0:0:0:
160,294,63360,5,0,3:0:0:0:
160,145,63840,5,0,3:0:0:0:
310,145,64320,5,0,3:0:0:0:
309,294,64800,5,0,3:0:0:0:
455,290,65280,5,0,3:0:0:0:
455,147,65760,5,0,3:0:0:0:
314,148,66240,5,0,3:0:0:0:
313,290,66720,5,0,3:0:0:0:
319,151,67200,5,0,3:0:0:0:
452,150,67680,5,0,3:0:0:0:
452,285,68160,5,0,3:0:0:0:
465,299,69120,5,8,0:0:0:0:
465,141,69280,1,0,0:0:0:0:
308,299,69440,1,4,3:0:0:0:
309,142,69600,6,0,B|255:122|211:152|211:152|189:134|189:134|140:166|79:142,1,238.00000453949,12|0,3:0|0:0,0:0:0:0:
268,228,70080,5,4,3:0:0:0:
130,59,70240,1,0,0:0:0:0:
309,142,70400,1,0,0:0:0:0:
66,140,70560,5,8,0:0:0:0:
286,236,70720,1,0,0:0:0:0:
122,49,70880,1,0,0:0:0:0:
330,146,71040,6,0,P|339:123|326:87,1,59.5000011348725,4|0,3:0|0:0,0:0:0:0:
219,200,71200,2,0,P|248:206|268:228,1,59.5000011348725,4|0,3:0|0:0,0:0:0:0:
307,321,71360,2,0,P|278:327|260:350,1,59.5000011348725,4|0,3:0|0:0,0:0:0:0:
84,353,71520,6,0,B|73:317|73:317|183:318|183:318|176:344|176:344|280:351,1,258.999999011993,12|0,3:0|0:0,0:0:0:0:
414,357,72000,5,4,3:0:0:0:
387,216,72160,1,0,0:0:0:0:
360,75,72320,1,0,0:0:0:0:
483,273,72480,5,8,0:0:0:0:
291,159,72640,1,0,0:0:0:0:
279,162,72720,1,0,0:0:0:0:
267,165,72800,1,0,0:0:0:0:
141,271,72960,6,0,L|136:216,1,35,4|0,3:0|0:0,0:0:0:0:
23,141,73120,2,0,P|52:151|80:176,1,61.2500005841255,4|0,3:0|0:0,0:0:0:0:
238,123,73280,2,0,P|210:137|187:166,1,61.2500005841255,4|0,3:0|0:0,0:0:0:0:
39,318,73440,6,0,B|88:304|124:324|140:380|140:380|131:337|144:304|144:304|138:238,1,280,12|0,3:0|0:0,0:0:0:0:
232,346,73920,5,4,3:0:0:0:
19,323,74080,1,0,0:0:0:0:
249,349,74240,1,0,0:0:0:0:
75,170,74400,5,8,0:0:0:0:
140,380,74560,1,0,0:0:0:0:
190,159,74720,1,0,0:0:0:0:
317,346,74880,6,0,B|286:357|286:357|249:349,1,70,4|0,3:0|0:0,0:0:0:0:
447,300,75040,2,0,B|472:321|472:321|483:357,1,70,4|0,3:0|0:0,0:0:0:0:
343,210,75200,2,8,B|348:177|348:177|374:149,1,70,4|8,3:0|1:0,1:1:0:0:
232,346,75360,6,0,B|216:286|216:286|239:221|239:221|187:251|122:216,1,238.00000453949,8|0,3:0|0:0,0:0:0:0:
194,66,75840,5,4,3:0:0:0:
191,95,75920,1,0,0:0:0:0:
188,125,76000,1,0,0:0:0:0:
140,380,76160,1,0,0:0:0:0:
27,167,76320,5,8,0:0:0:0:
239,221,76480,1,0,0:0:0:0:
27,279,76640,1,0,0:0:0:0:
348,301,76800,6,0,P|383:280|443:282,1,90.9999958343508,4|0,3:0|0:0,0:0:0:0:
177,304,77280,6,0,B|254:332|304:295|304:295|363:252|462:288,1,265.999992897034,12|0,3:0|0:0,0:0:0:0:
239,221,77760,5,4,3:0:0:0:
508,294,77920,1,0,0:0:0:0:
224,218,78080,1,8,0:0:0:0:
377,365,78240,5,4,3:0:0:0:
450,96,78400,1,0,0:0:0:0:
374,380,78560,1,0,0:0:0:0:
253,130,78720,6,0,B|217:119|217:119|173:136,1,77.0000023498536,4|0,3:0|0:0,0:0:0:0:
340,110,79200,6,0,B|215:73|215:73|73:129,1,258.999999011993,12|0,3:0|0:0,0:0:0:0:
234,371,79680,5,4,3:0:0:0:
221,173,79840,1,0,0:0:0:0:
234,371,80000,1,0,0:0:0:0:
95,120,80160,5,8,0:0:0:0:
340,110,80320,1,0,0:0:0:0:
95,120,80480,1,0,0:0:0:0:
317,268,80640,6,0,B|342:241|342:198|342:198|344:241|378:273,1,154.000004699707,12|0,3:0|0:0,0:0:0:0:
317,268,81120,6,0,B|283:193|340:110|340:110|405:181|369:277,1,335.999989746094,12|0,3:0|0:0,0:0:0:0:
221,173,81600,5,4,3:0:0:0:
433,338,81760,2,0,L|488:331,1,52.5000020027161,2|2,0:0|0:0,0:0:0:0:
345,344,81920,1,10,0:0:0:0:
461,167,82080,5,4,3:0:0:0:
345,362,82240,1,0,0:0:0:0:
221,173,82400,1,0,0:0:0:0:
451,287,82560,6,0,B|460:262|460:262|454:231|454:231|451:227|451:227|452:220|452:220|448:197|448:197|461:167,1,125.999996154785,4|0,3:0|0:0,0:0:0:0:
312,102,83040,6,0,B|294:136|261:153|261:153|335:145|335:145|348:156|348:156|407:150|407:150|462:167,1,280,12|0,3:0|0:0,0:0:0:0:
226,64,83520,5,4,3:0:0:0:
309,273,83680,1,0,0:0:0:0:
312,102,83840,1,0,0:0:0:0:
223,235,84000,5,0,0:0:0:0:
290,201,84160,1,0,0:0:0:0:
309,273,84320,1,0,0:0:0:0:
120,140,84480,5,8,0:0:0:0:
376,239,84640,1,0,0:0:0:0:
69,269,84800,1,0,0:0:0:0:
318,183,84960,6,0,P|375:159|410:313,1,280,4|0,3:0|0:0,0:0:0:0:
145,225,85440,5,8,0:0:0:0:
376,239,85600,1,0,0:0:0:0:
69,269,85760,1,0,0:0:0:0:
318,183,85920,5,8,0:0:0:0:
94,354,86080,1,0,0:0:0:0:
123,115,86240,1,0,0:0:0:0:
275,327,86400,6,0,L|340:320,1,62.9999980773926,4|0,3:0|0:0,0:0:0:0:
438,245,86560,2,0,L|375:238,1,62.9999980773926,4|0,3:0|0:0,0:0:0:0:
275,163,86720,2,0,L|340:156,1,62.9999980773926,4|0,3:0|0:0,0:0:0:0:
465,106,86880,6,0,B|421:58|421:58|438:245,1,251.999992309571,12|0,3:0|0:0,0:0:0:0:
256,331,87360,5,4,3:0:0:0:
507,310,87520,1,0,0:0:0:0:
239,241,87680,1,0,0:0:0:0:
465,106,87840,5,8,0:0:0:0:
428,353,88000,1,0,0:0:0:0:
469,93,88160,1,0,0:0:0:0:
239,241,88320,6,0,L|183:233,1,35,4|0,3:0|0:0,0:0:0:0:
332,185,88480,2,0,P|344:215|345:261,1,64.7499997529984,4|0,3:0|0:0,0:0:0:0:
111,292,88640,2,0,P|98:261|98:216,1,64.7499997529984,4|0,3:0|0:0,0:0:0:0:
250,51,88800,6,0,B|197:28|154:71|154:71|272:145|269:33|399:88,1,335.999989746094,12|0,3:0|0:0,0:0:0:0:
499,249,89280,5,4,3:0:0:0:
332,185,89440,1,0,0:0:0:0:
441,365,89600,1,0,0:0:0:0:
438,141,89760,5,8,0:0:0:0:
428,353,89920,1,0,0:0:0:0:
374,79,90080,1,0,0:0:0:0:
269,320,90240,6,0,P|295:293|332:293,1,77.0000023498536,4|0,3:0|0:0,0:0:0:0:
173,207,90400,2,0,P|146:179|109:179,1,77.0000023498536,4|0,3:0|0:0,0:0:0:0:
269,93,90560,2,0,P|295:65|332:65,1,77.0000023498536,4|0,3:0|0:0,0:0:0:0:
111,263,90720,5,0,1:0:0:0:
339,157,90880,2,0,B|397:177|440:160|440:160|414:178|402:199,1,154.000004699707,4|0,3:0|0:0,0:0:0:0:
170,354,91200,5,8,3:0:0:0:
269,93,91360,1,0,0:0:0:0:
170,354,91520,1,8,3:0:0:0:
159,41,91680,5,8,3:0:0:0:
269,320,91840,1,0,0:0:0:0:
159,41,92000,1,0,0:0:0:0:
309,261,92160,6,0,P|362:261|383:211,1,105.000004005432,4|0,3:0|0:0,0:0:0:0:
269,320,92640,6,0,P|401:320|454:219,1,251.999992309571,12|0,3:0|0:0,0:0:0:0:
285,125,93120,5,4,3:0:0:0:
269,320,93280,1,0,0:0:0:0:
453,225,93440,1,0,0:0:0:0:
186,158,93600,5,4,3:0:0:0:
354,258,93760,1,0,0:0:0:0:
370,63,93920,1,0,0:0:0:0:
269,320,94080,6,0,B|221:313|221:313|207:322|207:322|138:314,1,119.000002269745,4|0,3:0|0:0,0:0:0:0:
150,154,94560,6,0,B|132:129|125:94|125:94|176:79|226:95|226:95|188:178|184:261,1,315.000012016297,12|0,3:0|0:0,0:0:0:0:
343,360,95040,5,4,3:0:0:0:
131,313,95200,1,0,0:0:0:0:
269,320,95360,1,0,0:0:0:0:
57,353,95520,5,8,0:0:0:0:
125,94,95680,1,0,0:0:0:0:
131,313,95840,1,0,0:0:0:0:
199,54,96000,6,0,B|231:54|251:43|251:43|271:53|307:53,1,105.000004005432,4|0,3:0|0:0,0:0:0:0:
199,54,96480,6,0,B|151:124|151:124|351:124|351:124|297:48,1,371.00001556778,12|0,3:0|0:0,0:0:0:0:
66,261,96960,5,4,3:0:0:0:
260,369,97120,2,0,L|256:295,1,52.5000020027161,2|2,0:0|0:0,0:0:0:0:
249,228,97280,1,8,0:0:0:0:
57,353,97440,5,4,3:0:0:0:
325,264,97600,1,0,0:0:0:0:
54,250,97760,1,0,0:0:0:0:
260,369,97920,6,0,B|321:361|321:361|340:347|340:347|360:358|360:358|425:351,1,167.999994873047,4|0,3:0|0:0,0:0:0:0:
338,132,98400,6,0,B|353:94|322:47|322:47|292:141|327:186|327:186|307:222|329:277,1,315.000012016297,12|0,3:0|0:0,0:0:0:0:
481,275,98880,5,4,3:0:0:0:
260,369,99040,1,0,0:0:0:0:
395,227,99200,1,0,0:0:0:0:
160,254,99360,5,8,0:0:0:0:
419,352,99520,1,0,0:0:0:0:
165,347,99680,1,0,0:0:0:0:
471,178,99840,5,8,0:0:0:0:
260,369,100000,1,0,0:0:0:0:
271,70,100160,1,0,0:0:0:0:
406,371,100320,6,0,B|464:371|471:331|471:331|471:178|471:178|447:215|391:215,1,315.000012016297,12|0,3:0|0:0,0:0:0:0:
192,56,100800,5,4,3:0:0:0:
401,130,100960,1,0,0:0:0:0:
151,192,101120,1,0,0:0:0:0:
339,20,101280,5,8,0:0:0:0:
375,293,101440,1,0,0:0:0:0:
498,55,101600,1,0,0:0:0:0:
278,268,101760,6,0,L|287:337,1,62.9999980773926,4|0,3:0|0:0,0:0:0:0:
143,254,101920,2,0,L|151:191,1,62.9999980773926,4|0,3:0|0:0,0:0:0:0:
265,122,102080,2,0,L|273:184,1,62.9999980773926,4|0,3:0|0:0,0:0:0:0:
441,313,102240,6,0,B|399:342|354:321|354:321|345:258|345:258|278:268|278:268|292:225|270:176,1,308.000009399414,12|0,3:0|0:0,0:0:0:0:
176,35,102720,5,4,3:0:0:0:
179,295,102880,1,0,0:0:0:0:
165,18,103040,1,0,0:0:0:0:
278,268,103200,5,8,0:0:0:0:
13,188,103360,1,0,0:0:0:0:
13,207,103440,1,0,0:0:0:0:
14,226,103520,1,0,0:0:0:0:
248,168,103680,6,0,L|307:171,1,38.5000011749268,4|0,3:0|0:0,0:0:0:0:
146,203,103840,2,0,B|134:174|134:174|144:126,1,70,4|0,3:0|0:0,0:0:0:0:
388,134,104000,2,0,B|400:163|400:163|390:211,1,70,4|0,3:0|0:0,0:0:0:0:
151,379,104160,6,0,B|118:348|108:307|108:307|145:204|145:204|179:309|224:344,1,335.999989746094,12|0,3:0|0:0,0:0:0:0:
165,18,104640,5,4,3:0:0:0:
388,134,104800,1,0,0:0:0:0:
149,105,104960,1,0,0:0:0:0:
404,47,105120,5,8,0:0:0:0:
356,308,105280,1,0,0:0:0:0:
316,74,105440,1,0,0:0:0:0:
444,335,105600,6,0,B|413:322|413:322|379:326,1,66.4999982242585,4|0,3:0|0:0,0:0:0:0:
224,235,105760,2,0,B|255:222|255:222|289:226,1,66.4999982242585,4|0,3:0|0:0,0:0:0:0:
451,143,105920,2,0,B|420:130|420:130|386:134,1,66.4999982242585,4|0,3:0|0:0,0:0:0:0:
143,294,106080,6,0,B|94:165|194:205|137:69|137:69|147:135|115:169,1,328.999994979859,12|0,3:0|0:0,0:0:0:0:
176,371,106560,5,8,0:0:0:0:
46,102,106720,1,0,0:0:0:0:
224,235,106880,1,2,0:0:0:0:
224,235,106960,1,2,0:0:0:0:
224,235,107040,5,0,3:0:0:0:
273,230,107120,1,0,3:0:0:0:
322,225,107200,1,0,3:0:0:0:
371,221,107280,1,0,3:0:0:0:
420,216,107360,2,0,L|495:211,1,62.9999980773926,0|0,3:0|0:0,0:0:0:0:
150,167,107520,6,0,B|124:240|124:240|157:310,1,154.000004699707,4|0,3:0|0:0,0:0:0:0:
512,207,108000,6,0,B|346:145|390:313|200:225,1,308.000009399414,12|0,3:0|0:0,0:0:0:0:
449,317,108480,5,8,0:0:0:0:
291,125,108640,1,0,0:0:0:0:
306,368,108800,1,0,0:0:0:0:
438,164,108960,5,4,3:0:0:0:
211,251,109120,1,0,0:0:0:0:
449,317,109280,1,0,0:0:0:0:
190,137,109440,6,0,L|103:144,1,70,0|0,3:0|0:0,0:0:0:0:
368,169,109600,2,0,L|438:164,1,70,0|0,3:0|0:0,0:0:0:0:
154,118,109760,2,0,L|67:125,1,70,0|0,3:0|0:0,0:0:0:0:
404,188,109920,6,0,B|488:182|488:182|481:264|481:264|477:266|477:266|481:268|481:268|475:344|475:344|374:349,1,335.999989746094,12|0,3:0|0:0,0:0:0:0:
291,125,110400,5,4,3:0:0:0:
477,266,110560,1,0,0:0:0:0:
268,353,110720,1,0,0:0:0:0:
448,88,110880,5,8,0:0:0:0:
390,348,111040,1,0,0:0:0:0:
281,112,111200,1,0,0:0:0:0:
99,271,111360,6,0,B|144:291|189:274|189:274|195:325|159:377,1,181.999991668702,4|0,3:0|0:0,0:0:0:0:
99,271,111840,6,0,B|143:226|156:122|156:122|137:277|173:369,1,403.20000984375,12|0,3:0|0:0,0:0:0:0:
17,156,112320,5,4,3:0:0:0:
292,253,112480,2,0,L|285:324,1,52.5000020027161,2|0,0:0|0:0,0:0:0:0:
308,149,112640,1,2,0:0:0:0:
32,310,112800,5,4,3:0:0:0:
164,87,112960,1,0,0:0:0:0:
169,359,113120,1,0,0:0:0:0:
384,256,113280,6,0,B|335:238|335:238|292:253,1,97.9999970092774,12|0,3:0|0:0,0:0:0:0:
469,300,113600,1,0,0:0:0:0:
242,191,113760,6,0,B|230:156|254:49|254:49|225:151|145:158|96:85|159:19|213:66,1,399.000003805161,12|0,3:0|0:0,0:0:0:0:
261,328,114240,5,0,3:0:0:0:
102,216,114400,1,0,3:0:0:0:
242,191,114560,1,0,3:0:0:0:
149,320,114720,5,8,0:0:0:0:
15,231,114880,1,0,3:0:0:0:
52,324,115040,1,0,3:0:0:0:
242,191,115200,6,0,L|390:197,1,140,2|2,0:0|0:0,0:0:0:0:
460,238,115680,1,10,0:0:0:0:
460,238,115840,2,0,P|450:266|451:314,1,70,2|0,0:0|0:0,0:0:0:0:
382,197,116160,2,0,P|402:138|400:39,1,140,8|0,0:0|0:0,0:0:0:0:
290,112,116640,1,8,0:0:0:0:
382,197,116800,1,2,0:0:0:0:
495,147,116960,1,2,0:0:0:0:
405,61,117120,6,0,P|357:28|263:29,1,140,10|2,0:0|0:0,0:0:0:0:
178,77,117600,1,8,0:0:0:0:
178,77,117760,2,0,L|180:161,1,70,2|2,0:0|0:0,0:0:0:0:
291,181,118080,2,0,L|290:112,2,70,8|0|0,0:0|0:0|0:0,0:0:0:0:
403,216,118560,1,8,0:0:0:0:
399,76,118720,1,2,0:0:0:0:
403,233,118880,1,2,0:0:0:0:
289,111,119040,6,0,P|225:111|156:146,1,140,10|2,0:0|0:0,0:0:0:0:
253,233,119520,1,8,0:0:0:0:
357,151,119680,2,0,P|367:114|360:75,1,70,2|2,0:0|0:0,0:0:0:0:
253,233,120000,2,0,L|262:375,1,140,8|0,0:0|0:0,0:0:0:0:
359,343,120480,1,8,0:0:0:0:
253,233,120640,1,2,0:0:0:0:
370,352,120800,1,2,0:0:0:0:
242,224,120960,6,0,B|203:253|203:253|95:241,1,140,10|2,0:0|0:0,0:0:0:0:
34,161,121440,1,8,0:0:0:0:
138,117,121600,1,2,0:0:0:0:
112,242,121760,2,0,P|107:275|111:319,1,70,2|8,0:0|0:0,0:0:0:0:
242,224,122080,2,0,L|236:145,1,70,0|0,0:0|0:0,0:0:0:0:
205,328,122400,1,8,0:0:0:0:
307,272,122560,1,2,0:0:0:0:
155,251,122720,1,2,0:0:0:0:
331,275,122880,6,0,L|325:205,2,70,10|0|2,0:0|0:0|0:0,0:0:0:0:
445,344,123360,2,0,L|456:205,1,140,10|2,0:0|0:0,0:0:0:0:
325,128,123840,2,0,P|295:132|264:158,2,70,8|0|0,0:0|0:0|0:0,0:0:0:0:
456,205,124320,1,8,0:0:0:0:
325,205,124480,1,2,0:0:0:0:
390,89,124640,1,2,0:0:0:0:
391,266,124800,6,0,L|392:340,2,70,10|0|2,0:0|0:0|0:0,0:0:0:0:
264,156,125280,2,0,L|117:165,1,140,8|2,0:0|0:0,0:0:0:0:
79,259,125760,1,8,0:0:0:0:
124,164,125920,1,0,0:0:0:0:
19,173,126080,1,0,0:0:0:0:
78,250,126240,1,8,0:0:0:0:
133,149,126400,1,2,0:0:0:0:
11,158,126560,1,2,0:0:0:0:
200,217,126720,6,0,P|226:167|201:83,1,140,10|2,0:0|0:0,0:0:0:0:
135,268,127200,2,0,L|288:260,1,140,8|2,0:0|0:0,0:0:0:0:
377,323,127680,1,8,0:0:0:0:
200,367,127840,1,2,0:1:0:0:
200,367,128000,2,0,L|205:277,1,70,2|8,0:1|0:0,0:0:0:0:
339,205,128320,1,2,0:0:0:0:
377,323,128480,1,2,0:0:0:0:
260,218,128640,6,0,P|272:162|346:127,1,140,10|2,0:0|0:0,0:0:0:0:
478,213,129120,2,0,L|339:205,1,140,8|2,0:0|0:0,0:0:0:0:
271,130,129600,2,0,L|341:126,2,70,8|2|2,0:0|0:1|0:1,0:0:0:0:
167,138,130080,1,8,0:0:0:0:
260,218,130240,1,2,0:0:0:0:
341,126,130400,1,2,0:0:0:0:
167,138,130560,6,0,L|171:65,2,70,8|0|2,0:0|0:0|0:0,0:0:0:0:
260,218,131040,2,0,P|195:230|121:264,1,140,8|2,0:0|0:0,0:0:0:0:
39,374,131520,2,0,P|52:338|57:288,1,70,8|2,0:0|0:1,0:0:0:0:
18,167,131840,2,0,P|39:195|54:227,1,70,2|8,0:1|0:0,0:0:0:0:
136,361,132160,1,2,0:0:0:0:
232,330,132320,1,2,0:0:0:0:
128,245,132480,6,0,B|168:263|199:250|199:250|201:248|201:248|232:237|275:257,1,140,10|2,0:0|0:0,0:0:0:0:
368,338,132960,2,0,B|328:320|297:333|297:333|295:335|295:335|264:346|221:326,1,140,8|2,0:0|0:0,0:0:0:0:
269,182,133440,2,0,L|263:256,1,70,8|2,0:0|0:1,0:0:0:0:
368,338,133760,2,0,L|362:268,1,70,2|8,0:1|0:0,0:0:0:0:
348,169,134080,1,2,0:0:0:0:
348,169,134240,1,2,0:0:0:0:
263,252,134400,6,0,B|230:238|230:238|188:245,2,70,10|0|2,0:0|0:0|0:0,0:0:0:0:
368,338,134880,2,0,B|433:360|433:360|502:345,1,140,8|2,0:0|0:0,0:0:0:0:
431,192,135360,2,0,L|438:262,1,70,8|0,0:0|0:0,0:0:0:0:
278,354,135680,2,0,L|284:284,1,70,2|2,0:1|0:1,0:0:0:0:
298,153,136000,1,2,0:0:0:0:
298,153,136160,1,2,0:0:0:0:
291,259,136320,5,2,0:1:0:0:
431,192,136480,1,2,0:0:0:0:
424,298,136640,1,2,0:1:0:0:
291,259,136800,2,0,B|256:243|256:243|151:254,1,140,8|2,0:0|0:0,0:0:0:0:
51,345,137280,2,0,L|44:267,1,70,8|0,0:0|0:0,0:0:0:0:
161,184,137600,2,0,L|154:253,1,70,2|8,0:1|0:0,0:0:0:0:
141,366,137920,1,2,0:0:0:0:
141,366,138080,1,2,0:0:0:0:
294,327,138240,6,0,P|257:315|223:316,2,70,10|0|2,0:0|0:0|0:0,0:0:0:0:
154,253,138720,2,0,L|167:107,1,140,8|2,0:0|0:0,0:0:0:0:
265,52,139200,1,8,0:0:0:0:
265,52,139360,1,2,0:1:0:0:
167,114,139520,2,0,L|85:106,1,70,2|8,0:1|0:0,0:0:0:0:
265,176,139840,1,2,0:0:0:0:
265,52,140000,1,2,0:0:0:0:
268,196,140160,6,0,L|364:187,1,80.5000015354157,10|0,0:0|0:0,0:0:0:0:
154,253,140480,2,0,L|228:315,1,80.5000015354157,2|10,0:0|0:0,0:0:0:0:
33,212,140800,1,0,0:0:0:0:
40,292,140960,1,2,0:0:0:0:
93,156,141120,6,0,P|57:134|10:134,1,80.5000015354157,10|2,0:0|0:1,0:0:0:0:
200,147,141440,2,0,P|190:105|156:72,1,80.5000015354157,2|8,0:1|0:0,0:0:0:0:
154,223,141760,1,0,0:0:0:0:
282,216,141920,1,2,0:0:0:0:
136,223,142080,6,0,B|126:264|126:264|136:316,2,80.5000015354157,10|0|2,0:0|0:0|0:0,0:0:0:0:
183,80,142560,2,0,P|253:50|340:53,1,161.000003070831,8|2,0:0|0:0,0:0:0:0:
463,176,143040,2,0,L|454:88,1,80.5000015354157,2|0,0:1|0:0,0:0:0:0:
290,135,143360,2,0,L|282:216,1,80.5000015354157,2|8,0:0|0:0,0:0:0:0:
269,322,143680,1,2,0:0:0:0:
269,322,143840,1,2,0:0:0:0:
437,272,144000,6,0,L|346:278,1,80.5000015354157,10|0,0:0|0:0,0:0:0:0:
188,316,144320,2,0,L|269:322,1,80.5000015354157,2|8,0:0|0:0,0:0:0:0:
101,283,144640,2,0,L|20:288,1,80.5000015354157,2|2,0:0|0:0,0:0:0:0:
157,143,144960,2,0,P|170:180|167:220,1,80.5000015354157,8|0,0:0|0:0,0:0:0:0:
222,73,145280,2,0,P|248:42|284:25,1,80.5000015354157,2|8,0:1|0:0,0:0:0:0:
128,51,145600,2,0,P|88:43|55:21,1,80.5000015354157,2|2,0:0|0:0,0:0:0:0:
8,201,145920,6,0,L|97:192,2,80.5000015354157,10|0|2,0:0|0:0|0:0,0:0:0:0:
157,143,146400,2,0,L|237:151,1,80.5000015354157,10|2,0:0|0:0,0:0:0:0:
340,164,146720,1,0,0:0:0:0:
234,229,146880,2,0,P|227:190|241:143,1,80.5000015354157,8|2,0:0|0:1,0:0:0:0:
269,37,147200,1,2,0:1:0:0:
269,37,147360,1,8,0:0:0:0:
340,164,147520,1,2,0:0:0:0:
372,50,147680,1,2,0:0:0:0:
237,151,147840,6,0,L|157:143,1,80.5000015354157,10|0,0:0|0:0,0:0:0:0:
228,303,148160,2,0,L|275:237,1,80.5000015354157,0|10,0:0|0:0,0:0:0:0:
100,219,148480,2,0,L|133:292,1,80.5000015354157,2|0,0:0|0:0,0:0:0:0:
237,151,148800,2,0,P|251:121|252:68,1,80.5000015354157,8|2,0:0|0:0,0:0:0:0:
83,142,149120,2,0,P|83:182|99:218,1,80.5000015354157,2|8,0:1|0:0,0:0:0:0:
173,95,149440,1,2,0:0:0:0:
8,146,149600,1,2,0:0:0:0:
188,87,149760,6,0,P|226:87|279:105,1,80.5000015354157,10|0,0:0|0:0,0:0:0:0:
333,192,150080,2,0,P|333:153|351:101,1,80.5000015354157,0|10,0:0|0:0,0:0:0:0:
438,47,150400,2,0,P|399:46|347:29,1,80.5000015354157,2|0,0:0|0:0,0:0:0:0:
180,6,150720,2,0,L|188:96,1,80.5000015354157,8|2,0:0|0:0,0:0:0:0:
200,207,151040,1,2,0:1:0:0:
200,207,151200,1,8,0:0:0:0:
94,137,151360,1,0,0:0:0:0:
107,258,151520,1,2,0:0:0:0:
269,162,151680,6,0,P|281:212|269:253,1,80.5000015354157,10|0,0:0|0:0,0:0:0:0:
246,343,152000,1,2,0:1:0:0:
326,311,152160,1,10,0:0:0:0:
195,271,152320,2,0,P|153:271|113:288,1,80.5000015354157,2|0,0:0|0:0,0:0:0:0:
275,239,152640,2,0,P|281:199|269:162,1,80.5000015354157,8|2,0:0|0:0,0:0:0:0:
131,73,152960,2,0,P|162:97|201:105,1,80.5000015354157,2|8,0:1|0:0,0:0:0:0:
347,30,153280,2,0,P|309:44|283:74,1,80.5000015354157,0|2,0:0|0:0,0:0:0:0:
376,200,153600,6,0,L|363:121,1,80.5000015354157,10|0,0:0|0:0,0:0:0:0:
340,285,153920,2,0,L|274:238,1,80.5000015354157,0|10,0:0|0:0,0:0:0:0:
374,370,154240,2,0,L|294:383,1,80.5000015354157,2|0,0:0|0:0,0:0:0:0:
186,274,154560,2,0,P|191:311|185:366,1,80.5000015354157,8|0,0:0|0:0,0:0:0:0:
68,315,154880,1,2,0:1:0:0:
68,315,155040,1,10,0:0:0:0:
185,273,155200,1,0,0:0:0:0:
66,235,155360,1,2,0:0:0:0:
183,193,155520,6,0,L|269:218,1,80.5000015354157,10|0,0:0|0:0,0:0:0:0:
63,154,155840,1,0,0:0:0:0:
63,154,156000,1,10,0:0:0:0:
183,115,156160,2,0,L|269:90,1,80.5000015354157,2|0,0:0|0:0,0:0:0:0:
337,237,156480,2,0,L|183:193,1,161.000003070831,8|2,0:0|0:1,0:0:0:0:
63,154,156960,1,8,0:0:0:0:
183,115,157120,1,0,0:0:0:0:
186,274,157280,1,2,0:0:0:0:
337,237,157440,6,0,P|331:195|330:148,2,80.5000015354157,10|0|0,0:0|0:0|0:0,0:0:0:0:
428,324,157920,2,0,P|354:277|284:297,1,161.000003070831,10|0,0:0|0:0,0:0:0:0:
180,354,158400,2,0,L|186:274,1,80.5000015354157,8|2,0:0|0:0,0:0:0:0:
198,171,158720,1,2,0:0:0:0:
198,171,158880,1,8,0:0:0:0:
88,270,159040,1,0,0:0:0:0:
100,167,159200,1,2,0:0:0:0:
186,273,159360,6,0,L|266:279,1,80.5000015354157,10|0,0:0|0:0,0:0:0:0:
278,177,159680,2,0,L|198:171,1,80.5000015354157,0|10,0:0|0:0,0:0:0:0:
210,69,160000,2,0,L|290:75,1,80.5000015354157,2|0,0:0|0:0,0:0:0:0:
428,243,160320,2,0,L|348:237,1,80.5000015354157,8|2,0:0|0:0,0:0:0:0:
360,135,160640,2,0,L|440:141,1,80.5000015354157,2|8,0:1|0:0,0:0:0:0:
452,39,160960,2,0,L|372:33,1,80.5000015354157,0|0,0:0|0:0,0:0:0:0:
210,69,161280,5,10,0:0:0:0:
341,137,161440,1,0,0:0:0:0:
197,170,161600,1,2,0:0:0:0:
326,233,161760,2,0,B|301:282|301:282|329:334|306:384,1,161.000003070831,10|0,0:0|0:0,0:0:0:0:
470,285,162240,2,0,L|377:288,1,80.5000015354157,10|2,0:0|0:0,0:0:0:0:
223,338,162560,1,2,0:1:0:0:
223,338,162720,1,8,0:0:0:0:
325,232,162880,1,0,0:0:0:0:
159,283,163040,1,2,0:0:0:0:
295,146,163200,6,0,L|377:153,1,80.5000015354157,10|0,0:0|0:0,0:0:0:0:
205,216,163520,2,0,L|159:283,1,80.5000015354157,0|10,0:0|0:0,0:0:0:0:
188,102,163840,2,0,L|153:29,1,80.5000015354157,2|0,0:0|0:0,0:0:0:0:
101,173,164160,1,8,0:0:0:0:
101,173,164320,1,2,0:0:0:0:
205,216,164480,1,2,0:1:0:0:
205,216,164640,1,8,0:0:0:0:
55,240,164800,1,0,0:0:0:0:
159,283,164960,1,2,0:0:0:0:
170,129,165120,6,0,P|205:122|248:134,1,80.5000015354157,10|0,0:0|0:0,0:0:0:0:
309,228,165440,2,0,P|320:194|352:162,1,80.5000015354157,0|10,0:0|0:0,0:0:0:0:
464,157,165760,2,0,P|440:130|429:86,1,80.5000015354157,2|0,0:0|0:0,0:0:0:0:
396,238,166080,1,10,0:0:0:0:
317,84,166240,1,2,0:0:0:0:
307,262,166400,2,0,P|274:250|214:250,1,80.5000015354157,2|8,0:1|0:0,0:0:0:0:
318,365,166720,1,0,0:0:0:0:
396,238,166880,1,2,0:0:0:0:
206,252,167040,5,10,0:0:0:0:
393,323,167200,1,2,0:1:0:0:
172,354,167360,2,0,P|130:350|73:342,1,80.5000015354157,0|8,0:0|0:0,0:0:0:0:
7,217,167680,2,0,P|44:209|86:207,1,80.5000015354157,2|0,0:0|0:0,0:0:0:0:
206,252,168000,2,0,P|211:171|224:76,2,161.000003070831,2|2|0,0:1|0:1|0:0,0:0:0:0:
266,366,168800,1,2,0:0:0:0:
376,200,168960,6,0,P|339:186|299:190,1,80.5000015354157,10|0,0:0|0:0,0:0:0:0:
206,252,169280,2,0,P|166:255|128:241,1,80.5000015354157,0|10,0:0|0:0,0:0:0:0:
34,187,169600,1,2,0:0:0:0:
34,187,169760,1,0,0:0:0:0:
38,292,169920,1,8,0:0:0:0:
177,176,170080,1,2,0:0:0:0:
139,355,170240,2,0,L|225:351,1,80.5000015354157,2|8,0:1|0:0,0:0:0:0:
344,346,170560,1,0,0:0:0:0:
344,346,170720,1,2,0:0:0:0:
282,195,170880,6,0,B|271:222|271:222|278:285,1,80.5000015354157,8|0,0:0|0:0,0:0:0:0:
434,184,171200,2,0,B|416:160|416:160|358:135,1,80.5000015354157,0|10,0:0|0:0,0:0:0:0:
367,321,171520,2,0,B|395:317|395:317|446:279,1,80.5000015354157,2|0,0:0|0:0,0:0:0:0:
282,195,171840,2,0,B|237:176|237:176|125:208,2,161.000003070831,8|2|0,0:0|0:1|0:0,0:0:0:0:
356,241,172640,1,2,0:0:0:0:
225,347,172800,6,0,L|231:255,1,80.5000015354157,10|0,0:0|0:0,0:0:0:0:
276,114,173120,2,0,L|282:195,1,80.5000015354157,0|10,0:0|0:0,0:0:0:0:
206,79,173440,2,0,P|237:46|282:36,1,80.5000015354157,2|0,0:0|0:0,0:0:0:0:
410,56,173760,1,8,0:0:0:0:
279,117,173920,1,2,0:0:0:0:
279,117,174080,2,0,L|285:198,1,80.5000015354157,2|8,0:1|0:0,0:0:0:0:
418,176,174400,1,0,0:0:0:0:
409,55,174560,1,0,0:0:0:0:
499,175,174720,6,0,P|487:215|454:251,1,80.5000015354157,10|0,0:0|0:0,0:0:0:0:
372,266,175040,1,0,0:0:0:0:
394,101,175200,2,0,P|413:137|415:186,1,80.5000015354157,10|2,0:0|0:0,0:0:0:0:
372,266,175520,1,0,0:0:0:0:
267,122,175680,2,0,P|306:133|342:167,1,80.5000015354157,8|2,0:0|0:0,0:0:0:0:
192,226,176000,2,0,P|228:206|277:204,1,80.5000015354157,2|8,0:0|0:0,0:0:0:0:
212,352,176320,2,0,P|224:312|256:276,1,80.5000015354157,0|0,0:0|0:0,0:0:0:0:
372,266,176640,5,0,3:0:0:0:
372,266,177120,1,0,3:0:0:0:
372,266,177600,2,0,L|368:324,1,52.5,0|0,3:0|3:0,3:0:0:0:
256,192,178560,6,0,L|260:134,3,52.5,0|0|0|0,3:0|3:0|3:0|3:0,3:0:0:0:
384,268,180480,6,0,L|380:320,3,52.5,0|0|0|0,3:0|3:0|3:0|3:0,3:0:0:0:
205,201,182400,6,0,P|231:200|257:205,2,52.5,0|0|0,3:0|3:0|3:0,3:0:0:0:
73,352,183840,6,0,B|62:309|76:270|76:270|64:249|64:249|78:211|70:148,1,192.500005874634,8|0,0:0|0:0,0:0:0:0:
43,97,184320,5,4,3:0:0:0:
231,193,184480,1,0,0:0:0:0:
71,165,184640,1,0,0:0:0:0:
276,135,184800,2,0,B|408:100|375:206|519:153,1,238.00000453949,12|0,3:0|0:0,0:0:0:0:
236,260,185280,6,0,P|225:219|235:182,1,70,4|0,3:0|0:0,0:0:0:0:
276,135,185600,1,0,0:0:0:0:
219,345,185760,1,8,0:0:0:0:
126,223,185920,1,0,0:0:0:0:
329,299,186080,1,0,0:0:0:0:
117,345,186240,6,0,L|101:308,1,35,4|0,3:0|0:0,0:0:0:0:
2,241,186400,2,0,P|17:248|30:260,1,35,4|0,3:0|0:0,0:0:0:0:
141,192,186560,2,0,P|130:206|125:222,1,35,8|0,0:0|0:0,0:0:0:0:
22,94,186720,6,0,B|48:86|79:88|79:88|106:107|133:113|133:113|166:106|207:105|207:105|187:84|165:86,1,238.00000453949,12|0,3:0|0:0,0:0:0:0:
52,164,187200,5,4,3:0:0:0:
277,66,187360,1,0,0:0:0:0:
22,94,187520,1,0,0:0:0:0:
322,4,187680,5,8,0:0:0:0:
97,101,187840,2,0,L|179:93,1,59.5000011348725,0|0,0:0|0:0,0:0:0:0:
352,74,188000,1,0,0:0:0:0:
146,221,188160,6,0,P|110:237|66:234,2,70,4|0|0,3:0|3:0|3:0,0:0:0:0:
373,197,188640,6,0,B|241:162|267:269|130:215,1,238.00000453949,12|0,3:0|0:0,0:0:0:0:
66,369,189120,6,0,P|46:308|55:282,1,70,4|0,3:0|0:0,0:0:0:0:
79,237,189440,1,0,0:0:0:0:
206,344,189600,1,8,0:0:0:0:
0,238,189760,1,0,0:0:0:0:
196,145,189920,1,0,0:0:0:0:
282,323,190080,6,0,P|285:355|276:385,1,35,4|0,3:0|0:0,0:0:0:0:
225,258,190240,2,0,P|195:244|174:221,1,35,4|0,3:0|0:0,0:0:0:0:
309,241,190400,2,0,P|335:222|365:215,1,35,4|0,3:0|0:0,0:0:0:0:
511,314,190560,6,0,B|432:307|432:307|381:335|381:335|273:322,1,238.00000453949,12|0,3:0|0:0,0:0:0:0:
405,174,191040,1,4,3:0:0:0:
416,203,191120,1,0,0:0:0:0:
418,234,191200,1,0,0:0:0:0:
254,180,191360,1,0,0:0:0:0:
479,121,191520,5,8,0:0:0:0:
309,241,191680,1,0,0:0:0:0:
327,54,191840,1,0,0:0:0:0:
432,333,192000,6,0,B|399:330|399:330|370:347|370:347|330:344,1,90.9999958343508,4|0,3:0|0:0,0:0:0:0:
507,297,192480,6,0,B|400:289|400:289|363:311|363:311|237:305,1,265.999992897034,12|0,3:0|0:0,0:0:0:0:
90,295,192960,5,4,3:0:0:0:
306,185,193120,1,0,0:0:0:0:
75,305,193280,1,8,0:0:0:0:
166,109,193440,5,4,3:0:0:0:
247,305,193600,1,0,0:0:0:0:
157,89,193760,1,0,0:0:0:0:
430,234,193920,6,0,P|399:229|342:269,1,90.9999958343508,4|0,3:0|0:0,0:0:0:0:
443,212,194400,6,0,B|393:194|321:218|301:297|301:297|289:329|241:302|274:273,1,265.999992897034,12|0,3:0|0:0,0:0:0:0:
466,319,194880,5,4,3:0:0:0:
207,201,195040,1,0,0:0:0:0:
466,319,195200,1,0,0:0:0:0:
152,257,195360,5,8,0:0:0:0:
411,139,195520,1,0,0:0:0:0:
152,257,195680,1,0,0:0:0:0:
107,46,195840,6,0,B|154:49|177:74|177:74|150:103|101:100,1,154.000004699707,12|0,3:0|0:0,0:0:0:0:
107,46,196320,6,0,B|172:22|195:70|269:69|269:69|195:70|171:126|104:100,1,335.999989746094,12|0,3:0|0:0,0:0:0:0:
54,226,196800,5,4,3:0:0:0:
287,197,196960,2,0,L|198:208,1,52.5000020027161,2|2,0:0|0:0,0:0:0:0:
27,228,197120,1,0,0:0:0:0:
229,324,197280,5,8,0:0:0:0:
136,159,197440,1,0,0:0:0:0:
106,341,197600,1,0,0:0:0:0:
250,124,197760,6,0,B|295:118|295:118|311:124|311:124|314:121|314:121|315:126|315:126|331:132|331:132|376:126,1,125.999996154785,4|0,3:0|0:0,0:0:0:0:
411,43,198240,6,0,B|499:147|434:290|307:225|314:158|374:123,1,335.999989746094,12|0,3:0|0:0,0:0:0:0:
457,279,198720,5,0,3:0:0:0:
427,298,198880,1,0,3:0:0:0:
392,301,199040,1,0,3:0:0:0:
295,261,199200,5,2,0:0:0:0:
152,190,199360,1,2,0:0:0:0:
20,279,199520,1,2,0:0:0:0:
218,362,199680,6,0,P|222:332|213:305,1,43.75,4|0,3:0|0:0,0:0:0:0:
167,266,199840,2,0,P|139:277|120:298,1,43.75,0|0,3:0|0:0,0:0:0:0:
109,358,200000,2,0,P|132:376|160:382,1,43.75,0|0,3:0|0:0,0:0:0:0:
295,261,200160,6,0,P|373:213|459:280,1,210,12|0,3:0|0:0,0:0:0:0:
373,303,200480,1,0,3:0:0:0:
283,168,200640,6,0,P|312:151|336:144,1,43.75,4|0,3:0|0:0,0:0:0:0:
474,171,200800,2,0,P|497:194|510:215,1,43.75,4|0,3:0|0:0,0:0:0:0:
368,346,200960,2,0,L|374:289,1,43.75,0|0,3:0|0:0,0:0:0:0:
407,77,201120,6,0,L|400:137,1,43.75,8|0,0:0|0:0,0:0:0:0:
368,54,201280,2,0,L|391:109,1,43.75,4|0,3:0|0:0,0:0:0:0:
322,53,201440,2,0,L|370:89,1,43.75,4|0,3:0|0:0,0:0:0:0:
218,228,201600,6,0,P|196:192|196:171,1,43.75,4|0,3:0|0:0,0:0:0:0:
148,108,201760,2,0,P|127:145|109:155,1,43.75,4|0,3:0|0:0,0:0:0:0:
79,228,201920,2,0,P|121:226|139:237,1,43.75,8|0,0:0|0:0,0:0:0:0:
321,308,202080,6,0,B|219:290|228:359|159:348|159:348|110:337|159:259|188:307,1,280,12|0,3:0|0:0,0:0:0:0:
376,361,202560,6,0,P|399:323|399:312,1,43.75,4|0,3:0|0:0,0:0:0:0:
417,250,202720,2,0,P|372:249|363:254,1,43.75,4|0,3:0|0:0,0:0:0:0:
301,270,202880,2,0,P|322:308|331:314,1,43.75,4|0,3:0|0:0,0:0:0:0:
431,318,203040,6,0,P|409:277|399:272,1,43.75,10|0,0:0|0:0,0:0:0:0:
352,223,203200,2,0,P|328:263|328:274,1,43.75,2|0,0:0|0:0,0:0:0:0:
309,339,203360,2,0,P|356:340|366:334,1,43.75,2|0,0:0|0:0,0:0:0:0:
490,232,203520,6,0,P|497:175|474:84,1,140,4|0,3:0|0:0,0:0:0:0:
479,95,204000,6,0,B|352:70|406:171|251:127,1,210,12|0,3:0|0:0,0:0:0:0:
225,89,204320,1,0,0:0:0:0:
38,149,204480,6,0,L|93:145,1,43.75,4|0,3:0|0:0,0:0:0:0:
163,50,204640,2,0,L|138:99,1,43.75,0|0,3:0|0:0,0:0:0:0:
186,207,204800,2,0,L|155:161,1,43.75,0|0,3:0|0:0,0:0:0:0:
71,63,204960,6,0,L|102:108,1,43.75,8|0,0:0|0:0,0:0:0:0:
219,122,205120,2,0,L|164:126,1,43.75,0|0,3:0|0:0,0:0:0:0:
95,220,205280,2,0,L|119:170,1,43.75,0|0,3:0|0:0,0:0:0:0:
246,257,205440,6,0,P|212:282|197:285,1,43.75,4|0,3:0|0:0,0:0:0:0:
276,249,205600,2,0,P|280:290|275:305,1,43.75,0|0,3:0|0:0,0:0:0:0:
284,219,205760,2,0,P|322:235|332:247,1,43.75,0|0,3:0|0:0,0:0:0:0:
390,358,205920,6,0,P|357:324|349:279,1,70,12|0,3:0|0:0,0:0:0:0:
414,332,206080,2,0,P|420:297|441:269,1,70,0|0,3:0|0:0,0:0:0:0:
444,332,206240,2,0,P|489:320|532:335,1,70,2|0,0:0|0:0,0:0:0:0:
390,154,206400,5,4,3:0:0:0:
237,348,206560,1,0,0:0:0:0:
307,133,206720,1,0,0:0:0:0:
444,332,206880,5,8,0:0:0:0:
362,74,207040,1,0,0:0:0:0:
280,291,207200,1,0,0:0:0:0:
47,119,207360,6,0,B|71:111|71:111|81:115|81:115|109:108|109:108|119:110|119:110|145:102|145:102|156:105|156:105|185:98,1,140,4|0,3:0|0:0,0:0:0:0:
229,179,207840,6,0,B|305:88|249:-35|138:20|144:78|196:109,1,280,12|0,3:0|0:0,0:0:0:0:
322,248,208320,6,0,P|358:260|384:260,1,52.5000020027161,0|0,3:0|0:0,0:0:0:0:
407,142,208480,2,0,P|378:167|365:189,1,52.5000020027161,0|0,3:0|0:0,0:0:0:0:
456,268,208640,2,0,P|448:230|435:208,1,52.5000020027161,0|0,3:0|0:0,0:0:0:0:
280,173,208800,6,0,L|227:180,1,52.5000020027161,4|0,3:0|0:0,0:0:0:0:
133,241,208960,2,0,L|186:248,1,52.5000020027161,0|0,3:0|0:0,0:0:0:0:
280,309,209120,2,0,L|227:316,1,52.5000020027161,0|0,3:0|0:0,0:0:0:0:
4,372,209280,6,0,P|22:323|-1:239,1,140,4|0,3:0|0:0,0:0:0:0:
128,124,209760,6,0,B|147:67|99:39|99:39|39:80|29:136|63:197,1,280,12|0,3:0|0:0,0:0:0:0:
214,283,210240,6,0,P|244:283|272:267,1,52.5000020027161,4|0,3:0|0:0,0:0:0:0:
186,174,210400,2,0,P|201:199|228:216,1,52.5000020027161,4|0,3:0|0:0,0:0:0:0:
323,314,210560,2,0,P|338:288|338:255,1,52.5000020027161,4|0,3:0|0:0,0:0:0:0:
383,125,210720,6,0,P|353:125|325:141,1,52.5000020027161,8|0,0:0|0:0,0:0:0:0:
411,234,210880,2,0,P|396:208|368:191,1,52.5000020027161,4|0,3:0|0:0,0:0:0:0:
274,94,211040,2,0,P|259:119|258:152,1,52.5000020027161,4|0,3:0|0:0,0:0:0:0:
128,277,211200,6,0,B|87:297|74:330|74:330|85:295|86:251,1,154.000004699707,4|0,3:0|0:0,0:0:0:0:
128,277,211680,6,0,P|137:337|97:256,1,335.999989746094,12|0,3:0|0:0,0:0:0:0:
221,279,212160,6,0,P|227:323|218:361,1,52.5000020027161,4|0,3:0|0:0,0:0:0:0:
298,210,212320,2,0,P|297:183|303:158,1,52.5000020027161,4|0,3:0|0:0,0:0:0:0:
375,279,212480,2,0,P|369:304|369:330,1,52.5000020027161,4|0,3:0|0:0,0:0:0:0:
466,207,212640,6,0,L|474:152,1,52.5000020027161,8|0,0:0|0:0,0:0:0:0:
445,175,212800,2,0,L|424:123,1,52.5000020027161,4|0,3:0|0:0,0:0:0:0:
410,157,212960,2,0,L|366:122,1,52.5000020027161,4|0,3:0|0:0,0:0:0:0:
167,181,213120,6,0,B|243:160|213:233|316:205,1,140,4|0,3:0|0:0,0:0:0:0:
130,120,213600,6,0,P|96:191|238:170,1,280,12|0,3:0|0:0,0:0:0:0:
0,291,214080,6,0,P|46:290|93:316,1,87.5,4|0,3:0|0:0,0:0:0:0:
186,378,214240,2,0,P|232:379|279:353,1,87.5,0|0,3:0|0:0,0:0:0:0:
372,291,214400,2,0,P|418:290|465:316,1,87.5,0|0,3:0|0:0,0:0:0:0:
236,200,214560,6,0,L|240:283,1,70,8|0,0:0|0:0,0:0:0:0:
440,372,215040,6,0,P|458:332|449:294,2,70,4|0|0,3:0|0:0|0:0,0:0:0:0:
415,238,215520,6,0,B|289:205|323:339|177:299,1,245.000002336502,12|0,3:0|0:0,0:0:0:0:
61,238,216000,5,4,3:0:0:0:
239,161,216160,1,0,0:0:0:0:
114,362,216320,1,0,0:0:0:0:
67,161,216480,5,8,0:0:0:0:
245,84,216640,1,0,0:0:0:0:
120,285,216800,1,0,0:0:0:0:
8,114,216960,6,0,P|45:89|88:88,1,70,4|0,3:0|3:0,0:0:0:0:
232,172,217280,1,0,0:0:0:0:
368,36,217440,6,0,B|332:5|277:27|277:27|263:88|201:116|132:89,1,245.000002336502,12|0,3:0|0:0,0:0:0:0:
60,238,217920,5,4,3:0:0:0:
310,285,218080,1,0,0:0:0:0:
47,317,218240,1,0,0:0:0:0:
208,152,218400,5,8,0:0:0:0:
297,364,218560,1,0,0:0:0:0:
47,317,218720,1,0,0:0:0:0:
387,262,218880,6,0,P|426:259|466:274,2,70,0|0|0,3:0|3:0|3:0,0:0:0:0:
237,313,219360,2,0,B|183:301|127:317|127:317|149:288,1,140,12|0,3:0|0:0,0:0:0:0:
366,184,219840,5,4,3:0:0:0:
297,364,220000,1,0,0:0:0:0:
310,118,220160,1,0,0:0:0:0:
435,364,220320,5,8,0:0:0:0:
422,118,220480,1,0,0:0:0:0:
237,313,220640,1,0,0:0:0:0:
92,68,220800,6,0,P|130:64|170:80,2,70,4|0|0,3:0|3:0|3:0,0:0:0:0:
24,161,221280,6,0,B|153:125|106:261|277:200,1,245.000002336502,12|0,3:0|0:0,0:0:0:0:
335,122,221760,5,4,3:0:0:0:
142,297,221920,1,0,0:0:0:0:
246,77,222080,2,0,P|232:124|237:156,1,61.2500005841255,2|0,0:0|0:0,0:0:0:0:
311,307,222240,1,0,3:0:0:0:
327,314,222320,1,0,3:0:0:0:
344,318,222400,1,0,3:0:0:0:
362,320,222480,1,0,3:0:0:0:
380,320,222560,1,0,3:0:0:0:
398,316,222640,1,0,3:0:0:0:
414,311,222720,6,0,P|430:257|405:171,1,140,4|0,3:0|0:0,0:0:0:0:
245,76,223200,6,0,B|205:40|140:87|164:180|263:178|305:136,1,245.000002336502,12|0,3:0|0:0,0:0:0:0:
111,59,223680,5,4,3:0:0:0:
153,274,223840,1,0,0:0:0:0:
245,76,224000,1,0,0:0:0:0:
54,182,224160,5,8,0:0:0:0:
270,208,224320,1,0,0:0:0:0:
111,59,224480,1,0,0:0:0:0:
74,291,224640,6,0,P|86:326|104:341,1,52.5000020027161,4|0,3:0|0:0,0:0:0:0:
208,339,224800,2,0,P|232:310|236:287,1,52.5000020027161,0|0,3:0|0:0,0:0:0:0:
184,199,224960,2,0,P|147:192|125:199,1,52.5000020027161,0|0,3:0|0:0,0:0:0:0:
306,325,225120,6,0,B|364:346|427:330|457:253|457:253|437:298|457:342,1,280,12|0,3:0|0:0,0:0:0:0:
153,275,225600,5,4,3:0:0:0:
331,214,225760,1,0,0:0:0:0:
117,147,225920,1,0,0:0:0:0:
326,78,226080,5,8,0:0:0:0:
46,184,226240,1,0,0:0:0:0:
398,258,226400,1,0,0:0:0:0:
154,345,226560,6,0,B|85:306|85:306|157:272,1,154.000004699707,12|0,3:0|0:0,0:0:0:0:
154,345,227040,6,0,B|94:372|46:364|6:308|6:308|46:252|95:242|166:281,1,335.999989746094,12|0,3:0|0:0,0:0:0:0:
308,358,227520,5,0,3:0:0:0:
439,193,227680,1,0,0:0:0:0:
234,235,227840,1,0,0:0:0:0:
388,49,228000,5,4,3:0:0:0:
308,113,228160,1,0,0:0:0:0:
292,11,228320,1,0,0:0:0:0:
439,193,228480,6,0,P|398:185|356:196,1,70,4|0,3:0|0:0,0:0:0:0:
243,310,228800,1,0,0:0:0:0:
58,172,228960,6,0,B|96:156|99:117|99:117|167:117|235:143|235:143|220:105|245:69,1,280,12|0,3:0|0:0,0:0:0:0:
135,267,229440,6,0,B|114:312|193:323|207:258|127:167,1,175,0|0,3:0|0:0,0:0:0:0:
10,326,229920,2,0,B|107:308|63:398|203:366,1,175,0|0,3:0|0:0,0:0:0:0:
243,334,230400,5,4,3:0:0:0:
43,249,230560,1,0,0:0:0:0:
317,234,230720,1,0,0:0:0:0:
77,155,230880,6,0,B|21:199|-3:102|102:46|228:175,1,280,12|0,3:0|0:0,0:0:0:0:
359,356,231360,5,8,0:0:0:0:
373,154,231520,1,0,0:0:0:0:
191,243,231680,1,0,0:0:0:0:
424,259,231840,5,8,0:0:0:0:
256,145,232000,1,0,0:0:0:0:
242,347,232160,1,0,0:0:0:0:
307,62,232320,5,4,3:0:0:0:
159,148,232480,1,0,0:0:0:0:
307,228,232640,1,0,0:0:0:0:
165,20,232800,6,0,B|97:66|-2:42|-2:42|64:58|66:137,1,280,8|0,3:0|0:0,0:0:0:0:
27,281,233280,5,4,3:0:0:0:
206,155,233440,1,0,0:0:0:0:
94,379,233600,1,0,0:0:0:0:
142,113,233760,5,8,0:0:0:0:
221,371,233920,1,0,0:0:0:0:
267,100,234080,1,0,0:0:0:0:
371,315,234240,5,4,3:0:0:0:
165,264,234400,1,0,3:0:0:0:
371,315,234560,1,0,3:0:0:0:
21,208,234720,6,0,B|66:238|113:212|113:212|169:181|216:219|216:219|202:267|141:265,1,280,12|0,3:0|0:0,0:0:0:0:
70,127,235200,5,0,3:0:0:0:
287,251,235360,1,0,0:0:0:0:
71,376,235520,1,0,0:0:0:0:
151,93,235680,5,8,0:0:0:0:
368,217,235840,1,0,0:0:0:0:
152,342,236000,1,0,0:0:0:0:
408,151,236160,5,4,3:0:0:0:
288,218,236320,1,0,0:0:0:0:
407,288,236480,1,0,0:0:0:0:
307,111,236640,5,8,0:0:0:0:
303,324,236800,1,0,0:0:0:0:
303,324,236960,1,0,0:0:0:0:
207,147,237120,5,4,3:0:0:0:
396,59,237280,1,0,0:0:0:0:
120,92,237440,1,8,0:0:0:0:
288,218,237600,5,8,0:0:0:0:
21,238,237760,1,0,0:0:0:0:
207,147,237920,1,0,0:0:0:0:
51,354,238080,6,0,P|106:341|182:369,1,140,0|0,3:0|0:0,0:0:0:0:
52,336,238560,6,0,B|105:315|148:326|192:353|192:353|261:371|330:332,1,280,12|0,3:0|0:0,0:0:0:0:
386,220,239040,5,4,3:0:0:0:
160,144,239200,1,0,0:0:0:0:
386,220,239360,1,0,0:0:0:0:
267,77,239520,5,8,0:0:0:0:
320,336,239680,1,0,0:0:0:0:
267,77,239840,1,0,0:0:0:0:
501,271,240000,6,0,P|470:273|433:260,1,52.5000020027161,4|0,3:0|0:0,0:0:0:0:
270,183,240160,2,0,P|301:185|338:172,1,52.5000020027161,0|0,3:0|0:0,0:0:0:0:
501,95,240320,2,0,P|470:97|433:84,1,52.5000020027161,0|0,3:0|0:0,0:0:0:0:
234,248,240480,6,0,B|193:226|180:174|197:123|268:105|268:105|303:144|265:189,1,280,12|0,3:0|0:0,0:0:0:0:
126,304,240960,5,4,3:0:0:0:
351,235,241120,1,0,0:0:0:0:
59,205,241280,1,0,0:0:0:0:
392,159,241440,5,8,0:0:0:0:
252,338,241600,1,0,0:0:0:0:
350,81,241760,1,0,0:0:0:0:
476,336,241920,6,0,P|410:313|410:381,1,154.000004699707,12|0,3:0|0:0,0:0:0:0:
476,336,242400,6,0,P|424:243|437:373,1,335.999989746094,12|0,3:0|0:0,0:0:0:0:
246,273,242880,5,4,3:0:0:0:
442,153,243040,1,0,0:0:0:0:
297,344,243200,1,0,0:0:0:0:
195,202,243360,5,4,3:0:0:0:
391,82,243520,1,0,0:0:0:0:
246,273,243680,1,0,0:0:0:0:
56,139,243840,6,0,P|50:82|65:53,2,70,4|0|0,3:0|0:0|0:0,0:0:0:0:
282,189,244320,6,0,B|137:162|192:314|23:265,1,280,12|0,3:0|0:0,0:0:0:0:
163,119,244800,5,0,0:0:0:0:
199,331,244960,1,0,0:0:0:0:
163,119,245120,1,8,0:0:0:0:
279,365,245280,5,8,0:0:0:0:
299,39,245440,1,0,0:0:0:0:
279,365,245600,1,0,0:0:0:0:
473,252,245760,6,0,P|462:192|467:97,1,140,2|0,0:0|0:0,0:0:0:0:
408,46,246240,2,0,P|338:43|269:54,1,140,10|0,0:0|0:0,0:0:0:0:
172,25,246720,2,0,L|90:11,2,70,8|0|0,0:0|0:0|0:0,0:0:0:0:
148,127,247200,2,0,L|31:139,2,70,8|0|0,0:0|0:0|0:0,0:0:0:0:
39,233,247680,6,0,P|30:317|-1:390,1,140,8|0,0:0|0:0,0:0:0:0:
152,310,248160,2,0,P|226:340|268:392,1,140,8|0,0:0|0:0,0:0:0:0:
381,372,248640,2,0,L|479:387,2,70,8|0|0,0:0|0:0|0:0,0:0:0:0:
394,279,249120,1,10,0:0:0:0:
397,235,249280,1,0,0:0:0:0:
374,196,249440,6,0,P|372:168|432:71,1,139.943996207572,2|0,0:1|0:0,0:0:0:0:
473,166,251520,6,0,L|497:326,2,140,2|0|0,0:1|0:0|0:0,0:0:0:0:
401,295,252320,1,0,0:0:0:0:
315,268,252480,2,0,P|291:255|239:161,2,70,8|0|0,0:0|0:0|0:0,0:0:0:0:
353,190,252960,2,0,P|352:162|413:74,1,70,8|0,0:0|0:0,0:0:0:0:
425,74,253280,6,0,P|361:101|294:89,1,139.943996207572,2|2,0:1|0:1,0:0:0:0:
294,90,255360,2,0,P|350:131|374:196,1,140.139996920752,2|2,0:1|0:0,0:0:0:0:
276,262,257280,6,0,L|142:248,2,112,10|0|2,0:0|0:0|0:0,0:0:0:0:
349,336,258080,1,0,0:0:0:0:
437,324,258240,2,0,L|492:317,2,56,8|0|2,0:0|0:0|0:0,0:0:0:0:
349,336,258720,2,0,P|310:274|246:264,1,112,8|0,0:0|0:0,0:0:0:0:
179,319,259200,6,0,L|167:192,2,112,10|0|2,0:0|0:0|0:0,0:0:0:0:
35,364,260000,1,0,0:0:0:0:
96,303,260160,2,0,L|89:232,2,56,8|0|2,0:0|0:0|0:0,0:0:0:0:
6,222,260640,5,2,0:1:0:0:
10,139,260800,1,0,0:0:0:0:
58,71,260960,1,0,0:0:0:0:
138,40,261120,6,0,P|192:42|257:71,2,112,10|0|2,0:0|0:0|0:0,0:0:0:0:
123,132,261920,1,0,0:0:0:0:
174,208,262080,2,0,L|153:334,2,112,8|0|2,0:0|0:0|0:0,0:0:0:0:
290,195,262880,1,0,0:0:0:0:
374,186,263040,6,0,P|426:227|437:315,1,112,8|0,0:0|0:0,0:0:0:0:
345,289,263520,1,2,0:1:0:0:
302,356,263680,1,2,0:1:0:0:
226,362,263840,1,2,0:1:0:0:
126,329,264000,6,0,P|91:307|60:304,2,56,8|0|2,0:0|0:0|0:0,0:0:0:0:
197,250,264480,1,0,0:0:0:0:
193,166,264640,1,2,0:0:0:0:
230,92,264800,1,0,0:0:0:0:
301,48,264960,6,0,L|421:44,2,112,10|0|2,0:0|0:0|0:0,0:0:0:0:
476,135,265760,2,0,P|484:94|464:65,2,56,2|2|0,0:1|0:1|0:0,0:0:0:0:
360,174,266240,2,0,P|341:225|344:281,1,112,2|0,0:1|0:0,0:0:0:0:
471,313,266720,1,2,0:0:0:0:
373,364,266880,6,0,L|253:370,2,112,10|0|2,0:0|0:0|0:0,0:0:0:0:
345,281,267680,1,0,0:0:0:0:
259,262,267840,2,0,L|188:248,1,56,8|0,0:0|0:0,0:0:0:0:
75,322,268160,2,0,L|146:308,1,56,2|8,0:1|0:0,0:0:0:0:
120,212,268480,1,0,0:0:0:0:
115,130,268640,1,2,0:1:0:0:
109,48,268800,6,0,B|61:69|61:69|28:83|0:123,2,112,10|0|2,0:0|0:0|0:0,0:0:0:0:
212,15,269600,1,0,0:0:0:0:
269,75,269760,2,0,L|257:147,1,56,10|0,0:0|0:0,0:0:0:0:
385,109,270080,2,0,P|440:120|513:202,1,168,2|0,0:0|0:0,0:0:0:0:
455,280,270720,6,0,P|434:282|419:289,2,34.9859990518931,2|2|2,0:1|0:1|0:1,0:0:0:0:
358,347,272160,2,0,P|357:360|352:370,1,20.9999993591309,2|2,0:1|0:0,0:0:0:0:
280,329,272480,1,2,0:1:0:0:
196,384,272640,6,0,L|68:371,2,112,10|0|2,0:0|0:0|0:0,0:0:0:0:
280,329,273440,1,0,0:0:0:0:
215,268,273600,2,0,L|207:200,1,56,10|0,0:0|0:0,0:0:0:0:
118,228,273920,2,0,L|130:155,1,56,2|8,0:1|0:0,0:0:0:0:
47,105,274240,1,0,0:0:0:0:
126,67,274400,1,2,0:1:0:0:
203,104,274560,6,0,P|254:111|320:84,2,112,10|0|2,0:0|0:0|0:0,0:0:0:0:
248,22,275360,1,0,0:0:0:0:
381,38,275520,5,8,0:0:0:0:
418,43,275680,1,0,0:0:0:0:
457,47,275840,1,2,0:0:0:0:
451,159,276000,5,8,0:0:0:0:
400,165,276160,1,0,0:0:0:0:
347,171,276320,1,2,0:0:0:0:
354,282,276480,6,0,L|496:296,1,125.999996154785,2|2,0:1|0:1,0:0:0:0:
292,355,276960,2,0,B|255:328|255:277|255:277|235:313,1,125.999996154785,2|0,0:1|0:0,0:0:0:0:
159,354,277440,1,2,0:1:0:0:
70,332,277600,2,0,P|46:277|352:287,1,629.999980773926,2|0,0:1|0:0,0:0:0:0:
241,272,279360,6,0,P|264:214|271:205,2,62.9999980773926,2|0|2,0:1|0:0|0:1,0:0:0:0:
140,212,279840,2,0,P|132:150|128:140,2,62.9999980773926,8|0|0,0:0|0:0|0:0,0:0:0:0:
227,367,280320,6,0,P|263:368|292:354,1,62.9999980773926,8|2,0:0|0:1,0:0:0:0:
496,306,280640,2,0,P|445:183|354:280,1,314.999990386963,2|0,0:1|0:0,0:0:0:0:
274,86,281600,2,0,P|304:12|359:69,1,188.999994232178,2|0,0:1|0:0,0:0:0:0:
270,248,282240,5,2,0:1:0:0:
133,286,282400,1,2,0:1:0:0:
14,201,282560,2,0,P|65:78|156:175,1,314.999990386963,2|0,0:1|0:0,0:0:0:0:
358,69,283520,2,0,P|328:-5|273:52,1,188.999994232178,2|0,0:1|0:0,0:0:0:0:
486,225,284160,5,2,0:1:0:0:
436,346,284320,1,2,0:1:0:0:
270,248,284480,2,0,P|310:149|384:227,1,251.999992309571,2|8,0:1|0:0,0:0:0:0:
454,109,285280,6,0,B|492:115|524:148|523:148,1,62.9999980773926,2|2,0:0|0:1,0:0:0:0:
326,60,285600,2,0,B|312:71|344:38|382:32,2,62.9999980773926,10|2|0,0:0|0:0|0:0,0:0:0:0:
192,44,286080,5,2,0:1:0:0:
162,149,286240,1,2,0:1:0:0:
172,258,286400,2,0,L|191:323|191:323,1,62.9999980773926,2|8,0:1|0:0,0:0:0:0:
43,110,286720,5,2,0:1:0:0:
66,168,286880,1,2,0:1:0:0:
53,226,287040,2,0,L|35:286|35:286,1,62.9999980773926,2|0,0:1|0:0,0:0:0:0:
189,318,287360,5,2,0:1:0:0:
281,335,287520,2,0,B|314:318|366:325,2,62.9999980773926,10|0|0,0:0|0:0|0:0,0:0:0:0:
241,196,288000,5,2,0:1:0:0:
336,146,288160,1,2,0:1:0:0:
450,150,288320,2,0,L|516:160|516:160,1,62.9999980773926,2|8,0:1|0:0,0:0:0:0:
304,34,288640,5,2,0:1:0:0:
362,51,288800,1,2,0:1:0:0:
420,44,288960,2,0,L|480:26|480:26,1,62.9999980773926,2|0,0:1|0:0,0:0:0:0:
450,150,289280,5,2,0:0:0:0:
383,221,289440,2,0,P|382:245|398:288,2,62.9999980773926,2|0|0,0:0|0:0|0:0,0:0:0:0:
247,327,289920,6,0,P|187:183|80:296,1,367.500014019013,2|2,0:1|0:0,0:0:0:0:
256,352,291200,2,0,L|384:352,1,105,2|0,0:1|0:0,0:0:0:0:
430,230,291840,6,0,P|257:258|85:230,1,350,2|0,0:1|0:0,0:0:0:0:
441,138,292800,6,0,B|502:76|410:-16|348:14|348:14|255:45|163:14|163:14|101:-16|8:76|70:138|70:138|255:107|404:136,1,910,2|0,0:1|0:0,0:0:0:0:
256,96,295040,6,0,L|256:32,1,62.9999980773926,2|0,0:1|0:0,0:0:0:0:
490,254,295680,6,0,B|473:354|389:354|322:320|288:272|373:254|356:187|256:170|155:187|139:254|223:272|191:318|122:354|38:354|22:254,2,630.000024032594,2|2|10,0:1|0:1|0:0,0:0:0:0:
483,96,297760,1,0,0:0:0:0:
378,30,297920,1,0,0:0:0:0:
256,7,298080,1,10,0:0:0:0:
134,30,298240,1,0,0:0:0:0:
29,96,298400,1,0,0:0:0:0:
96,208,298560,6,0,P|112:256|112:352,2,105.000004005432,8|0|2,0:0|0:0|0:1,0:0:0:0:
256,336,299040,2,0,P|304:320|400:320,2,105.000004005432,8|0|2,0:0|0:0|0:0,0:0:0:0:
448,160,299520,6,0,P|460:113|445:48,1,105.000004005432,10|0,0:0|0:0,0:0:0:0:
320,0,299840,2,0,P|309:51|322:101,1,105.000004005432,2|8,0:0|0:0,0:0:0:0:
268,228,300160,1,2,0:0:0:0:
448,160,300320,1,0,0:0:0:0:
200,40,300480,5,10,0:0:0:0:
222,140,300640,1,2,0:0:0:0:
11,112,300800,2,0,P|4:69|102:114,1,210.000008010865,2|0,0:1|0:0,0:0:0:0:
32,211,301280,1,2,0:0:0:0:
121,342,301440,6,0,L|239:326,1,105.000004005432,10|0,0:0|0:0,0:0:0:0:
325,212,301760,2,0,L|220:226,1,105.000004005432,0|8,0:0|0:0,0:0:0:0:
337,374,302080,1,2,0:0:0:0:
447,318,302240,1,0,0:0:0:0:
220,226,302400,6,0,P|160:226|100:266,2,105.000004005432,10|2|2,0:0|0:0|0:1,0:0:0:0:
335,131,302880,2,0,P|291:87|221:73,2,105.000004005432,8|0|0,0:0|0:3|0:3,0:0:0:0:
468,34,303360,6,0,B|486:114|486:114|478:155,1,105.000004005432,10|0,0:0|0:0,0:0:0:0:
432,335,303680,2,0,B|414:255|414:255|422:214,1,105.000004005432,0|8,0:0|0:0,0:0:0:0:
272,31,304000,1,2,0:0:0:0:
334,216,304160,1,2,0:0:0:0:
66,220,304320,5,8,0:0:0:0:
234,180,304480,1,0,0:0:0:0:
184,345,304640,2,0,L|19:328,2,105.000004005432,2|8|0,0:1|0:0|0:0,0:0:0:0:
334,216,305120,1,2,0:0:0:0:
44,34,305280,6,0,B|26:114|26:114|34:155,1,105.000004005432,10|0,0:0|0:0,0:0:0:0:
80,335,305600,2,0,B|98:255|98:255|90:214,1,105.000004005432,0|10,0:0|0:0,0:0:0:0:
240,31,305920,1,2,0:0:0:0:
178,216,306080,1,0,0:0:0:0:
500,128,306240,5,8,0:0:0:0:
401,92,306400,1,2,0:0:0:0:
297,94,306560,1,2,0:1:0:0:
310,300,306720,5,8,0:0:0:0:
367,320,306880,1,0,0:0:0:0:
428,319,307040,1,2,0:0:0:0:
380,217,307200,6,0,P|379:193|381:169,2,41.9999987182618,0|0|0,0:0|0:0|0:0,0:0:0:0:
312,268,307680,2,0,P|284:250|221:251,1,83.9999974365235,0|0,0:0|0:0,0:0:0:0:
153,270,308160,2,0,L|161:320,2,41.9999987182618,0|0|0,0:0|0:0|0:0,0:0:0:0:
74,239,308640,2,0,L|80:197,2,41.9999987182618,0|0|0,0:0|0:0|0:0,0:0:0:0:
152,124,309120,6,0,L|159:166,2,41.9999987182618,0|0|0,0:0|0:0|0:0,0:0:0:0:
69,98,309600,2,0,P|91:63|128:40,1,83.9999974365235,0|0,0:0|0:0,0:0:0:0:
206,66,310080,1,0,0:0:0:0:
206,66,310240,1,0,0:0:0:0:
206,66,310400,1,0,0:0:0:0:
284,95,310560,2,0,P|294:69|299:36,2,41.9999987182618,0|0|0,0:0|0:0|0:0,0:0:0:0:
224,154,311040,6,0,P|196:158|165:170,2,41.9999987182618,0|0|0,0:0|0:0|0:0,0:0:0:0:
283,213,311520,2,0,L|405:206,1,83.9999974365235,0|0,0:0|0:0,0:0:0:0:
448,185,312000,1,0,0:0:0:0:
448,185,312160,2,0,P|447:206|446:241,1,41.9999987182618,0|0,0:0|0:0,0:0:0:0:
464,308,312480,1,0,0:0:0:0:
464,308,312640,2,0,P|443:307|408:306,1,41.9999987182618,0|0,0:0|0:0,0:0:0:0:
338,313,312960,6,0,L|343:364,2,41.9999987182618,0|0|0,0:0|0:0|0:0,0:0:0:0:
297,238,313440,2,0,P|265:258|221:255,1,83.9999974365235,0|0,0:0|0:0,0:0:0:0:
135,260,313920,2,0,L|144:205,2,41.9999987182618,0|0|0,0:0|0:0|0:0,0:0:0:0:
244,180,314400,2,0,L|235:125,2,41.9999987182618,0|0|0,0:0|0:0|0:0,0:0:0:0:
281,293,314880,6,0,P|264:317|250:340,2,41.9999987182618
337,230,315360,2,0,P|361:264|361:315,1,83.9999974365235,0|0,0:0|0:0,0:0:0:0:
315,373,315840,1,0,0:0:0:0:
315,373,316000,2,0,L|260:368,1,41.9999987182618,0|0,0:0|0:0,0:0:0:0:
200,327,316320,1,0,0:0:0:0:
200,327,316480,2,0,L|158:330,1,41.9999987182618,0|0,0:0|0:0,0:0:0:0:
74,331,316800,6,0,P|71:359|71:396,2,41.9999987182618,0|0|0,0:0|0:0|0:0,0:0:0:0:
116,257,317280,2,0,L|105:158,1,83.9999974365235,0|0,0:0|0:0,0:0:0:0:
84,92,317760,1,0,0:0:0:0:
84,92,317920,2,0,P|113:88|141:90,1,41.9999987182618,0|0,0:0|0:0,0:0:0:0:
209,98,318240,1,0,0:0:0:0:
209,98,318400,2,0,P|237:105|262:118,1,41.9999987182618,0|0,0:0|0:0,0:0:0:0:
317,159,318720,6,0,P|332:183|342:209,2,41.9999987182618,0|0|0,0:0|0:0|0:0,0:0:0:0:
331,75,319200,2,0,L|449:87,1,83.9999974365235,0|0,0:0|0:0,0:0:0:0:
474,143,319680,1,0,0:0:0:0:
474,143,319840,2,0,P|465:161|457:194,1,41.9999987182618,0|0,0:0|0:0,0:0:0:0:
406,269,320160,1,0,0:0:0:0:
406,269,320320,2,0,P|400:249|391:231,1,41.9999987182618,0|0,0:0|0:0,0:0:0:0:
325,283,320640,6,0,L|277:279,2,41.9999987182618,0|0|0,0:0|0:0|0:0,0:0:0:0:
406,269,321120,2,0,P|400:249|354:196,1,83.9999974365235,0|0,0:0|0:0,0:0:0:0:
285,129,321600,6,0,B|301:121|301:121|315:124|315:124|323:119|323:119|336:122|336:122|345:116|345:116|370:122|423:122|441:111|457:98|463:60|453:38|428:15|405:14|361:46|394:78,1,315.000012016297,12|0,3:0|0:0,0:0:0:0:
393,77,322560,5,8,0:0:0:0:
212,41,322720,1,0,0:0:0:0:
285,129,322880,1,0,0:0:0:0:
53,189,323040,6,0,B|62:153|15:119|15:119|135:205|207:175,1,280,12|0,3:0|0:0,0:0:0:0:
393,77,323520,5,4,3:0:0:0:
381,228,323680,1,0,0:0:0:0:
369,379,323840,1,0,0:0:0:0:
497,317,324000,5,8,0:0:0:0:
381,228,324160,1,0,0:0:0:0:
259,298,324320,1,0,0:0:0:0:
129,89,324480,6,0,L|65:121,1,52.5000020027161,4|0,3:0|0:0,0:0:0:0:
124,127,324640,2,0,L|60:159,1,52.5000020027161,4|0,3:0|0:0,0:0:0:0:
119,165,324800,2,0,L|55:197,1,52.5000020027161,4|0,3:0|0:0,0:0:0:0:
440,90,324960,6,0,B|472:75|447:45|447:45|364:51|282:31|282:31|252:55|287:81,1,280,12|0,3:0|0:0,0:0:0:0:
464,242,325440,5,0,3:0:0:0:
208,294,325600,1,0,0:0:0:0:
259,183,325760,1,0,0:0:0:0:
382,287,325920,5,8,0:0:0:0:
102,343,326080,1,0,0:0:0:0:
153,232,326240,1,0,0:0:0:0:
397,358,326400,6,0,L|383:289,1,52.5000020027161,4|0,3:0|0:0,0:0:0:0:
371,235,326560,2,0,L|381:286,1,52.5000020027161,4|0,3:0|0:0,0:0:0:0:
399,369,326720,2,0,L|385:300,1,52.5000020027161,4|0,3:0|0:0,0:0:0:0:
153,232,326880,6,0,B|185:158|185:158|121:190|89:242|105:337,1,280,12|0,3:0|0:0,0:0:0:0:
236,70,327360,5,4,3:0:0:0:
153,232,327520,1,0,0:0:0:0:
15,102,327680,1,0,0:0:0:0:
255,36,327840,5,8,0:0:0:0:
172,198,328000,1,0,0:0:0:0:
34,68,328160,1,0,0:0:0:0:
103,323,328320,6,0,L|192:328,1,52.5000020027161,4|0,3:0|0:0,0:0:0:0:
167,353,328480,2,0,L|256:358,1,52.5000020027161,0|0,3:0|0:0,0:0:0:0:
239,341,328640,2,0,L|328:346,1,52.5000020027161,4|0,3:0|0:0,0:0:0:0:
396,183,328800,6,0,B|387:150|353:139|353:139|334:199|391:261|487:255|517:173,1,280,12|0,3:0|0:0,0:0:0:0:
456,62,329280,5,4,3:0:0:0:
251,24,329440,1,0,0:0:0:0:
253,34,329520,1,0,0:0:0:0:
255,44,329600,1,0,0:0:0:0:
170,165,329760,5,8,0:0:0:0:
353,139,329920,1,0,0:0:0:0:
143,170,330080,1,0,0:0:0:0:
268,346,330240,6,0,B|265:310|265:310|254:354,1,70,4|0,3:0|0:0,0:0:0:0:
352,350,330720,6,0,B|344:259|344:259|277:216|277:216|200:240|200:240|166:375,1,350,12|0,3:0|0:0,0:0:0:0:
449,204,331200,5,0,1:0:0:0:
176,336,331360,2,0,P|108:345|41:392,1,140,8|8,3:0|3:0,0:0:0:0:
175,80,331680,5,4,3:0:0:0:
439,294,331840,2,0,P|445:260|406:207,1,70,0|0,3:0|0:0,0:0:0:0:
442,137,332000,2,0,P|436:171|475:224,1,70,0|0,3:0|0:0,0:0:0:0:
274,198,332160,6,0,B|246:193|246:193|209:207|209:207|170:199|170:199|124:216|124:216|74:208|74:208|38:229|38:229|50:247|77:235,1,280,8|0,3:0|0:0,0:0:0:0:
63,217,332640,6,0,B|506:172,1,420.000016021729,12|0,3:0|0:0,0:0:0:0:
379,79,333120,5,4,3:0:0:0:
346,220,333280,1,0,0:0:0:0:
393,348,333440,1,0,0:0:0:0:
253,102,333600,5,8,0:0:0:0:
220,243,333760,1,0,0:0:0:0:
267,371,333920,1,0,0:0:0:0:
87,93,334080,6,0,P|53:113|36:144,1,70,12|0,3:0|0:0,0:0:0:0:
51,151,334560,2,0,P|34:186|38:222,1,70,12|0,3:0|0:0,0:0:0:0:
267,371,335040,5,4,3:0:0:0:
126,251,335200,1,0,0:0:0:0:
116,254,335280,1,0,0:0:0:0:
106,257,335360,1,0,0:0:0:0:
317,82,335520,5,8,0:0:0:0:
339,299,335680,2,0,L|344:234,1,52.5000020027161,0|0,3:0|0:0,0:0:0:0:
262,289,335840,2,0,L|268:222,1,52.5000020027161,0|0,3:0|0:0,0:0:0:0:
405,59,336000,6,0,B|435:90|435:90|321:45|321:45|199:70,1,280,12|0,3:0|0:0,0:0:0:0:
88,256,336480,6,0,P|120:141|27:185,1,280,12|0,3:0|0:0,0:0:0:0:
166,355,336960,5,4,3:0:0:0:
327,342,337120,1,0,0:0:0:0:
488,329,337280,1,0,0:0:0:0:
343,357,337440,5,0,0:0:0:0:
322,358,337600,1,0,0:0:0:0:
304,346,337760,1,0,0:0:0:0:
389,44,337920,5,8,0:0:0:0:
426,290,338080,2,0,L|442:106,1,140,8|0,0:0|0:0,0:0:0:0:
129,262,338400,6,0,B|122:234|83:222|83:222|64:278|147:327|223:260|202:182,1,280,12|0,3:0|0:0,0:0:0:0:
42,15,338880,5,4,3:0:0:0:
84,222,339040,1,0,0:0:0:0:
131,119,339200,1,0,0:0:0:0:
292,269,339360,5,8,0:0:0:0:
339,166,339520,1,0,0:0:0:0:
381,373,339680,1,0,0:0:0:0:
35,329,339840,5,4,3:0:0:0:
266,354,340000,2,0,L|178:341,1,52.5000020027161,4|0,3:0|0:0,0:0:0:0:
33,343,340160,2,0,L|84:350,1,52.5000020027161,8|0,0:0|0:0,0:0:0:0:
292,269,340320,6,0,B|335:278|335:278|364:337|364:337|422:327|422:327|481:354|481:354|515:299,1,280,12|0,3:0|0:0,0:0:0:0:
455,101,340800,5,4,3:0:0:0:
259,125,340960,1,0,0:0:0:0:
340,18,341120,1,0,0:0:0:0:
237,129,341280,5,8,0:0:0:0:
473,99,341440,1,0,0:0:0:0:
364,190,341600,1,0,0:0:0:0:
90,84,341760,6,0,B|81:48|126:31|126:31|94:184|109:264,1,280,8|0,3:0|0:0,0:0:0:0:
308,285,342240,6,0,B|252:338|180:330|180:330|250:309|311:361,1,280,8|0,3:0|0:0,0:0:0:0:
512,275,342720,5,0,3:0:0:0:
398,313,342880,1,0,0:0:0:0:
433,77,343040,1,0,0:0:0:0:
305,255,343200,5,8,0:0:0:0:
185,262,343360,1,0,0:0:0:0:
273,43,343520,1,0,0:0:0:0:
118,182,343680,5,4,3:0:0:0:
0,158,343840,1,0,0:0:0:0:
135,188,344000,1,8,0:0:0:0:
64,16,344160,5,8,3:0:0:0:
85,341,344320,2,0,B|95:285|42:250|42:250|55:316,1,140,8|0,3:0|0:0,0:0:0:0:
490,319,344640,5,4,3:0:0:0:
192,336,344800,1,0,0:0:0:0:
341,328,344960,1,0,0:0:0:0:
243,123,345120,5,8,0:0:0:0:
483,182,345280,1,0,0:0:0:0:
366,152,345440,1,0,0:0:0:0:
499,3,345600,6,0,B|491:101|491:101|462:152|462:152|478:228|478:228|486:162,1,280,4|0,3:0|0:0,0:0:0:0:
240,251,346080,6,0,B|217:231|217:231|177:286|239:350|289:324|289:324|343:291|414:320,1,280,12|0,3:0|0:0,0:0:0:0:
251,57,346560,5,4,3:0:0:0:
221,141,346720,1,0,0:0:0:0:
163,75,346880,1,8,0:0:0:0:
124,231,347040,5,4,3:0:0:0:
67,299,347200,1,0,0:0:0:0:
35,218,347360,1,0,0:0:0:0:
214,354,347520,6,0,B|260:344|260:344|301:315|301:315|413:338|413:338|300:355,1,280,4|0,3:0|0:0,0:0:0:0:
124,231,348000,6,0,B|97:190|45:177|45:177|140:199|221:189|175:130,1,280,12|0,3:0|0:0,0:0:0:0:
12,41,348480,5,4,3:0:0:0:
46,178,348640,1,0,0:0:0:0:
31,314,348800,1,0,0:0:0:0:
464,313,348960,5,8,0:0:0:0:
248,290,349120,1,0,0:0:0:0:
58,356,349280,1,0,0:0:0:0:
484,297,349440,6,0,B|282:273|282:273|352:286|384:237,1,280,12|0,3:0|0:0,0:0:0:0:
451,58,349920,6,0,P|336:15|328:204,1,350,12|0,3:0|0:0,0:0:0:0:
250,33,350400,5,4,3:0:0:0:
122,200,350560,1,0,0:0:0:0:
109,84,350720,1,8,0:0:0:0:
324,276,350880,5,4,3:0:0:0:
59,324,351040,1,0,0:0:0:0:
122,200,351200,1,0,0:0:0:0:
256,378,351360,6,0,B|345:390|482:364|482:364|513:289|451:331|474:238,1,350,4|0,3:0|0:0,0:0:0:0:
311,78,351840,6,0,B|206:63|44:94|44:94|3:173|74:233,1,350,12|0,3:0|0:0,0:0:0:0:
443,132,352320,5,4,3:0:0:0:
59,324,352480,1,0,0:0:0:0:
256,224,352640,1,0,0:0:0:0:
256,336,352800,6,0,L|256:384,1,41.9999987182618,8|0,0:0|0:0,0:0:0:0:
435,52,353280,5,4,3:0:0:0:
405,343,353440,2,0,P|403:253|344:195,1,140,0|0,3:0|0:0,0:0:0:0:
30,200,353760,6,0,B|261:181|261:181|234:199|228:226,1,280,8|0,3:0|0:0,0:0:0:0:
55,312,354240,5,8,3:0:0:0:
91,310,354400,1,0,0:0:0:0:
127,308,354560,1,0,0:0:0:0:
99,56,354720,5,8,0:0:0:0:
134,59,354880,1,0,0:0:0:0:
170,63,355040,1,0,0:0:0:0:
320,203,355200,6,0,L|368:122,1,52.5000020027161,4|0,3:0|0:0,0:0:0:0:
170,63,355360,2,0,L|161:164,1,52.5000020027161,4|0,3:0|0:0,0:0:0:0:
458,321,355520,2,0,L|383:368,1,52.5000020027161,4|0,3:0|0:0,0:0:0:0:
55,312,355680,6,8,B|114:267|189:276|298:296|233:353|286:384|334:391|367:370,1,350,12|0,3:0|0:0,0:0:0:0:
409,244,356160,5,4,3:0:0:0:
391,195,356320,1,0,0:0:0:0:
357,231,356480,1,0,0:0:0:0:
426,288,356640,5,8,0:0:0:0:
333,37,356800,1,0,0:0:0:0:
159,221,356960,1,0,0:0:0:0:
425,18,357120,6,0,L|412:112,1,52.5000020027161,4|0,3:0|0:0,0:0:0:0:
325,89,357280,2,0,L|332:36,1,52.5000020027161,4|0,3:0|0:0,0:0:0:0:
441,9,357440,1,4,3:0:0:0:
166,88,357600,6,0,B|186:89|186:89|190:47|150:33|97:45|88:110|193:160|149:248|67:232,1,280,8|0,3:0|0:0,0:0:0:0:
5,335,358080,5,4,3:0:0:0:
185,384,358240,1,0,0:0:0:0:
125,317,358400,1,0,0:0:0:0:
336,382,358560,5,8,0:0:0:0:
276,315,358720,1,0,0:0:0:0:
469,342,358880,1,0,0:0:0:0:
376,144,359040,5,4,3:0:0:0:
371,197,359200,1,0,0:0:0:0:
366,251,359360,1,0,0:0:0:0:
512,53,359520,6,0,B|421:60|377:145|377:145|388:6,1,280,8|0,3:0|0:0,0:0:0:0:
366,251,360000,5,4,3:0:0:0:
385,36,360160,1,0,0:0:0:0:
109,107,360320,5,2,0:0:0:0:
114,53,360400,1,0,0:0:0:0:
171,88,360480,5,0,3:0:0:0:
166,142,360560,1,0,3:0:0:0:
161,200,360640,1,0,3:0:0:0:
156,256,360720,1,0,3:0:0:0:
151,312,360800,2,0,P|183:326|214:369,1,70,0|0,3:0|3:0,3:3:0:0:
423,351,360960,6,0,B|431:193|431:193|424:261|385:320,1,280,4|0,3:0|0:0,0:0:0:0:
437,81,361440,2,0,P|308:93|328:224,1,280,12|0,3:0|0:0,0:0:0:0:
274,70,361920,6,0,L|239:2,1,70,4|0,3:0|0:0,0:0:0:0:
122,52,362080,6,0,L|71:38,1,52.5000020027161,4|0,3:0|0:0,0:0:0:0:
26,181,362240,6,0,L|-11:225,1,35,4|0,3:0|0:0,0:0:0:0:
108,314,362400,6,0,L|115:360,1,26.2500010013581,8|0,0:0|0:0,0:0:0:0:
171,226,362560,6,0,L|155:234,1,17.5,4|0,3:0|0:0,0:0:0:0:
254,240,362720,5,0,0:0:0:0:
199,314,362880,5,4,3:0:0:0:
468,283,363040,1,0,0:0:0:0:
369,359,363200,1,0,0:0:0:0:
412,6,363360,6,0,B|467:100|456:194|456:194|394:211|387:266,1,280,12|0,3:0|0:0,0:0:0:0:
254,238,363840,5,4,3:0:0:0:
237,236,364000,1,0,0:0:0:0:
220,234,364160,1,0,0:0:0:0:
405,96,364320,5,8,0:0:0:0:
201,150,364480,1,0,0:0:0:0:
0,204,364640,1,0,0:0:0:0:
100,342,364800,6,0,B|214:354|214:354|159:336,1,140,8|0,3:0|0:0,0:0:0:0:
61,77,365280,6,0,B|48:22|48:22|18:249,1,280,12|0,3:0|0:0,0:0:0:0:
187,39,365760,5,4,3:0:0:0:
396,67,365920,1,0,0:0:0:0:
496,244,366080,1,8,0:0:0:0:
340,366,366240,5,4,3:0:0:0:
383,264,366400,1,0,0:0:0:0:
362,153,366560,1,0,0:0:0:0:
147,52,366720,6,0,B|137:200|137:200|206:168|136:90|46:91|6:181|25:238|80:275,1,437.5,4|0,3:0|0:0,0:0:0:0:
143,282,367200,6,0,B|185:278|210:248|210:248|198:388,1,210.000008010865,12|0,3:0|0:0,0:0:0:0:
59,257,367680,6,0,B|208:230|331:294|331:294|395:274|454:275|454:275|378:210|378:210|447:221|447:221|434:169|434:169|474:194|474:194|486:160,1,700,8|0,3:0|0:0,0:0:0:0:
486,158,368640,5,4,3:0:0:0:
263,266,368800,2,0,B|177:282|177:282|96:273,1,140,0|0,3:0|3:0,0:0:0:0:
169,3,369120,6,0,B|200:33|187:86|187:86|86:72|28:150|76:216,1,280,8|0,3:0|0:0,0:0:0:0:
484,143,369600,5,8,0:0:0:0:
282,46,369760,1,0,0:0:0:0:
162,123,369920,1,0,0:0:0:0:
419,325,370080,5,8,0:0:0:0:
189,211,370240,1,0,0:0:0:0:
69,288,370400,1,0,0:0:0:0:
304,373,370560,5,4,3:0:0:0:
304,363,370720,1,0,0:0:0:0:
299,353,370880,1,0,0:0:0:0:
484,143,371040,6,0,B|378:169|390:308|390:308|370:281|339:262,1,280,4|0,3:0|0:0,0:0:0:0:
133,230,371520,5,4,3:0:0:0:
75,188,371680,1,0,0:0:0:0:
97,314,371840,1,0,0:0:0:0:
254,131,372000,5,8,0:0:0:0:
84,64,372160,1,0,0:0:0:0:
279,333,372320,1,0,0:0:0:0:
422,81,372480,6,0,L|476:77,1,52.5000020027161,0|0,3:0|0:0,0:0:0:0:
512,53,372640,2,0,L|459:56,1,52.5000020027161,4|0,3:0|0:0,0:0:0:0:
481,165,372800,1,4,3:0:0:0:
257,35,372960,6,0,B|137:22|12:84|12:84|0:44,1,280,12|0,3:0|0:0,0:0:0:0:
126,140,373440,5,4,3:0:0:0:
256,208,373600,1,0,0:0:0:0:
396,174,373760,1,0,0:0:0:0:
188,282,373920,5,4,3:0:0:0:
318,350,374080,1,0,0:0:0:0:
458,316,374240,1,0,0:0:0:0:
512,188,374400,5,4,3:0:0:0:
435,234,374560,1,0,0:0:0:0:
256,128,374720,1,0,0:0:0:0:
256,208,374880,5,8,0:0:0:0:
435,234,375040,2,0,B|506:282|458:334|458:334|460:288,1,140,0|0,3:0|0:0,0:0:0:0:
484,67,375360,5,4,3:0:0:0:
308,57,375520,1,0,0:0:0:0:
196,51,375680,1,0,0:0:0:0:
305,171,375840,5,8,3:0:0:0:
177,200,376000,1,0,0:0:0:0:
95,219,376160,1,0,0:0:0:0:
165,328,376320,6,0,B|177:200|177:200|184:310,1,210.000008010865,4|0,3:0|0:0,0:0:0:0:
393,316,376800,6,0,B|406:331|393:352|393:352|328:270|241:251|181:281,1,280,12|0,3:0|0:0,0:0:0:0:
1,311,377280,5,4,3:0:0:0:
326,264,377440,1,0,0:0:0:0:
364,129,377600,1,0,0:0:0:0:
0,182,377760,5,4,3:0:0:0:
325,135,377920,1,0,0:0:0:0:
363,0,378080,1,0,0:0:0:0:
125,152,378240,6,0,L|133:203,1,52.5000020027161,0|0,3:0|0:0,0:0:0:0:
101,24,378400,2,0,L|93:75,1,52.5000020027161,4|0,3:0|0:0,0:0:0:0:
0,182,378560,1,0,0:0:0:0:
408,122,378720,6,0,B|340:117|214:139|214:139|243:93|243:93|296:106,1,280,12|0,3:0|0:0,0:0:0:0:
451,297,379200,5,4,3:0:0:0:
476,198,379360,1,0,0:0:0:0:
408,122,379520,1,0,0:0:0:0:
272,384,379680,5,8,0:0:0:0:
321,181,379840,1,0,0:0:0:0:
168,21,380000,1,0,0:0:0:0:
94,328,380160,6,0,L|5:321,1,70,4|0,3:0|0:0,0:0:0:0:
43,118,380640,6,0,B|34:84|34:84|4:213|4:213|33:260|21:345,1,280,12|0,3:0|0:0,0:0:0:0:
146,162,381120,5,4,3:0:0:0:
240,125,381280,1,0,0:0:0:0:
320,184,381440,1,0,0:0:0:0:
298,316,381600,5,4,3:0:0:0:
392,353,381760,1,0,0:0:0:0:
472,294,381920,1,0,0:0:0:0:
484,94,382080,6,0,B|505:65|496:36|496:36|398:68|281:44,1,280
49,105,382560,6,0,B|24:118|24:118|1:41|84:-15|281:43|47:184|121:224|158:250|211:178|152:118,1,378.000001441956,12|0,3:0|0:0,0:0:0:0:
281,44,383040,6,0,B|386:3|496:36|496:36|415:95|387:162|387:162|343:178|343:178|388:171|435:174|435:174|386:183|349:257|355:354,1,735.000007009506,2|8,0:0|0:0,0:0:0:0:
173,158,383680,5,0,0:0:0:0:
354,349,383840,1,0,0:0:0:0:
33,321,384000,6,0,P|104:315|132:246,1,140,2|2,0:0|0:0,0:0:0:0:
49,186,384480,1,0,0:0:0:0:
227,155,384640,2,0,P|217:195|214:242,1,70,2|0,0:0|0:0,0:0:0:0:
103,101,384960,2,0,B|180:119|168:56|247:69,1,140,10|2,0:0|0:0,0:0:0:0:
408,152,385440,5,8,0:0:0:0:
457,75,385600,1,2,0:0:0:0:
402,2,385760,1,0,0:0:0:0:
353,79,385920,2,0,P|316:136|341:214,2,140,10|2|2,0:0|0:0|0:0,0:0:0:0:
233,67,386720,1,0,0:0:0:0:
226,234,386880,2,0,P|205:177|141:122,1,140,10|0,0:0|0:0,0:0:0:0:
76,192,387360,5,8,0:0:0:0:
27,115,387520,1,2,0:0:0:0:
82,42,387680,1,2,0:0:0:0:
131,119,387840,2,0,P|168:176|143:254,2,140,10|2|2,0:0|0:0|0:0,0:0:0:0:
251,107,388640,1,0,0:0:0:0:
258,274,388800,2,0,P|279:217|343:162,1,140,10|2,0:0|0:0,0:0:0:0:
408,232,389280,5,8,0:0:0:0:
457,155,389440,1,0,0:0:0:0:
402,82,389600,1,0,0:0:0:0:
353,159,389760,2,0,P|316:216|341:294,2,140,10|2|2,0:0|0:0|0:0,0:0:0:0:
233,147,390560,1,2,0:0:0:0:
226,314,390720,2,0,P|205:257|141:202,1,140,8|2,0:0|0:0,0:0:0:0:
65,165,391200,6,0,P|33:175|-12:194,2,70,8|2|2,0:0|0:0|0:0,0:0:0:0:
142,77,391680,2,0,P|175:104|271:112,2,140,10|2|2,0:0|0:0|0:0,0:0:0:0:
210,198,392480,1,2,0:0:0:0:
306,158,392640,2,0,P|333:106|408:84,1,140,10|2,0:0|0:0,0:0:0:0:
492,103,393120,6,0,P|505:55|516:27,2,70,8|2|2,0:0|0:0|0:0,0:0:0:0:
401,207,393600,2,0,B|396:268|420:265|438:286|444:313|426:354,2,140,10|2|2,0:0|0:0|0:0,0:0:0:0:
488,209,394400,1,0,0:0:0:0:
362,317,394560,2,0,P|298:291|214:286,1,140,10|2,0:0|0:0,0:0:0:0:
168,226,395040,5,8,0:0:0:0:
168,226,395200,2,0,P|140:253|142:285,1,70,2|2,0:0|0:0,0:0:0:0:
51,163,395520,2,0,B|122:177|107:128|193:140,2,140,10|2|2,0:0|0:0|0:0,0:0:0:0:
76,86,396320,1,2,0:0:0:0:
228,77,396480,2,0,P|218:125|205:232,1,140,10|2,0:0|0:0,0:0:0:0:
267,273,396960,6,0,P|303:240|352:226,2,70,8|2|0,0:0|0:0|0:0,0:0:0:0:
245,141,397440,2,0,P|307:138|385:203,2,140,10|2|2,0:0|0:0|0:0,0:0:0:0:
395,44,398240,1,0,0:0:0:0:
395,44,398400,2,0,P|453:86|456:158,1,140,10|2,0:0|0:0,0:0:0:0:
390,245,398880,6,0,P|377:200|359:146,2,70,8|2|2,0:0|0:0|0:0,0:0:0:0:
337,331,399360,2,0,B|285:315|251:348|271:352|241:385|190:383,2,140,10|2|2,0:0|0:0|0:0,0:0:0:0:
194,303,400160,1,2,0:0:0:0:
194,303,400320,2,0,P|182:222|161:141,1,140,10|2,0:0|0:0,0:0:0:0:
239,115,400800,6,0,P|244:79|286:62,2,70,8|2|2,0:0|0:0|0:0,0:0:0:0:
96,27,401280,2,0,P|151:-7|235:13,2,140,2|2|2,0:1|0:1|0:0,0:0:0:0:
171,85,402080,1,2,0:0:0:0:
68,123,402240,2,0,B|74:72|41:25|41:25|14:71,1,140,10|2,0:0|0:0,0:0:0:0:
23,193,402720,6,0,P|61:206|107:197,2,70,10|2|0,0:0|0:0|0:0,0:0:0:0:
90,323,403200,2,0,P|157:294|163:230,2,140,10|2|2,0:0|0:0|0:0,0:0:0:0:
279,280,404000,1,2,0:0:0:0:
279,280,404160,2,0,P|275:199|207:193,1,140,10|2,0:0|0:0,0:0:0:0:
306,102,404640,6,0,P|333:102|389:138,2,70,8|2|2,0:0|0:0|0:0,0:0:0:0:
219,82,405120,2,0,P|253:42|350:17,2,140,10|2|2,0:0|0:0|0:0,0:0:0:0:
143,129,405920,1,2,0:0:0:0:
143,129,406080,2,0,P|138:76|189:-9,1,140,10|2,0:0|0:1,0:0:0:0:
177,0,406560,6,0,B|185:37|185:37|156:77,2,70,8|0|2,0:0|0:0|0:0,0:0:0:0:
252,93,407040,2,0,B|207:145|207:145|120:132,2,140,10|2|2,0:0|0:0|0:0,0:0:0:0:
246,213,407840,1,2,0:0:0:0:
167,222,408000,2,0,B|98:226|98:226|46:156,1,140,10|2,0:0|0:0,0:0:0:0:
75,73,408480,6,0,L|96:5,2,70,2|0|2,0:1|0:0|0:0,0:0:0:0:
141,139,408960,2,0,L|183:6,2,140,10|2|2,0:0|0:0|0:0,0:0:0:0:
199,226,409760,1,2,0:1:0:0:
219,159,409920,2,0,L|260:25,1,140,10|2,0:0|0:0,0:0:0:0:
260,25,410400,6,0,P|293:60|296:100,2,70,8|0|2,0:0|0:0|0:1,0:0:0:0:
374,59,410880,2,0,P|368:119|297:157,2,140,10|2|2,0:0|0:0|0:0,0:0:0:0:
340,252,411680,1,2,0:0:0:0:
340,252,411840,2,0,P|319:219|205:197,1,140,10|2,0:0|0:0,0:0:0:0:
71,252,412320,6,0,L|-1:278,2,70,8|2|2,0:0|0:0|0:0,0:0:0:0:
109,121,412800,2,0,B|173:119|171:174|241:194,2,140,10|2|2,0:0|0:0|0:0,0:0:0:0:
29,175,413600,1,2,0:0:0:0:
196,18,413760,2,0,P|247:33|239:112,1,140,10|2,0:0|0:0,0:0:0:0:
107,198,414240,6,0,P|103:156|86:99,2,70,8|0|2,0:0|0:0|0:0,0:0:0:0:
176,246,414720,2,0,P|222:189|226:110,2,140,2|2|2,0:1|0:0|0:0,0:0:0:0:
164,344,415520,1,2,0:0:0:0:
164,344,415680,2,0,P|207:359|296:300,1,140,10|2,0:0|0:1,0:0:0:0:
229,124,416160,6,0,L|203:51,2,70,8|2|2,0:0|0:0|0:0,0:0:0:0:
148,151,416640,2,0,L|294:177,2,140,2|2|2,0:1|0:0|0:0,0:0:0:0:
95,312,417440,1,2,0:0:0:0:
25,292,417600,2,0,P|52:252|138:252,1,140,10|2,0:0|0:1,0:0:0:0:
223,368,418080,6,0,P|247:343|255:302,2,70,0|2|2,0:0|0:0|0:0,0:0:0:0:
350,325,418560,2,0,P|345:277|278:219,2,140,10|2|2,0:0|0:0|0:0,0:0:0:0:
356,162,419360,1,0,0:0:0:0:
356,162,419520,2,0,P|318:131|230:137,1,140,2|2,0:1|0:0,0:0:0:0:
231,137,420000,6,0,B|264:153|264:152|264:152|307:143,2,70,8|2|2,0:0|0:0|0:0,0:0:0:0:
169,78,420480,2,0,L|206:226,2,140,2|2|2,0:1|0:0|0:0,0:0:0:0:
256,32,421280,1,2,0:0:0:0:
343,78,421440,2,0,L|306:226,1,140,10|2,0:0|0:1,0:0:0:0:
320,288,421920,6,0,P|360:300|416:288,2,70,2|0|0,0:0|0:0|0:0,0:0:0:0:
192,288,422400,2,0,B|147:311|99:291|99:291|31:254,2,140,10|0|2,0:0|0:0|0:0,0:0:0:0:
141,206,423200,1,0,0:0:0:0:
92,124,423360,2,0,B|137:101|184:120|184:120|253:158,1,140,8|2,0:0|0:1,0:0:0:0:
256,64,423840,6,0,L|256:-32,2,70,0|0|0,0:0|0:0|0:0,0:0:0:0:
288,141,424320,2,0,B|327:120|327:120|375:101|420:124,2,140,10|2|2,0:0|0:0|0:0,0:0:0:0:
256,224,425120,1,2,0:1:0:0:
320,288,425280,2,0,P|371:297|416:232,1,140,8|2,0:0|0:0,0:0:0:0:
406,122,425760,6,0,L|376:44,2,70,2|2|0,0:1|0:0|0:0,0:0:0:0:
349,185,426240,2,0,L|296:48,2,140,10|2|2,0:0|0:0|0:0,0:0:0:0:
292,248,427040,1,2,0:0:0:0:
266,181,427200,2,0,L|216:51,1,140,2|2,0:1|0:1,0:0:0:0:
125,25,427680,6,0,P|78:36|62:73,2,70,8|2|2,0:0|0:0|0:0,0:0:0:0:
60,166,428160,2,0,P|54:96|-14:61,2,140,10|2|2,0:0|0:0|0:0,0:0:0:0:
137,150,428960,1,2,0:0:0:0:
157,224,429120,2,0,P|223:210|273:254,1,140,10|2,0:0|0:1,0:0:0:0:
311,106,429600,6,0,P|308:143|332:177,2,70,0|2|2,0:0|0:1|0:0,0:0:0:0:
388,43,430080,2,0,B|360:70|360:70|258:46,2,140,2|2|2,0:1|0:0|0:0,0:0:0:0:
386,145,430880,1,2,0:0:0:0:
386,145,431040,2,0,B|414:118|414:118|516:142,1,140,10|2,0:0|0:1,0:0:0:0:
509,217,431520,6,0,B|410:193,2,70,0|2|2,0:0|0:0|0:0,0:0:0:0:
386,145,432000,2,0,P|389:203|332:283,2,140,2|2|2,0:1|0:0|0:0,0:0:0:0:
301,178,432800,1,2,0:0:0:0:
317,60,432960,2,0,P|360:98|376:195,1,140,2|2,0:1|0:1,0:0:0:0:
441,74,433440,6,0,P|462:38|491:24,2,70,0|2|2,0:0|0:0|0:0,0:0:0:0:
487,153,433920,2,0,P|430:154|372:215,2,140,2|2|2,0:1|0:0|0:0,0:0:0:0:
302,174,434720,1,2,0:0:0:0:
258,248,434880,2,0,B|331:234|323:297|403:283,1,140,10|0,0:0|0:0,0:0:0:0:
391,142,435360,6,0,P|377:188|369:224,2,70,8|2|2,0:0|0:0|0:0,0:0:0:0:
252,45,435840,2,0,P|282:94|302:185,2,140,10|2|2,0:0|0:0|0:0,0:0:0:0:
371,12,436640,1,2,0:0:0:0:
371,110,436800,2,0,P|444:85|516:102,1,140,10|2,0:0|0:1,0:0:0:0:
480,167,437280,6,0,P|446:163|406:182,2,70,0|2|2,0:0|0:0|0:0,0:0:0:0:
458,245,437760,2,0,B|432:274|363:241|322:295,2,140,10|2|2,0:0|0:0|0:0,0:0:0:0:
384,338,438560,1,2,0:0:0:0:
384,338,438720,2,0,P|310:306|236:296,1,140,10|2,0:0|0:1,0:0:0:0:
179,243,439200,6,0,P|208:217|259:204,2,70,8|0|0,0:0|0:0|0:0,0:0:0:0:
152,337,439680,2,0,P|145:266|103:181,2,140,10|0|2,0:0|0:0|0:0,0:0:0:0:
55,264,440480,1,0,0:0:0:0:
55,264,440640,2,0,P|42:188|92:126,1,140,8|2,0:0|0:1,0:0:0:0:
254,69,441120,6,0,P|307:58|345:49,2,70,0|0|0,0:0|0:0|0:0,0:0:0:0:
118,36,441600,2,0,B|184:57|158:119|216:142,2,140,10|0|2,0:0|0:0|0:0,0:0:0:0:
94,116,442400,1,0,0:0:0:0:
93,115,442560,2,0,B|79:154|78:196|78:196|115:200|140:168,1,140,2|2,0:1|0:1,0:0:0:0:
207,137,443040,6,0,P|262:119|305:123,2,70,0|0|0,0:0|0:0|0:0,0:0:0:0:
251,19,443520,2,0,P|313:36|346:107,2,140,2|0|2,0:0|0:0|0:0,0:0:0:0:
442,35,444320,1,0,0:0:0:0:
442,35,444480,6,0,B|441:97|417:178|370:168|371:124|434:92|434:92|476:81|476:81|481:77|481:77|477:81|477:81|520:74|520:74|483:85|470:123,1,350,0|0,3:0|0:0,0:0:0:0:
461,227,445440,5,0,0:0:0:0:
359,223,445600,1,0,0:0:0:0:
296,304,445760,1,0,0:0:0:0:
452,229,445920,5,0,0:0:0:0:
361,226,446080,1,0,0:0:0:0:
304,298,446240,1,0,0:0:0:0:
443,231,446400,5,0,0:0:0:0:
361,228,446560,1,0,0:0:0:0:
311,293,446720,1,2,0:0:0:0:
434,234,446880,5,0,0:0:0:0:
362,231,447040,1,0,0:0:0:0:
318,288,447200,1,0,0:0:0:0:
418,343,447360,6,0,B|443:287|434:234,1,112,2|2,0:0|0:0,0:0:0:0:
405,129,447840,5,0,0:0:0:0:
439,119,448000,1,2,0:0:0:0:
473,109,448160,1,0,0:0:0:0:
341,198,448320,5,0,0:0:0:0:
375,208,448480,1,2,0:0:0:0:
409,218,448640,1,2,0:0:0:0:
246,128,448800,5,0,0:0:0:0:
280,118,448960,1,2,0:0:0:0:
314,108,449120,1,0,0:0:0:0:
246,207,449280,6,0,P|195:188|168:140,1,112,2|2,0:0|0:0,0:0:0:0:
243,72,449760,2,0,L|246:128,2,56,2|2|0,0:0|0:0|0:0,0:0:0:0:
315,166,450240,2,0,B|337:220|337:220|326:272,1,112,2|2,0:0|0:0,0:0:0:0:
265,353,450720,2,0,L|205:348,2,56,0|2|0,0:0|0:0|0:0,0:0:0:0:
116,281,451200,6,0,L|176:271,1,56,2|0,0:0|0:0,0:0:0:0:
249,258,451520,1,2,0:0:0:0:
333,336,451680,6,0,L|324:281,1,56,0|2,0:0|0:0,0:0:0:0:
311,210,452000,1,0,0:0:0:0:
373,123,452160,6,0,L|317:132,1,56,2|0,0:0|0:0,0:0:0:0:
278,139,452480,1,2,0:0:0:0:
190,85,452640,6,0,L|199:141,1,56,0|2,0:0|0:0,0:0:0:0:
202,161,452960,1,0,0:0:0:0:
97,104,453120,6,0,L|104:27,2,77.0000023498536,2|2|2,0:0|0:0|0:0,0:0:0:0:
96,120,453920,1,0,0:0:0:0:
7,167,454080,6,0,L|0:90,2,77.0000023498536,2|2|2,0:0|0:0|0:0,0:0:0:0:
8,183,454880,1,0,0:0:0:0:
88,210,455040,6,0,L|95:133,2,77.0000023498536,2|2|2,0:0|0:0|0:0,0:0:0:0:
87,226,455840,1,0,0:0:0:0:
16,274,456000,6,0,L|8:197,2,77.0000023498536,2|2|2,0:0|0:0|0:0,0:0:0:0:
17,290,456800,1,0,0:0:0:0:
134,342,456960,6,0,P|164:329|223:319,2,77.0000023498536,2|2|2,0:0|0:0|0:0,0:0:0:0:
235,249,457920,6,0,P|269:259|300:275,2,70,2|2|2,0:0|0:0|0:0,0:0:0:0:
339,367,458880,6,0,P|356:340|369:311,2,62.9999980773926,2|2|2,0:0|0:0|0:0,0:0:0:0:
443,289,459840,6,0,P|440:261|433:234,2,56,2|2|2,0:0|0:0|0:0,0:0:0:0:
369,310,460800,6,0,B|339:267|339:267|350:220|350:220|308:180|314:130|331:97|351:80,1,259.000006323242,2|2,0:0|0:0,0:0:0:0:
413,150,462720,6,0,B|343:183|263:158|263:158|208:137|162:163,1,259.000006323242,2|2,0:0|0:0,0:0:0:0:
112,225,464640,6,0,B|68:200|68:200|62:149|62:149|85:104|85:104|134:93,1,203.000006195069,2|2,0:0|0:0,0:0:0:0:
162,163,466560,6,0,L|153:332,1,168,2|0,0:0|0:0,0:0:0:0:
