osu file format v14

[General]
AudioFilename: sayonaramemory.mp3
AudioLeadIn: 0
PreviewTime: 55735
Countdown: 0
SampleSet: Normal
StackLeniency: 0.7
Mode: 3
LetterboxInBreaks: 0
SpecialStyle: 0
WidescreenStoryboard: 0

[Editor]
DistanceSpacing: 0.9
BeatDivisor: 4
GridSize: 4
TimelineZoom: 1.4

[Metadata]
Title:Sayonara Memory ("NARUTO SHIPPUDEN" Ending Ver.)
TitleUnicode:さよならメモリー(「NARUTO -ナルト- 疾風伝」エンディングVer.)
Artist:7!!
ArtistUnicode:7!!
Creator:- Ly0572 -
Version:Ed's MX
Source:NARUTO-ナルト-疾風伝
Tags:Naruto Shippuden Ending 24 TV Size Seven Oops JPop EFP
BeatmapID:1120973
BeatmapSetID:525138

[Difficulty]
HPDrainRate:8
CircleSize:4
OverallDifficulty:8
ApproachRate:5
SliderMultiplier:1.4
SliderTickRate:1

[Events]
//Background and Video events
0,0,"K a t h.png",0,0
Video,-212,"Sayonara_Memory.flv"
//Break Periods
//Storyboard Layer 0 (Background)
//Storyboard Layer 1 (Fail)
//Storyboard Layer 2 (Pass)
//Storyboard Layer 3 (Foreground)
//Storyboard Sound Samples

[TimingPoints]
1558,394.736842105263,4,1,1,30,1,0
56821,-100,4,1,1,30,0,1
82084,-100,4,1,1,30,0,0

[HitObjects]
64,192,1558,5,0,0:0:0:70:LR_kick DS.wav
320,192,1558,128,0,3136:0:0:0:0:
448,192,1558,1,0,0:0:0:0:
192,192,1952,1,0,0:0:0:10:cymbal light.wav
192,192,2742,1,0,0:0:0:10:cymbal light.wav
192,192,3136,1,0,0:0:0:70:LR_kick DS.wav
448,192,3136,1,0,0:0:0:0:
64,192,3136,128,0,4715:0:0:0:0:
320,192,3531,1,0,0:0:0:10:cymbal light.wav
448,192,3729,1,0,0:0:0:70:LR_Tom Hit Z.wav
192,192,3729,1,0,0:0:0:0:
192,192,4123,1,0,0:0:0:70:LR_Tom Hit Z.wav
320,192,4123,1,0,0:0:0:0:
192,192,4518,1,0,0:0:0:70:LR_Tom Hit Z.wav
320,192,4518,1,0,0:0:0:0:
448,192,4715,1,0,0:0:0:20:cymbal finish.wav
320,192,4715,1,0,0:0:0:70:LR_kick DS.wav
192,192,4715,128,0,6294:0:0:0:0:
320,192,5110,1,0,0:0:0:10:cymbal light.wav
320,192,5900,1,0,0:0:0:10:cymbal light.wav
320,192,6294,1,0,0:0:0:70:LR_kick DS.wav
64,192,6294,1,0,0:0:0:0:
448,192,6294,128,0,7084:0:0:0:0:
320,192,6689,1,0,0:0:0:70:drum clap.wav
192,192,6689,1,0,0:0:0:0:
192,192,7084,1,0,0:0:0:70:LR_Tom Hit X.wav
64,192,7084,1,0,0:0:0:0:
320,192,7182,1,0,0:0:0:0:
448,192,7281,1,0,0:0:0:70:LR_Tom Hit Z.wav
64,192,7380,1,0,0:0:0:0:
192,192,7479,1,0,0:0:0:70:LR_Tom Hit Y.wav
448,192,7577,1,0,0:0:0:0:
320,192,7676,1,0,0:0:0:70:LR_Tom Hit X.wav
192,192,7775,1,0,0:0:0:0:
320,192,7873,1,0,0:0:0:20:cymbal finish.wav
64,192,7873,1,0,0:0:0:70:LR_kick DS.wav
448,192,7873,1,0,0:0:0:0:
64,192,8465,1,0,0:0:0:70:drum clap.wav
192,192,8465,1,0,0:0:0:0:
448,192,8465,1,0,0:0:0:0:
192,192,8860,1,0,0:0:0:70:LR_Tom Hit X.wav
448,192,8860,1,0,0:0:0:0:
320,192,9255,1,0,0:0:0:70:LR_Tom Hit X.wav
448,192,9255,1,0,0:0:0:0:
192,192,9452,1,0,0:0:0:20:cymbal finish.wav
448,192,9452,1,0,0:0:0:70:LR_kick DS.wav
64,192,9452,1,0,0:0:0:0:
64,192,9847,1,0,0:0:0:70:drum clap.wav
320,192,9847,1,0,0:0:0:0:
448,192,9847,1,0,0:0:0:0:
448,192,10242,1,0,0:0:0:70:LR_Tom Hit Z.wav
320,192,10242,1,0,0:0:0:0:
192,192,10439,1,0,0:0:0:70:LR_Tom Hit Z.wav
320,192,10439,1,0,0:0:0:0:
64,192,10636,1,0,0:0:0:70:LR_Tom Hit Z.wav
192,192,10636,1,0,0:0:0:0:
192,192,11031,1,0,0:0:0:20:cymbal finish.wav
320,192,11031,1,0,0:0:0:70:LR_kick DS.wav
64,192,11031,1,0,0:0:0:0:
320,192,11229,1,0,0:0:0:70:LR_kick DS.wav
448,192,11229,1,0,0:0:0:0:
64,192,11623,1,0,0:0:0:70:drum clap.wav
448,192,11623,1,0,0:0:0:0:
192,192,11623,1,0,0:0:0:0:
192,192,12018,1,0,0:0:0:70:LR_kick DS.wav
64,192,12018,1,0,0:0:0:0:
320,192,12215,1,0,0:0:0:70:LR_Tom Hit Z.wav
64,192,12215,128,0,12610:0:0:0:0:
448,192,12215,1,0,0:0:0:0:
192,192,12610,1,0,0:0:0:70:LR_kick DS.wav
320,192,12610,1,0,0:0:0:0:
64,192,12807,1,0,0:0:0:70:drum clap.wav
320,192,12807,1,0,0:0:0:0:
448,192,12807,1,0,0:0:0:0:
64,192,13005,1,0,0:0:0:70:drum clap.wav
192,192,13005,1,0,0:0:0:0:
320,192,13005,1,0,0:0:0:0:
64,192,13202,1,0,0:0:0:70:drum clap.wav
448,192,13202,1,0,0:0:0:0:
320,192,13202,1,0,0:0:0:0:
192,192,13400,1,0,0:0:0:70:drum clap.wav
320,192,13400,1,0,0:0:0:0:
448,192,13400,1,0,0:0:0:0:
192,192,13597,1,0,0:0:0:70:drum clap.wav
64,192,13597,1,0,0:0:0:0:
448,192,13597,1,0,0:0:0:0:
448,192,13794,1,0,0:0:0:70:drum clap.wav
320,192,13794,128,0,14189:0:0:0:0:
64,192,13794,1,0,0:0:0:0:
192,192,14189,1,0,0:0:0:20:cymbal finish.wav
64,192,14189,1,0,0:0:0:70:LR_kick DS.wav
448,192,14189,128,0,15768:0:0:0:0:
192,192,14386,1,0,0:0:0:0:
320,192,14584,1,0,0:0:0:70:drum clap.wav
64,192,14584,1,0,0:0:0:0:
192,192,14781,1,0,0:0:0:0:
64,192,14880,1,0,0:0:0:0:
320,192,14979,1,0,0:0:0:70:LR_kick DS.wav
64,192,15077,1,0,0:0:0:0:
192,192,15077,1,0,0:0:0:0:
320,192,15176,1,0,0:0:0:0:
192,192,15373,1,0,0:0:0:70:drum clap.wav
320,192,15373,1,0,0:0:0:0:
64,192,15571,1,0,0:0:0:0:
320,192,15768,1,0,0:0:0:70:LR_kick DS.wav
192,192,15768,128,0,17347:0:0:0:0:
448,192,15965,1,0,0:0:0:0:
320,192,16163,1,0,0:0:0:70:drum clap.wav
64,192,16163,1,0,0:0:0:0:
448,192,16360,1,0,0:0:0:0:
320,192,16459,1,0,0:0:0:0:
64,192,16557,1,0,0:0:0:70:LR_kick DS.wav
320,192,16656,1,0,0:0:0:0:
448,192,16656,1,0,0:0:0:0:
64,192,16755,1,0,0:0:0:0:
448,192,16952,1,0,0:0:0:70:drum clap.wav
320,192,16952,1,0,0:0:0:0:
64,192,17150,1,0,0:0:0:0:
448,192,17248,1,0,0:0:0:70:drum clap.wav
64,192,17347,128,0,18926:0:0:0:70:LR_kick DS.wav
320,192,17347,1,0,0:0:0:0:
448,192,17544,1,0,0:0:0:0:
192,192,17742,1,0,0:0:0:70:drum clap.wav
320,192,17742,1,0,0:0:0:0:
320,192,17939,1,0,0:0:0:0:
192,192,18038,1,0,0:0:0:0:
448,192,18136,1,0,0:0:0:70:LR_kick DS.wav
192,192,18235,1,0,0:0:0:0:
320,192,18235,1,0,0:0:0:0:
448,192,18334,1,0,0:0:0:0:
320,192,18531,1,0,0:0:0:70:drum clap.wav
448,192,18531,1,0,0:0:0:0:
192,192,18729,1,0,0:0:0:0:
448,192,18926,1,0,0:0:0:70:LR_kick DS.wav
320,192,18926,128,0,19715:0:0:0:0:
64,192,19123,1,0,0:0:0:0:
192,192,19321,1,0,0:0:0:70:drum clap.wav
448,192,19321,1,0,0:0:0:0:
64,192,19518,1,0,0:0:0:0:
64,192,19715,1,0,0:0:0:70:drum clap.wav
448,192,19715,128,0,20505:0:0:0:0:
192,192,19715,1,0,0:0:0:0:
64,192,19814,1,0,0:0:0:70:drum clap.wav
192,192,19814,1,0,0:0:0:0:
192,192,20011,1,0,0:0:0:0:
320,192,20011,1,0,0:0:0:70:drum clap.wav
320,192,20110,1,0,0:0:0:70:drum clap.wav
192,192,20110,1,0,0:0:0:0:
64,192,20307,1,0,0:0:0:70:drum clap.wav
320,192,20307,1,0,0:0:0:0:
192,192,20505,1,0,0:0:0:70:LR_kick DS.wav
320,192,20505,1,0,0:0:0:0:
64,192,20505,128,0,20900:0:0:0:10:cymbal light.wav
192,192,20900,1,0,0:0:0:70:drum clap.wav
448,192,20900,1,0,0:0:0:0:
320,192,20900,1,0,0:0:0:0:
320,192,21097,1,0,0:0:0:0:
192,192,21294,1,0,0:0:0:70:LR_kick DS.wav
448,192,21294,1,0,0:0:0:0:
64,192,21492,1,0,0:0:0:70:drum clap.wav
448,192,21492,128,0,21689:0:0:0:0:
320,192,21492,1,0,0:0:0:0:
192,192,21689,1,0,0:0:0:0:
64,192,21886,1,0,0:0:0:70:LR_kick DS.wav
448,192,21886,1,0,0:0:0:0:
192,192,22084,1,0,0:0:0:70:LR_kick DS.wav
320,192,22084,128,0,22479:0:0:0:0:
64,192,22281,1,0,0:0:0:0:
448,192,22479,1,0,0:0:0:70:drum clap.wav
192,192,22479,1,0,0:0:0:0:
64,192,22479,1,0,0:0:0:0:
320,192,22676,1,0,0:0:0:0:
448,192,22873,1,0,0:0:0:70:LR_kick DS.wav
192,192,22873,1,0,0:0:0:0:
192,192,23071,128,0,23268:0:0:0:70:drum clap.wav
320,192,23071,1,0,0:0:0:0:
64,192,23071,1,0,0:0:0:0:
448,192,23268,1,0,0:0:0:0:
64,192,23465,1,0,0:0:0:70:LR_kick DS.wav
320,192,23465,1,0,0:0:0:0:
64,192,23663,128,0,24057:0:0:0:70:LR_kick DS.wav
192,192,23663,1,0,0:0:0:0:
320,192,23860,1,0,0:0:0:0:
192,192,24057,1,0,0:0:0:70:drum clap.wav
448,192,24057,1,0,0:0:0:0:
320,192,24057,1,0,0:0:0:0:
192,192,24255,1,0,0:0:0:0:
448,192,24452,1,0,0:0:0:70:LR_kick DS.wav
320,192,24452,1,0,0:0:0:0:
192,192,24650,1,0,0:0:0:0:
320,192,24650,128,0,24847:0:0:0:70:drum clap.wav
64,192,24650,1,0,0:0:0:0:
448,192,24847,1,0,0:0:0:0:
320,192,25044,1,0,0:0:0:70:LR_kick DS.wav
192,192,25044,1,0,0:0:0:0:
64,192,25242,1,0,0:0:0:70:LR_kick DS.wav
192,192,25242,128,0,25636:0:0:0:0:
448,192,25439,1,0,0:0:0:0:
64,192,25636,1,0,0:0:0:70:drum clap.wav
320,192,25636,1,0,0:0:0:0:
448,192,25636,1,0,0:0:0:0:
192,192,25834,1,0,0:0:0:0:
64,192,26031,128,0,26426:0:0:0:70:LR_kick DS.wav
320,192,26031,1,0,0:0:0:0:
192,192,26229,1,0,0:0:0:70:drum clap.wav
448,192,26229,1,0,0:0:0:0:
320,192,26229,1,0,0:0:0:0:
192,192,26426,1,0,0:0:0:0:
320,192,26623,1,0,0:0:0:70:LR_kick DS.wav
448,192,26623,1,0,0:0:0:0:
448,192,26821,128,0,27215:0:0:0:70:LR_kick DS.wav
64,192,26821,1,0,0:0:0:0:
192,192,27018,1,0,0:0:0:0:
320,192,27215,1,0,0:0:0:70:drum clap.wav
192,192,27215,1,0,0:0:0:0:
64,192,27215,1,0,0:0:0:0:
320,192,27413,1,0,0:0:0:0:
192,192,27610,1,0,0:0:0:70:LR_kick DS.wav
64,192,27610,1,0,0:0:0:0:
448,192,27807,1,0,0:0:0:70:drum clap.wav
64,192,27807,128,0,28005:0:0:0:0:
320,192,27807,1,0,0:0:0:0:
448,192,28005,1,0,0:0:0:0:
320,192,28202,1,0,0:0:0:70:LR_kick DS.wav
192,192,28202,1,0,0:0:0:0:
64,192,28400,1,0,0:0:0:70:LR_kick DS.wav
192,192,28400,128,0,28794:0:0:0:0:
320,192,28597,1,0,0:0:0:0:
64,192,28794,1,0,0:0:0:70:drum clap.wav
448,192,28794,1,0,0:0:0:0:
320,192,28794,1,0,0:0:0:0:
192,192,28992,1,0,0:0:0:0:
64,192,29189,1,0,0:0:0:70:LR_kick DS.wav
320,192,29189,1,0,0:0:0:0:
448,192,29386,1,0,0:0:0:70:drum clap.wav
192,192,29386,1,0,0:0:0:0:
320,192,29386,128,0,29584:0:0:0:0:
64,192,29584,1,0,0:0:0:0:
192,192,29781,1,0,0:0:0:70:LR_kick DS.wav
448,192,29781,1,0,0:0:0:0:
320,192,29979,1,0,0:0:0:70:LR_kick DS.wav
448,192,29979,128,0,30373:0:0:0:0:
192,192,30176,1,0,0:0:0:0:
320,192,30373,1,0,0:0:0:70:drum clap.wav
192,192,30373,1,0,0:0:0:0:
64,192,30373,1,0,0:0:0:0:
448,192,30571,1,0,0:0:0:0:
64,192,30768,1,0,0:0:0:70:LR_kick DS.wav
320,192,30768,1,0,0:0:0:0:
320,192,30965,128,0,31163:0:0:0:70:drum clap.wav
192,192,30965,1,0,0:0:0:0:
448,192,30965,1,0,0:0:0:0:
64,192,31163,1,0,0:0:0:0:
192,192,31360,1,0,0:0:0:70:LR_kick DS.wav
320,192,31360,1,0,0:0:0:0:
192,192,31557,128,0,31952:0:0:0:70:LR_kick DS.wav
448,192,31557,1,0,0:0:0:0:
320,192,31755,1,0,0:0:0:0:
64,192,31952,1,0,0:0:0:70:drum clap.wav
448,192,31952,1,0,0:0:0:0:
320,192,31952,1,0,0:0:0:0:
64,192,32150,1,0,0:0:0:70:LR_kick DS.wav
192,192,32248,1,0,0:0:0:70:drum clap.wav
448,192,32248,1,0,0:0:0:0:
320,192,32347,1,0,0:0:0:70:LR_kick DS.wav
192,192,32544,1,0,0:0:0:0:
64,192,32544,128,0,32742:0:0:0:10:cymbal light.wav
320,192,32742,1,0,0:0:0:70:LR_Snare Fast.wav
448,192,32742,1,0,0:0:0:0:
64,192,32840,1,0,0:0:0:0:
192,192,32840,1,0,0:0:0:70:LR_Snare Fast.wav
320,192,32939,1,0,0:0:0:70:LR_Snare Fast.wav
448,192,32939,1,0,0:0:0:0:
64,192,33038,1,0,0:0:0:0:
192,192,33038,1,0,0:0:0:70:LR_Snare Fast.wav
448,192,33136,1,0,0:0:0:70:LR_Tom Hit X.wav
320,192,33136,1,0,0:0:0:10:cymbal finish.wav
64,192,33136,1,0,0:0:0:0:
320,192,33334,1,0,0:0:0:70:LR_kick DS.wav
192,192,33334,1,0,0:0:0:0:
192,192,33531,1,0,0:0:0:70:cymbal light.wav
64,192,33531,1,0,0:0:0:70:LR_kick DS.wav
320,192,33926,1,0,0:0:0:70:LR_Snare Fast.wav
192,192,33926,1,0,0:0:0:0:
448,192,33926,1,0,0:0:0:70:cymbal light.wav
64,192,34321,1,0,0:0:0:70:cymbal light.wav
192,192,34518,128,0,34913:0:0:0:0:
320,192,34518,1,0,0:0:0:70:LR_Snare Fast.wav
448,192,34518,1,0,0:0:0:0:
448,192,34715,1,0,0:0:0:70:cymbal light.wav
320,192,34913,1,0,0:0:0:70:LR_kick DS.wav
64,192,34913,1,0,0:0:0:0:
192,192,35110,1,0,0:0:0:70:LR_kick DS.wav
448,192,35110,1,0,0:0:0:70:cymbal light.wav
64,192,35505,1,0,0:0:0:70:LR_Snare Fast.wav
320,192,35505,128,0,35702:0:0:0:70:cymbal light.wav
448,192,35505,1,0,0:0:0:0:
192,192,35702,128,0,35900:0:0:0:0:
448,192,35900,1,0,0:0:0:70:cymbal light.wav
64,192,35900,128,0,36097:0:0:0:0:
448,192,36097,1,0,0:0:0:70:LR_Snare Fast.wav
320,192,36097,1,0,0:0:0:0:
192,192,36097,1,0,0:0:0:0:
64,192,36294,1,0,0:0:0:70:cymbal light.wav
192,192,36294,1,0,0:0:0:70:LR_kick DS.wav
192,192,36492,1,0,0:0:0:70:LR_kick DS.wav
320,192,36492,1,0,0:0:0:0:
320,192,36689,1,0,0:0:0:70:cymbal light.wav
448,192,36689,1,0,0:0:0:70:LR_kick DS.wav
320,192,37084,1,0,0:0:0:70:LR_Snare Fast.wav
192,192,37084,1,0,0:0:0:70:cymbal light.wav
64,192,37084,1,0,0:0:0:0:
448,192,37479,1,0,0:0:0:70:cymbal light.wav
192,192,37676,1,0,0:0:0:70:LR_Snare Fast.wav
320,192,37676,128,0,38071:0:0:0:0:
64,192,37676,1,0,0:0:0:0:
64,192,37873,1,0,0:0:0:70:cymbal light.wav
192,192,38071,1,0,0:0:0:70:LR_kick DS.wav
448,192,38071,1,0,0:0:0:0:
320,192,38268,1,0,0:0:0:70:LR_kick DS.wav
64,192,38268,1,0,0:0:0:70:cymbal light.wav
64,192,38663,1,0,0:0:0:70:LR_Snare Fast.wav
448,192,38663,1,0,0:0:0:70:cymbal light.wav
192,192,38663,128,0,38860:0:0:0:0:
320,192,38860,128,0,39057:0:0:0:0:
64,192,39057,1,0,0:0:0:70:cymbal light.wav
448,192,39057,128,0,39255:0:0:0:0:
64,192,39255,1,0,0:0:0:70:LR_Snare Fast.wav
192,192,39255,1,0,0:0:0:0:
320,192,39255,1,0,0:0:0:0:
448,192,39452,1,0,0:0:0:70:cymbal light.wav
320,192,39452,1,0,0:0:0:70:LR_kick DS.wav
192,192,39650,1,0,0:0:0:70:LR_kick DS.wav
320,192,39650,1,0,0:0:0:70:LR_Tom Hit Z.wav
64,192,39847,1,0,0:0:0:70:cymbal light.wav
192,192,39847,1,0,0:0:0:70:LR_kick DS.wav
192,192,40242,1,0,0:0:0:70:LR_Snare Fast.wav
320,192,40242,1,0,0:0:0:70:cymbal light.wav
448,192,40242,1,0,0:0:0:0:
64,192,40636,1,0,0:0:0:70:cymbal light.wav
448,192,40834,1,0,0:0:0:70:LR_Snare Fast.wav
320,192,40834,128,0,41229:0:0:0:0:
192,192,40834,1,0,0:0:0:0:
448,192,41031,1,0,0:0:0:70:cymbal light.wav
192,192,41229,1,0,0:0:0:70:LR_kick DS.wav
64,192,41229,1,0,0:0:0:0:
448,192,41426,1,0,0:0:0:70:LR_kick DS.wav
320,192,41426,1,0,0:0:0:70:cymbal light.wav
448,192,41821,1,0,0:0:0:70:LR_Snare Fast.wav
320,192,41821,128,0,42018:0:0:0:70:cymbal light.wav
64,192,41821,1,0,0:0:0:0:
192,192,42018,128,0,42215:0:0:0:0:
64,192,42215,128,0,42413:0:0:0:0:
320,192,42215,1,0,0:0:0:70:cymbal light.wav
192,192,42413,1,0,0:0:0:70:LR_Snare Fast.wav
448,192,42413,1,0,0:0:0:0:
320,192,42413,1,0,0:0:0:0:
64,192,42610,1,0,0:0:0:70:cymbal light.wav
192,192,42610,1,0,0:0:0:70:LR_kick DS.wav
192,192,42807,1,0,0:0:0:70:LR_kick DS.wav
320,192,42807,1,0,0:0:0:0:
448,192,43005,1,0,0:0:0:70:cymbal light.wav
320,192,43005,1,0,0:0:0:70:LR_kick DS.wav
320,192,43400,1,0,0:0:0:70:LR_Snare Fast.wav
192,192,43400,1,0,0:0:0:70:cymbal light.wav
64,192,43400,1,0,0:0:0:0:
192,192,43794,1,0,0:0:0:70:cymbal light.wav
320,192,43992,1,0,0:0:0:70:LR_Snare Fast.wav
64,192,43992,1,0,0:0:0:0:
448,192,43992,128,0,44386:0:0:0:0:
64,192,44189,1,0,0:0:0:70:cymbal light.wav
192,192,44189,1,0,0:0:0:70:LR_kick DS.wav
320,192,44386,1,0,0:0:0:70:LR_kick DS.wav
192,192,44386,1,0,0:0:0:0:
448,192,44584,1,0,0:0:0:70:LR_Snare Fast.wav
320,192,44584,1,0,0:0:0:70:cymbal light.wav
64,192,44584,1,0,0:0:0:0:
192,192,44781,1,0,0:0:0:0:
448,192,44979,1,0,0:0:0:70:cymbal light.wav
320,192,44979,128,0,45176:0:0:0:70:LR_kick DS.wav
64,192,44979,1,0,0:0:0:0:
192,192,45176,128,0,45373:0:0:0:0:
320,192,45373,1,0,0:0:0:70:LR_Snare Fast.wav
448,192,45373,1,0,0:0:0:0:
192,192,45472,1,0,0:0:0:70:LR_Snare Fast.wav
64,192,45472,1,0,0:0:0:0:
320,192,45571,1,0,0:0:0:70:LR_Snare Fast.wav
448,192,45571,1,0,0:0:0:0:
192,192,45669,1,0,0:0:0:70:LR_Snare Fast.wav
64,192,45669,1,0,0:0:0:0:
320,192,45768,1,0,0:0:0:70:LR_kick DS.wav
448,192,45768,1,0,0:0:0:10:cymbal light.wav
64,192,45768,128,0,46163:0:0:0:0:
192,192,45965,1,0,0:0:0:0:
448,192,46163,1,0,0:0:0:70:drum clap.wav
320,192,46163,1,0,0:0:0:0:
192,192,46163,1,0,0:0:0:0:
64,192,46360,1,0,0:0:0:0:
192,192,46459,1,0,0:0:0:0:
448,192,46557,1,0,0:0:0:70:LR_kick DS.wav
320,192,46557,1,0,0:0:0:0:
192,192,46656,1,0,0:0:0:0:
320,192,46755,1,0,0:0:0:70:LR_kick DS.wav
448,192,46755,1,0,0:0:0:0:
64,192,46952,1,0,0:0:0:70:drum clap.wav
448,192,46952,1,0,0:0:0:0:
192,192,46952,1,0,0:0:0:0:
320,192,47150,1,0,0:0:0:0:
448,192,47248,1,0,0:0:0:0:
192,192,47248,1,0,0:0:0:70:drum clap.wav
64,192,47347,1,0,0:0:0:70:LR_kick DS.wav
320,192,47347,1,0,0:0:0:0:
192,192,47544,1,0,0:0:0:0:
320,192,47742,1,0,0:0:0:70:drum clap.wav
448,192,47742,1,0,0:0:0:0:
64,192,47742,1,0,0:0:0:0:
448,192,47939,1,0,0:0:0:0:
320,192,48038,1,0,0:0:0:0:
64,192,48136,1,0,0:0:0:70:LR_kick DS.wav
192,192,48136,1,0,0:0:0:0:
320,192,48235,1,0,0:0:0:70:LR_kick DS.wav
192,192,48334,1,0,0:0:0:70:LR_kick DS.wav
64,192,48334,1,0,0:0:0:0:
448,192,48531,1,0,0:0:0:70:drum clap.wav
320,192,48531,1,0,0:0:0:0:
64,192,48531,1,0,0:0:0:0:
448,192,48729,1,0,0:0:0:0:
192,192,48827,1,0,0:0:0:0:
320,192,48827,1,0,0:0:0:70:drum clap.wav
448,192,48926,128,0,49715:0:0:0:70:LR_kick DS.wav
64,192,48926,1,0,0:0:0:0:
192,192,49123,1,0,0:0:0:0:
64,192,49321,1,0,0:0:0:70:drum clap.wav
320,192,49321,1,0,0:0:0:0:
192,192,49518,1,0,0:0:0:0:
320,192,49617,1,0,0:0:0:0:
192,192,49715,1,0,0:0:0:70:LR_kick DS.wav
64,192,49715,1,0,0:0:0:0:
320,192,49814,1,0,0:0:0:0:
448,192,49913,1,0,0:0:0:70:LR_kick DS.wav
192,192,49913,1,0,0:0:0:0:
448,192,50110,1,0,0:0:0:70:drum clap.wav
320,192,50110,1,0,0:0:0:0:
64,192,50110,1,0,0:0:0:0:
64,192,50307,128,0,50900:0:0:0:0:
192,192,50307,1,0,0:0:0:0:
320,192,50406,1,0,0:0:0:70:drum clap.wav
192,192,50505,1,0,0:0:0:70:LR_kick DS.wav
448,192,50505,1,0,0:0:0:0:
320,192,50702,1,0,0:0:0:0:
448,192,50900,1,0,0:0:0:70:drum clap.wav
192,192,50900,1,0,0:0:0:0:
320,192,51097,1,0,0:0:0:0:
192,192,51196,1,0,0:0:0:0:
448,192,51294,1,0,0:0:0:70:LR_kick DS.wav
320,192,51294,1,0,0:0:0:0:
192,192,51393,1,0,0:0:0:70:LR_kick DS.wav
64,192,51492,1,0,0:0:0:70:LR_kick DS.wav
320,192,51492,1,0,0:0:0:0:
64,192,51689,1,0,0:0:0:70:drum clap.wav
448,192,51689,1,0,0:0:0:0:
192,192,51689,1,0,0:0:0:0:
320,192,51886,1,0,0:0:0:0:
64,192,51985,1,0,0:0:0:70:drum clap.wav
192,192,51985,1,0,0:0:0:0:
448,192,52084,128,0,53268:0:0:0:70:LR_kick DS.wav
320,192,52084,1,0,0:0:0:0:
64,192,52281,1,0,0:0:0:0:
192,192,52479,1,0,0:0:0:70:drum clap.wav
64,192,52479,1,0,0:0:0:0:
320,192,52676,1,0,0:0:0:0:
64,192,52775,1,0,0:0:0:0:
192,192,52873,1,0,0:0:0:70:LR_kick DS.wav
320,192,52873,1,0,0:0:0:0:
64,192,52972,1,0,0:0:0:0:
192,192,53071,1,0,0:0:0:70:LR_kick DS.wav
320,192,53071,1,0,0:0:0:0:
320,192,53268,128,0,53465:0:0:0:70:drum clap.wav
64,192,53268,1,0,0:0:0:0:
192,192,53465,128,0,53860:0:0:0:70:LR_kick DS.wav
448,192,53465,1,0,0:0:0:0:
64,192,53465,1,0,0:0:0:10:cymbal light.wav
320,192,53860,1,0,0:0:0:70:LR_kick DS.wav
448,192,53860,1,0,0:0:0:0:
64,192,54057,1,0,0:0:0:70:LR_kick DS.wav
192,192,54057,1,0,0:0:0:0:
64,192,54255,1,0,0:0:0:70:drum clap.wav
448,192,54255,1,0,0:0:0:0:
192,192,54255,1,0,0:0:0:0:
192,192,54452,1,0,0:0:0:70:LR_kick DS.wav
448,192,54452,1,0,0:0:0:0:
320,192,54650,1,0,0:0:0:0:
64,192,54650,1,0,0:0:0:70:LR_kick DS.wav
320,192,54847,1,0,0:0:0:70:drum clap.wav
448,192,54847,1,0,0:0:0:0:
64,192,54847,1,0,0:0:0:0:
320,192,55044,1,0,0:0:0:70:drum clap.wav
448,192,55044,1,0,0:0:0:0:
64,192,55044,1,0,0:0:0:0:
64,192,55242,128,0,55932:0:0:0:0:
192,192,55439,128,0,55932:0:0:0:0:
320,192,55636,128,0,55932:0:0:0:0:
448,192,55834,128,0,55932:0:0:0:0:
192,192,56031,1,0,0:0:0:70:LR_Snare Fast.wav
64,192,56031,1,0,0:0:0:0:
320,192,56130,1,0,0:0:0:70:LR_Snare Fast.wav
448,192,56130,1,0,0:0:0:0:
192,192,56229,1,0,0:0:0:70:LR_Snare Fast.wav
64,192,56229,1,0,0:0:0:0:
320,192,56327,1,0,0:0:0:70:LR_Snare Fast.wav
448,192,56327,1,0,0:0:0:0:
192,192,56426,1,0,0:0:0:70:LR_Snare Fast.wav
64,192,56426,1,0,0:0:0:0:
320,192,56525,1,0,0:0:0:70:LR_Snare Fast.wav
448,192,56525,1,0,0:0:0:0:
192,192,56623,1,0,0:0:0:70:LR_Snare Fast.wav
64,192,56623,1,0,0:0:0:0:
320,192,56722,1,0,0:0:0:70:LR_Snare Fast.wav
448,192,56722,1,0,0:0:0:0:
64,192,56821,128,0,58400:0:0:0:70:LR_kick DS.wav
192,192,56821,1,0,0:0:0:0:
448,192,56821,1,0,0:0:0:10:cymbal light.wav
320,192,57018,1,0,0:0:0:0:
192,192,57215,1,0,0:0:0:70:drum clap.wav
448,192,57215,1,0,0:0:0:0:
320,192,57413,1,0,0:0:0:0:
192,192,57511,1,0,0:0:0:0:
448,192,57610,1,0,0:0:0:70:LR_kick DS.wav
320,192,57610,1,0,0:0:0:0:
192,192,57709,1,0,0:0:0:0:
320,192,57807,1,0,0:0:0:0:
448,192,58005,1,0,0:0:0:70:drum clap.wav
192,192,58005,1,0,0:0:0:0:
320,192,58202,1,0,0:0:0:0:
448,192,58400,1,0,0:0:0:70:LR_kick DS.wav
192,192,58400,128,0,59979:0:0:0:0:
64,192,58597,1,0,0:0:0:0:
320,192,58794,1,0,0:0:0:70:drum clap.wav
448,192,58794,1,0,0:0:0:0:
64,192,58992,1,0,0:0:0:0:
320,192,59090,1,0,0:0:0:0:
448,192,59189,1,0,0:0:0:70:LR_kick DS.wav
64,192,59189,1,0,0:0:0:0:
320,192,59288,1,0,0:0:0:0:
448,192,59386,1,0,0:0:0:0:
64,192,59584,1,0,0:0:0:70:drum clap.wav
448,192,59584,1,0,0:0:0:0:
320,192,59781,1,0,0:0:0:0:
64,192,59880,1,0,0:0:0:70:LR_kick DS.wav
448,192,59979,1,0,0:0:0:70:LR_kick DS.wav
320,192,59979,128,0,61557:0:0:0:0:
192,192,60176,1,0,0:0:0:0:
448,192,60373,1,0,0:0:0:70:drum clap.wav
64,192,60373,1,0,0:0:0:0:
64,192,60571,1,0,0:0:0:0:
192,192,60669,1,0,0:0:0:0:
64,192,60768,1,0,0:0:0:70:LR_kick DS.wav
448,192,60768,1,0,0:0:0:0:
192,192,60867,1,0,0:0:0:0:
448,192,60965,1,0,0:0:0:0:
192,192,61163,1,0,0:0:0:70:drum clap.wav
64,192,61163,1,0,0:0:0:0:
192,192,61360,1,0,0:0:0:0:
448,192,61557,1,0,0:0:0:70:LR_kick DS.wav
64,192,61557,128,0,62347:0:0:0:0:
192,192,61755,1,0,0:0:0:0:
192,192,61952,1,0,0:0:0:70:drum clap.wav
448,192,61952,1,0,0:0:0:0:
320,192,62150,1,0,0:0:0:0:
448,192,62248,1,0,0:0:0:0:
320,192,62347,1,0,0:0:0:70:LR_kick DS.wav
192,192,62347,128,0,63136:0:0:0:0:
448,192,62446,1,0,0:0:0:0:
64,192,62544,1,0,0:0:0:0:
320,192,62742,1,0,0:0:0:70:drum clap.wav
64,192,62742,1,0,0:0:0:0:
448,192,62939,1,0,0:0:0:0:
64,192,63038,1,0,0:0:0:70:LR_kick DS.wav
448,192,63136,128,0,64715:0:0:0:70:LR_kick DS.wav
320,192,63136,1,0,0:0:0:0:
192,192,63334,1,0,0:0:0:0:
320,192,63531,1,0,0:0:0:70:drum clap.wav
64,192,63531,1,0,0:0:0:0:
192,192,63729,1,0,0:0:0:0:
320,192,63827,1,0,0:0:0:0:
64,192,63926,1,0,0:0:0:70:LR_kick DS.wav
192,192,63926,1,0,0:0:0:0:
320,192,64025,1,0,0:0:0:0:
192,192,64123,1,0,0:0:0:0:
320,192,64321,1,0,0:0:0:70:drum clap.wav
64,192,64321,1,0,0:0:0:0:
192,192,64518,1,0,0:0:0:0:
64,192,64715,1,0,0:0:0:70:LR_kick DS.wav
320,192,64715,128,0,66294:0:0:0:0:
448,192,64913,1,0,0:0:0:0:
192,192,65110,1,0,0:0:0:70:drum clap.wav
64,192,65110,1,0,0:0:0:0:
64,192,65307,1,0,0:0:0:0:
192,192,65406,1,0,0:0:0:0:
64,192,65505,1,0,0:0:0:70:LR_kick DS.wav
448,192,65505,1,0,0:0:0:0:
192,192,65604,1,0,0:0:0:0:
448,192,65702,1,0,0:0:0:0:
192,192,65900,1,0,0:0:0:70:drum clap.wav
64,192,65900,1,0,0:0:0:0:
448,192,66097,1,0,0:0:0:0:
64,192,66294,1,0,0:0:0:70:LR_kick DS.wav
192,192,66294,128,0,67873:0:0:0:0:
448,192,66492,1,0,0:0:0:0:
448,192,66689,1,0,0:0:0:70:drum clap.wav
320,192,66689,1,0,0:0:0:0:
64,192,66886,1,0,0:0:0:0:
320,192,66985,1,0,0:0:0:0:
64,192,67084,1,0,0:0:0:70:LR_kick DS.wav
448,192,67084,1,0,0:0:0:0:
320,192,67182,1,0,0:0:0:0:
64,192,67281,1,0,0:0:0:0:
448,192,67479,1,0,0:0:0:70:drum clap.wav
320,192,67479,1,0,0:0:0:0:
64,192,67676,1,0,0:0:0:0:
448,192,67873,128,0,68663:0:0:0:70:LR_kick DS.wav
320,192,67873,1,0,0:0:0:0:
192,192,68071,1,0,0:0:0:0:
64,192,68268,1,0,0:0:0:70:drum clap.wav
320,192,68268,1,0,0:0:0:0:
192,192,68465,1,0,0:0:0:0:
320,192,68564,1,0,0:0:0:0:
64,192,68663,1,0,0:0:0:70:LR_kick DS.wav
192,192,68663,1,0,0:0:0:0:
448,192,68761,1,0,0:0:0:0:
320,192,68761,1,0,0:0:0:70:LR_kick DS.wav
64,192,68860,1,0,0:0:0:0:
320,192,69057,1,0,0:0:0:70:LR_Snare Fast.wav
448,192,69057,1,0,0:0:0:0:
192,192,69156,1,0,0:0:0:70:LR_Snare Fast.wav
64,192,69156,1,0,0:0:0:0:
320,192,69255,1,0,0:0:0:70:LR_Snare Fast.wav
448,192,69255,1,0,0:0:0:0:
192,192,69354,1,0,0:0:0:70:LR_Snare Fast.wav
64,192,69354,1,0,0:0:0:0:
64,192,69452,128,0,69847:0:0:0:70:LR_kick DS.wav
320,192,69452,1,0,0:0:0:0:
448,192,69452,1,0,0:0:0:70:cymbal finish.wav
192,192,69650,1,0,0:0:0:0:
192,192,69847,128,0,70242:0:0:0:70:drum clap.wav
320,192,69847,1,0,0:0:0:0:
448,192,69847,1,0,0:0:0:0:
64,192,70044,1,0,0:0:0:0:
448,192,70143,1,0,0:0:0:0:
320,192,70242,128,0,70636:0:0:0:70:LR_kick DS.wav
64,192,70242,1,0,0:0:0:0:
448,192,70340,1,0,0:0:0:0:
192,192,70439,1,0,0:0:0:0:
64,192,70636,128,0,71031:0:0:0:70:drum clap.wav
448,192,70636,1,0,0:0:0:0:
192,192,70636,1,0,0:0:0:0:
320,192,70834,1,0,0:0:0:0:
192,192,71031,128,0,71426:0:0:0:70:LR_kick DS.wav
448,192,71031,1,0,0:0:0:0:
320,192,71031,1,0,0:0:0:0:
64,192,71229,1,0,0:0:0:0:
320,192,71426,128,0,71821:0:0:0:70:drum clap.wav
64,192,71426,1,0,0:0:0:0:
448,192,71426,1,0,0:0:0:0:
192,192,71623,1,0,0:0:0:0:
448,192,71722,1,0,0:0:0:0:
192,192,71821,1,0,0:0:0:70:LR_kick DS.wav
64,192,71821,128,0,72215:0:0:0:0:
320,192,71919,1,0,0:0:0:0:
448,192,72018,1,0,0:0:0:0:
192,192,72215,128,0,72610:0:0:0:70:drum clap.wav
320,192,72215,1,0,0:0:0:0:
448,192,72215,1,0,0:0:0:0:
448,192,72413,1,0,0:0:0:0:
64,192,72511,1,0,0:0:0:70:drum clap.wav
448,192,72610,128,0,74189:0:0:0:70:LR_kick DS.wav
320,192,72610,1,0,0:0:0:0:
192,192,72807,1,0,0:0:0:0:
64,192,73005,1,0,0:0:0:70:drum clap.wav
320,192,73005,1,0,0:0:0:0:
192,192,73202,1,0,0:0:0:0:
64,192,73301,1,0,0:0:0:0:
192,192,73400,1,0,0:0:0:70:LR_kick DS.wav
320,192,73400,1,0,0:0:0:0:
64,192,73498,1,0,0:0:0:0:
192,192,73597,1,0,0:0:0:0:
320,192,73794,1,0,0:0:0:70:drum clap.wav
64,192,73794,1,0,0:0:0:0:
192,192,73992,1,0,0:0:0:0:
64,192,74189,1,0,0:0:0:70:LR_kick DS.wav
320,192,74189,128,0,74979:0:0:0:0:
192,192,74189,1,0,0:0:0:0:
448,192,74386,1,0,0:0:0:0:
448,192,74584,1,0,0:0:0:70:drum clap.wav
64,192,74584,1,0,0:0:0:0:
192,192,74781,1,0,0:0:0:0:
448,192,74880,1,0,0:0:0:0:
64,192,74979,1,0,0:0:0:70:LR_kick DS.wav
192,192,74979,128,0,75768:0:0:0:0:
448,192,75077,1,0,0:0:0:0:
320,192,75176,1,0,0:0:0:0:
320,192,75373,1,0,0:0:0:70:drum clap.wav
64,192,75373,1,0,0:0:0:0:
448,192,75571,1,0,0:0:0:0:
64,192,75669,1,0,0:0:0:70:LR_kick DS.wav
320,192,75768,1,0,0:0:0:70:LR_kick DS.wav
448,192,75768,128,0,76163:0:0:0:0:
192,192,75965,1,0,0:0:0:0:
320,192,76163,128,0,76557:0:0:0:70:drum clap.wav
192,192,76163,1,0,0:0:0:0:
64,192,76163,1,0,0:0:0:0:
448,192,76360,1,0,0:0:0:0:
64,192,76459,1,0,0:0:0:0:
192,192,76557,128,0,76952:0:0:0:70:LR_kick DS.wav
448,192,76557,1,0,0:0:0:0:
64,192,76656,1,0,0:0:0:0:
320,192,76755,1,0,0:0:0:0:
448,192,76952,128,0,77347:0:0:0:70:drum clap.wav
64,192,76952,1,0,0:0:0:0:
320,192,76952,1,0,0:0:0:0:
192,192,77150,1,0,0:0:0:0:
320,192,77347,128,0,77742:0:0:0:70:LR_kick DS.wav
64,192,77347,1,0,0:0:0:0:
192,192,77347,1,0,0:0:0:0:
448,192,77544,1,0,0:0:0:0:
192,192,77742,128,0,78136:0:0:0:70:drum clap.wav
448,192,77742,1,0,0:0:0:0:
64,192,77742,1,0,0:0:0:0:
320,192,77939,1,0,0:0:0:0:
64,192,78038,1,0,0:0:0:0:
448,192,78136,128,0,78531:0:0:0:70:LR_kick DS.wav
320,192,78136,1,0,0:0:0:0:
64,192,78235,1,0,0:0:0:0:
192,192,78334,1,0,0:0:0:0:
320,192,78531,128,0,78926:0:0:0:70:drum clap.wav
192,192,78531,1,0,0:0:0:0:
64,192,78531,1,0,0:0:0:0:
448,192,78729,1,0,0:0:0:0:
64,192,78926,128,0,79321:0:0:0:70:LR_kick DS.wav
192,192,78926,1,0,0:0:0:0:
448,192,78926,1,0,0:0:0:0:
320,192,79123,1,0,0:0:0:0:
192,192,79321,128,0,79715:0:0:0:70:drum clap.wav
320,192,79321,1,0,0:0:0:0:
448,192,79321,1,0,0:0:0:0:
64,192,79518,5,0,0:0:0:0:
448,192,79617,1,0,0:0:0:0:
320,192,79715,128,0,80110:0:0:0:70:LR_kick DS.wav
64,192,79715,1,0,0:0:0:0:
448,192,79814,1,0,0:0:0:0:
192,192,79913,1,0,0:0:0:0:
64,192,80110,128,0,80505:0:0:0:70:drum clap.wav
448,192,80110,1,0,0:0:0:0:
192,192,80110,1,0,0:0:0:0:
320,192,80307,1,0,0:0:0:0:
320,192,80505,1,0,0:0:0:70:LR_kick DS.wav
192,192,80505,1,0,0:0:0:0:
64,192,80702,1,0,0:0:0:70:drum clap.wav
448,192,80702,1,0,0:0:0:0:
320,192,80702,1,0,0:0:0:0:
64,192,80900,1,0,0:0:0:70:drum clap.wav
448,192,80900,1,0,0:0:0:0:
320,192,80900,1,0,0:0:0:0:
64,192,81097,1,0,0:0:0:0:
448,192,81097,1,0,0:0:0:70:drum clap.wav
192,192,81097,1,0,0:0:0:0:
192,192,81294,1,0,0:0:0:70:drum clap.wav
448,192,81294,1,0,0:0:0:0:
320,192,81294,1,0,0:0:0:0:
64,192,81492,1,0,0:0:0:70:drum clap.wav
320,192,81492,1,0,0:0:0:0:
192,192,81492,1,0,0:0:0:0:
320,192,81689,1,0,0:0:0:70:drum clap.wav
448,192,81689,1,0,0:0:0:0:
64,192,81689,1,0,0:0:0:0:
192,192,81886,1,0,0:0:0:0:
64,192,82084,1,0,0:0:0:70:drum clap.wav
320,192,82084,128,0,82281:0:0:0:0:
448,192,82084,128,0,85242:0:0:0:70:cymbal finish.wav
192,192,82281,128,0,82479:0:0:0:0:
64,192,82479,128,0,82676:0:0:0:0:
192,192,82676,128,0,82873:0:0:0:0:
320,192,82873,128,0,83071:0:0:0:0:
192,192,83071,128,0,83268:0:0:0:0:
64,192,83268,128,0,83465:0:0:0:0:
192,192,83465,128,0,83663:0:0:0:0:
64,192,83860,128,0,84057:0:0:0:0:
192,192,84057,128,0,84255:0:0:0:0:
320,192,84255,128,0,84452:0:0:0:0:
192,192,84452,128,0,84650:0:0:0:0:
64,192,84650,128,0,84847:0:0:0:0:
192,192,84847,128,0,85044:0:0:0:0:
320,192,85044,128,0,85242:0:0:0:0:
192,192,85439,128,0,85636:0:0:0:0:
320,192,85636,128,0,85834:0:0:0:0:
448,192,85834,128,0,86031:0:0:0:0:
320,192,86031,128,0,86229:0:0:0:0:
192,192,86229,128,0,86426:0:0:0:0:
320,192,86426,128,0,86623:0:0:0:0:
448,192,86623,128,0,86821:0:0:0:0:
64,192,87018,128,0,87215:0:0:0:0:
192,192,87215,128,0,87413:0:0:0:0:
320,192,87413,128,0,87610:0:0:0:0:
192,192,87610,128,0,87807:0:0:0:0:
64,192,87807,128,0,88005:0:0:0:0:
192,192,88005,128,0,88202:0:0:0:0:
320,192,88202,128,0,88400:0:0:0:0:
448,192,88597,128,0,88794:0:0:0:0:
320,192,88794,128,0,88992:0:0:0:0:
192,192,88992,128,0,89189:0:0:0:0:
320,192,89189,128,0,89386:0:0:0:0:
448,192,89386,128,0,89584:0:0:0:0:
320,192,89584,128,0,89781:0:0:0:0:
192,192,89781,128,0,89979:0:0:0:0:
