osu file format v14

[General]
AudioFilename: ShiED2.mp3
AudioLeadIn: 2000
PreviewTime: 54681
Countdown: 0
SampleSet: Soft
StackLeniency: 0.3
Mode: 0
LetterboxInBreaks: 0
WidescreenStoryboard: 1

[Editor]
DistanceSpacing: 0.7
BeatDivisor: 8
GridSize: 4
TimelineZoom: 2.2

[Metadata]
Title:Orange(Anime Ver.)
TitleUnicode:オレンジ(アニメVer.)
Artist:7!!
ArtistUnicode:7!!
Creator:Lobelia
Version:Kimi no uso
Source:四月は君の嘘
Tags:Shigatsu wa Kimi no Uso Your Lie in April Orenji Ending ED2 TV Size Version NANAE MAIKO MICHIRU KEITA 鈴木 俊介 Shunsuke Suzuki Keiko 中西 康晴 Yasuharu Nakanishi 漆原 直美 Naomi Urushibara 高橋 祐子 Yuko Takahashi シライシ 紗トリ Satori Shiraishi
BeatmapID:1726695
BeatmapSetID:824028

[Difficulty]
HPDrainRate:6.5
CircleSize:5
OverallDifficulty:7
ApproachRate:8
SliderMultiplier:2.6
SliderTickRate:1

[Events]
//Background and Video events
Video,-115,"Usotsuki.avi"
0,0,"uso.jpg",0,0
//Break Periods
//Storyboard Layer 0 (Background)
//Storyboard Layer 1 (Fail)
//Storyboard Layer 2 (Pass)
//Storyboard Layer 3 (Foreground)
//Storyboard Sound Samples

[TimingPoints]
12,697.674418604651,4,2,1,15,1,0
12,-166.666666666667,4,2,1,15,0,0
27918,-125,4,2,1,15,0,0
50942,-100,4,2,1,15,0,0
51639,-83.3333333333333,4,2,1,15,0,0
52337,-71.4285714285714,4,2,1,15,0,0
53035,-55.5555555555556,4,2,1,15,0,0
54081,-71.4285714285714,4,2,1,15,0,0
64198,-58.8235294117647,4,2,1,15,0,0
65244,-100,4,2,1,15,0,0
65942,-71.4285714285714,4,2,1,15,0,0
80942,-100,4,2,1,15,0,0
81639,-71.4285714285714,4,2,1,15,0,0

[Colours]
Combo1 : 251,174,230
Combo2 : 255,170,170
Combo3 : 252,222,173
Combo4 : 174,199,251

[HitObjects]
255,192,12,6,0,B|266:141|221:127|230:87|259:65|287:88|281:113,1,155.999995239258
255,192,2802,6,0,B|306:203|320:158|360:167|382:196|359:224|334:218,1,155.999995239258
267,117,3849,2,0,B|222:115|197:144|197:144|163:122|122:139,1,155.999995239258
255,192,4895,1,0,0:0:0:0:
197,144,5244,1,0,0:0:0:0:
217,260,5593,6,0,B|167:271|145:239|157:207|157:207|185:227|176:252,1,155.999995239258
175,252,6814,5,0,0:0:0:0:
208,332,7337,5,0,0:0:0:0:
301,330,7686,5,0,0:0:0:0:
391,336,8384,6,0,B|396:311|388:291|388:291|405:272|407:242|406:217|378:192,1,155.999995239258
330,247,9779,6,0,B|337:213|337:213|336:203|336:203|343:174|343:174|342:167|342:167|357:89,1,155.999995239258
356,94,11174,6,0,B|323:68|283:72|246:79|238:112|262:138,1,155.999995239258
261,137,12570,6,0,B|197:148|193:119|193:119|188:148|123:132,1,155.999995239258
191,210,13616,1,0,0:0:0:0:
157,333,13965,6,0,B|151:302|165:281|165:281|189:291|212:283|212:283|226:303|217:334,1,155.999995239258
216,334,15360,6,0,B|251:312|291:311|291:311|317:339|362:334,1,155.999995239258
365,192,16407,1,0,0:0:0:0:
347,262,16581,1,0,0:0:0:0:
360,334,16756,5,0,0:0:0:0:
431,314,17105,1,0,0:0:0:0:
478,256,17453,1,0,0:0:0:0:
449,181,17802,6,0,B|478:142|488:93|469:78|469:78|454:92|467:120,1,155.999995239258
466,118,18849,5,0,0:0:0:0:
386,114,19546,6,0,B|379:83|390:60|390:60|369:58|354:73|354:73|323:54|293:68,1,155.999995239258
208,154,20593,5,0,0:0:0:0:
218,76,21639,5,0,0:0:0:0:
295,66,22337,5,0,0:0:0:0:
295,66,23035,5,0,0:0:0:0:
218,76,23384,1,0,0:0:0:0:
218,76,24081,5,0,0:0:0:0:
146,34,24430,1,0,0:0:0:0:
146,34,25128,6,0,P|93:79|150:114,1,155.999995239258
296,71,26174,1,0,0:0:0:0:
218,76,26523,1,0,0:0:0:0:
218,150,26872,1,0,0:0:0:0:
219,226,27221,1,0,0:0:0:0:
243,214,27918,6,0,B|299:199|294:237|344:224,1,104
331,156,28442,1,0,0:0:0:0:
261,285,28616,2,0,B|274:311|259:335|259:335|246:311|261:285,1,104
188,357,29139,1,0,0:0:0:0:
106,357,29314,6,0,P|80:355|42:332,1,52
64,245,29663,1,0,0:0:0:0:
64,245,30011,2,0,B|38:204|44:167|72:152|84:173|70:200,1,104
145,251,30535,1,0,0:0:0:0:
175,170,30709,6,0,P|202:171|233:184,1,52
286,242,31058,1,0,0:0:0:0:
220,301,31232,1,0,0:0:0:0:
363,232,31407,6,0,B|364:215|354:198|354:198|361:186|361:186|349:161|359:132,1,104
434,156,31930,1,0,0:0:0:0:
511,156,32105,2,0,P|509:130|494:107,1,52
341,11,32453,1,0,0:0:0:0:
413,56,32628,1,0,0:0:0:0:
273,60,32802,5,0,0:0:0:0:
21,26,33151,1,0,0:0:0:0:
15,145,33325,1,0,0:0:0:0:
87,75,33500,6,0,B|89:123|89:123|97:131|97:131|91:139|91:139|93:184,1,104
98,252,34023,1,0,0:0:0:0:
238,232,34198,1,0,0:0:0:0:
175,285,34372,1,0,0:0:0:0:
216,357,34546,1,0,0:0:0:0:
297,346,34721,1,0,0:0:0:0:
312,265,34895,6,0,B|330:288|355:295|355:295|378:287|397:265,1,104
356,203,35418,1,0,0:0:0:0:
315,141,35593,1,0,0:0:0:0:
266,200,35767,1,0,0:0:0:0:
312,265,35942,1,0,0:0:0:0:
356,203,36116,1,0,0:0:0:0:
315,89,36291,6,0,P|313:126|317:153,1,52
427,68,36639,2,0,P|408:57|375:45,1,52
247,43,36988,2,0,B|218:45|199:58|199:58|176:48|144:49,1,104
158,128,37511,1,0,0:0:0:0:
66,50,37686,5,0,0:0:0:0:
80,127,38035,1,0,0:0:0:0:
158,128,38384,6,0,L|166:163,2,34.6666666666667
248,120,38732,1,0,0:0:0:0:
242,198,38907,1,0,0:0:0:0:
189,306,39081,6,0,B|179:243|179:243|190:263|215:271,1,104
242,198,39605,1,0,0:0:0:0:
274,313,39779,1,0,0:0:0:0:
352,320,39953,1,0,0:0:0:0:
427,314,40128,1,0,0:0:0:0:
495,278,40302,1,0,0:0:0:0:
385,249,40477,6,0,L|392:190,1,52
460,148,40825,1,0,0:0:0:0:
420,17,41000,2,0,B|407:49|417:86|417:86|434:74|452:72,1,104
460,148,41523,1,0,0:0:0:0:
391,197,41698,1,0,0:0:0:0:
329,84,41872,6,0,P|337:123|334:147,1,52
325,209,42221,1,0,0:0:0:0:
293,276,42395,1,0,0:0:0:0:
213,320,42570,2,0,B|208:300|209:283|209:283|206:275|206:275|218:249|204:212|162:212|143:227|136:255,1,156
68,323,43267,5,0,0:0:0:0:
40,195,43442,1,0,0:0:0:0:
92,306,43616,1,0,0:0:0:0:
69,198,43791,1,0,0:0:0:0:
165,57,43965,5,0,0:0:0:0:
143,192,44139,1,0,0:0:0:0:
190,72,44314,1,0,0:0:0:0:
170,188,44488,1,0,0:0:0:0:
315,39,44663,5,0,0:0:0:0:
344,35,44837,1,0,0:0:0:0:
427,61,45011,1,0,0:0:0:0:
444,85,45186,1,0,0:0:0:0:
357,132,45360,2,0,L|338:183,1,52
414,312,45709,1,0,0:0:0:0:
329,212,45884,1,0,0:0:0:0:
278,308,46058,6,0,L|335:296,1,52
208,347,46407,1,0,0:0:0:0:
178,338,46581,1,0,0:0:0:0:
128,272,46756,1,0,0:0:0:0:
220,232,46930,1,0,0:0:0:0:
277,308,47105,1,0,0:0:0:0:
128,272,47453,6,0,B|92:210|67:234|33:183|46:143|46:143|71:153|100:143,1,208
75,74,48325,1,0,0:0:0:0:
139,29,48500,1,0,0:0:0:0:
165,160,48674,2,0,B|169:130|155:105|155:105|178:101|197:80,1,104
139,29,49198,1,0,0:0:0:0:
75,74,49372,1,0,0:0:0:0:
90,145,49546,1,0,0:0:0:0:
165,160,49721,1,0,0:0:0:0:
242,145,49895,1,0,0:0:0:0:
305,97,50070,1,0,0:0:0:0:
348,34,50244,6,0,P|336:26|319:22,7,26
429,36,50942,6,0,P|451:27|467:26,7,32.5
478,137,51639,6,0,L|468:93,7,38.9999988098145
398,207,52337,6,0,L|408:153,7,45.4999986114502
433,329,53035,6,0,B|375:320|375:320|362:322|362:322|328:316|328:316|314:318|314:318|256:309,1,175.499994644165
188,352,53384,2,0,B|223:343|239:315|239:315|259:310|259:310|247:294|247:294|256:262|219:216|219:216|219:240|202:257,1,233.999992858887
142,212,54081,6,0,B|151:165|189:147|189:147|147:164|121:131|108:88|159:61|159:61|158:5|126:54|126:54|140:72,1,318.499990280152
233,86,54779,6,0,B|249:78|268:78|268:78|279:86|279:86|293:80|322:80|322:80|337:95|375:93,1,136.499995834351
421,38,55128,1,0,0:0:0:0:
410,158,55302,1,0,0:0:0:0:
409,189,55389,1,0,0:0:0:0:
409,221,55477,1,0,0:0:0:0:
387,287,55825,6,0,B|352:327|304:317|304:317|295:268|336:230|336:230|315:208|283:208|283:208|295:171|269:135,1,318.499990280152
211,186,56523,2,0,B|183:206|149:195|149:195|158:180|176:181,1,90.9999972229005
240,76,56872,1,0,0:0:0:0:
273,141,57046,1,0,0:0:0:0:
300,23,57221,5,0,0:0:0:0:
80,85,57570,1,0,0:0:0:0:
504,84,57918,1,0,0:0:0:0:
504,84,58267,1,0,0:0:0:0:
438,140,58442,1,0,0:0:0:0:
485,280,58616,6,0,B|439:259|379:270|379:270|360:309|310:311,1,181.999994445801
234,245,59139,1,0,0:0:0:0:
326,150,59314,2,0,B|307:179|307:179|312:243,1,90.9999972229005
378,92,59663,1,0,0:0:0:0:
438,140,59837,1,0,0:0:0:0:
374,19,60011,5,0,0:0:0:0:
416,345,60360,1,0,0:0:0:0:
217,35,60709,1,0,0:0:0:0:
217,35,61058,1,0,0:0:0:0:
170,107,61232,1,0,0:0:0:0:
20,36,61407,6,0,B|58:68|55:108|28:116|28:116|21:93|50:80|50:80|120:68|170:106|170:106|171:132|153:150,1,318.499990280152
84,176,62105,2,0,B|61:224|82:267|104:255|101:212,1,90.9999972229005
16,286,62453,1,0,0:0:0:0:
88,322,62628,1,0,0:0:0:0:
223,242,62802,5,0,0:0:0:0:
336,24,63151,1,0,0:0:0:0:
377,341,63500,1,0,0:0:0:0:
377,341,63849,1,0,0:0:0:0:
437,281,64023,1,0,0:0:0:0:
332,206,64198,6,0,B|370:193|402:210|402:210|439:195|477:212|477:212|493:183|459:158|439:195,1,221.000004215241
437,281,64721,1,0,0:0:0:0:
396,117,64895,1,0,0:0:0:0:
396,117,65244,6,0,B|395:81|395:81|399:73|399:73|400:51|400:51|402:43|402:43|394:-4|345:0|323:45|362:69,1,195
332,206,65942,6,0,B|286:230|245:209|245:209|231:184|242:159,1,136.499995834351
261,96,66291,1,0,0:0:0:0:
163,177,66465,1,0,0:0:0:0:
278,255,66639,1,0,0:0:0:0:
442,189,66814,1,0,0:0:0:0:
272,334,66988,6,0,B|186:324|227:254|156:248|156:248|156:290,1,181.999994445801
156,276,67686,1,0,0:0:0:0:
453,294,68035,1,0,0:0:0:0:
149,370,68384,1,0,0:0:0:0:
460,205,68732,1,0,0:0:0:0:
84,60,69081,1,0,0:0:0:0:
84,60,69430,1,0,0:0:0:0:
114,140,69605,1,0,0:0:0:0:
263,200,69779,6,0,B|266:165|286:146|324:147|349:176|349:176|345:214|374:237,1,181.999994445801
462,295,70302,1,0,0:0:0:0:
493,178,70477,2,0,B|464:193|423:187|423:187|457:202,1,90.9999972229005
394,105,70825,1,0,0:0:0:0:
361,264,71000,1,0,0:0:0:0:
361,264,71087,1,0,0:0:0:0:
361,264,71174,2,0,P|313:276|267:279,1,90.9999972229005
157,223,71523,2,0,L|166:151,2,60.666664815267
87,284,71872,2,0,B|66:227|66:227|74:166,1,121.333329630534
180,83,72221,1,0,0:0:0:0:
100,91,72395,1,0,0:0:0:0:
261,78,72570,5,0,0:0:0:0:
51,23,72918,1,0,0:0:0:0:
429,19,73267,1,0,0:0:0:0:
429,19,73616,1,0,0:0:0:0:
405,92,73791,1,0,0:0:0:0:
490,195,73965,2,0,L|394:185,1,90.9999972229005
261,263,74314,2,0,L|160:274,1,90.9999972229005
414,329,74663,2,0,L|324:318,1,90.9999972229005
92,235,75011,1,0,0:0:0:0:
96,192,75128,1,0,0:0:0:0:
101,150,75244,1,0,0:0:0:0:
167,119,75360,6,0,B|157:69|107:55|107:55|52:63|42:114,1,181.999994445801
92,235,75884,1,0,0:0:0:0:
229,168,76058,2,0,B|249:146|246:113|246:113|273:139|307:133|319:95|284:63|248:85,1,181.999994445801
167,119,76581,1,0,0:0:0:0:
290,226,76756,2,0,P|327:217|376:180,1,90.9999972229005
468,66,77105,2,0,P|483:111|480:166,1,90.9999972229005
290,226,77453,2,0,P|333:226|374:248,1,90.9999972229005
228,295,77802,2,0,P|201:313|137:322,1,90.9999972229005
56,144,78151,5,0,0:0:0:0:
84,129,78500,1,0,0:0:0:0:
146,51,78849,1,0,0:0:0:0:
172,62,79198,1,0,0:0:0:0:
277,124,79546,1,0,0:0:0:0:
305,109,79895,1,0,0:0:0:0:
430,45,80244,1,0,0:0:0:0:
425,76,80593,1,0,0:0:0:0:
498,249,80942,6,0,B|471:243|453:249|453:249|442:245|442:245|426:251|401:249|401:249|397:226|375:206|343:201|309:210|300:237,1,227.5
343,305,81639,6,0,B|301:236|301:236|288:259|288:259|254:204|187:217|187:217|204:248|205:300|160:341|92:337|81:284|81:284|78:243|127:252|127:252|110:207|135:171|135:171|134:153|134:153|202:115|148:42|148:42|71:92|126:151|126:151|61:178|12:115|14:50|72:5,1,1091.99996667481
256,192,83820,12,0,88965,0:0:0:0:
