osu file format v14

[General]
AudioFilename: audio.mp3
AudioLeadIn: 0
PreviewTime: 95240
Countdown: 1
SampleSet: Soft
StackLeniency: 0.7
Mode: 1
LetterboxInBreaks: 0
WidescreenStoryboard: 1

[Editor]
DistanceSpacing: 0.7
BeatDivisor: 4
GridSize: 32
TimelineZoom: 1.9

[Metadata]
Title:Orange
TitleUnicode:オレンジ
Artist:7!!
ArtistUnicode:7!!
Creator:Vulkin
Version:as they play their last melody together, the world stops to listen
Source:四月は君の嘘
Tags:shigatsu wa kimi no uso your lie in april ending full version seven
BeatmapID:1500465
BeatmapSetID:709749

[Difficulty]
HPDrainRate:4
CircleSize:7
OverallDifficulty:6
ApproachRate:10
SliderMultiplier:1.4
SliderTickRate:1

[Events]
//Background and Video events
0,0,"bgOAO.jpg",0,0
//Break Periods
//Storyboard Layer 0 (Background)
//Storyboard Layer 1 (Fail)
//Storyboard Layer 2 (Pass)
//Storyboard Layer 3 (Foreground)
//Storyboard Sound Samples

[TimingPoints]
23729,697.674418604651,4,2,0,70,1,0
96287,-100,4,2,0,70,0,1
117566,-100,4,2,0,70,0,0
118612,-100,4,2,0,70,0,1
143728,-100,4,2,0,70,0,0
193961,-100,4,2,0,70,0,1
215240,-100,4,2,0,70,0,0
216287,-100,4,2,0,70,0,1
235822,-100,4,2,0,70,0,0
283263,-100,4,2,0,70,0,1
311170,-100,4,2,0,70,0,0
333497,740.740740740741,4,2,0,70,1,0
334237,800,4,2,0,70,1,0
335037,1071.42857142857,4,2,0,70,1,0
335572,937.5,4,2,0,70,1,0
336040,2158.27338129496,4,2,0,70,1,0
337119,1935.48387096774,4,2,0,70,1,0
338086,2068.96551724138,4,2,0,70,1,0

[HitObjects]
256,192,23031,5,0,0:0:0:0:
256,192,23728,1,8,0:0:0:0:
256,192,25822,1,8,0:0:0:0:
256,192,26519,1,0,0:0:0:0:
256,192,27217,1,8,0:0:0:0:
256,192,27566,1,0,0:0:0:0:
256,192,28263,1,0,0:0:0:0:
256,192,28612,1,8,0:0:0:0:
256,192,29310,1,8,0:0:0:0:
256,192,30008,1,8,0:0:0:0:
256,192,31054,1,0,0:0:0:0:
256,192,31403,1,8,0:0:0:0:
256,192,32101,1,8,0:0:0:0:
256,192,32798,1,8,0:0:0:0:
256,192,33147,1,0,0:0:0:0:
256,192,33322,1,0,0:0:0:0:
256,192,33496,1,8,0:0:0:0:
256,192,34194,1,8,0:0:0:0:
256,192,34542,1,0,0:0:0:0:
256,192,34891,1,8,0:0:0:0:
256,192,35589,1,8,0:0:0:0:
256,192,35938,1,8,0:0:0:0:
256,192,36287,1,8,0:0:0:0:
256,192,36984,1,0,0:0:0:0:
256,192,37333,1,8,0:0:0:0:
256,192,37508,1,0,0:0:0:0:
256,192,37682,1,8,0:0:0:0:
256,192,38380,1,0,0:0:0:0:
256,192,38728,1,8,0:0:0:0:
256,192,39077,1,8,0:0:0:0:
256,192,39775,1,0,0:0:0:0:
256,192,40124,1,8,0:0:0:0:
256,192,40298,1,8,0:0:0:0:
256,192,40473,1,8,0:0:0:0:
256,192,41170,1,8,0:0:0:0:
256,192,41519,1,0,0:0:0:0:
256,192,41868,1,8,0:0:0:0:
256,192,42217,1,8,0:0:0:0:
256,192,42566,1,8,0:0:0:0:
256,192,42915,1,0,0:0:0:0:
256,192,43263,1,8,0:0:0:0:
256,192,43961,1,0,0:0:0:0:
256,192,44135,1,8,0:0:0:0:
256,192,44310,1,0,0:0:0:0:
256,192,44484,1,8,0:0:0:0:
256,192,44659,1,0,0:0:0:0:
256,192,45008,1,8,0:0:0:0:
256,192,45182,1,8,0:0:0:0:
256,192,45356,1,8,0:0:0:0:
256,192,45705,1,8,0:0:0:0:
256,192,46054,1,0,0:0:0:0:
256,192,46752,1,8,0:0:0:0:
256,192,47798,1,8,0:0:0:0:
256,192,48147,1,8,0:0:0:0:
256,192,48496,1,0,0:0:0:0:
256,192,48670,1,8,0:0:0:0:
256,192,48845,1,0,0:0:0:0:
256,192,49194,1,0,0:0:0:0:
256,192,49542,1,8,0:0:0:0:
256,192,49891,1,0,0:0:0:0:
256,192,51635,1,8,0:0:0:0:
256,192,52333,1,8,0:0:0:0:
256,192,52682,1,8,0:0:0:0:
256,192,52856,1,8,0:0:0:0:
256,192,53031,1,0,0:0:0:0:
256,192,53380,1,0,0:0:0:0:
256,192,53728,1,8,0:0:0:0:
256,192,54426,1,0,0:0:0:0:
256,192,55124,1,8,0:0:0:0:
256,192,55473,1,0,0:0:0:0:
256,192,55647,1,8,0:0:0:0:
256,192,55822,1,0,0:0:0:0:
256,192,56170,1,0,0:0:0:0:
256,192,56519,1,8,0:0:0:0:
256,192,56868,1,0,0:0:0:0:
256,192,57042,1,0,0:0:0:0:
256,192,57217,1,8,0:0:0:0:
256,192,57915,1,8,0:0:0:0:
256,192,58263,1,0,0:0:0:0:
256,192,58438,1,0,0:0:0:0:
256,192,58612,1,8,0:0:0:0:
256,192,58961,1,0,0:0:0:0:
256,192,59310,1,8,0:0:0:0:
256,192,60008,1,8,0:0:0:0:
256,192,60356,1,0,0:0:0:0:
256,192,60705,1,8,0:0:0:0:
256,192,61054,1,8,0:0:0:0:
256,192,61403,1,8,0:0:0:0:
256,192,61577,1,0,0:0:0:0:
256,192,61752,1,0,0:0:0:0:
256,192,61926,1,8,0:0:0:0:
256,192,62275,1,0,0:0:0:0:
256,192,62624,1,0,0:0:0:0:
256,192,62798,1,8,0:0:0:0:
256,192,63496,1,8,0:0:0:0:
256,192,63845,1,0,0:0:0:0:
256,192,64194,1,8,0:0:0:0:
256,192,64542,1,0,0:0:0:0:
256,192,64717,1,0,0:0:0:0:
256,192,64891,1,0,0:0:0:0:
256,192,65240,1,8,0:0:0:0:
256,192,65589,1,8,0:0:0:0:
256,192,65938,1,0,0:0:0:0:
256,192,66287,1,8,0:0:0:0:
256,192,66635,1,8,0:0:0:0:
256,192,66810,1,0,0:0:0:0:
256,192,66984,1,0,0:0:0:0:
256,192,67159,1,8,0:0:0:0:
256,192,67333,1,0,0:0:0:0:
256,192,67682,1,8,0:0:0:0:
256,192,67856,1,0,0:0:0:0:
256,192,68380,1,0,0:0:0:0:
256,192,68728,1,0,0:0:0:0:
256,192,68903,1,0,0:0:0:0:
256,192,69077,1,8,0:0:0:0:
256,192,69426,1,0,0:0:0:0:
256,192,69601,1,8,0:0:0:0:
256,192,69775,1,8,0:0:0:0:
256,192,69949,1,0,0:0:0:0:
256,192,70124,1,0,0:0:0:0:
256,192,70473,1,8,0:0:0:0:
256,192,70822,1,0,0:0:0:0:
256,192,70996,1,0,0:0:0:0:
256,192,71170,1,8,0:0:0:0:
256,192,71519,1,0,0:0:0:0:
256,192,71694,1,0,0:0:0:0:
256,192,71868,1,8,0:0:0:0:
256,192,72217,1,8,0:0:0:0:
256,192,72391,1,0,0:0:0:0:
256,192,72566,1,8,0:0:0:0:
256,192,72740,1,8,0:0:0:0:
256,192,72915,1,0,0:0:0:0:
256,192,73089,1,8,0:0:0:0:
256,192,73438,1,0,0:0:0:0:
256,192,73787,1,0,0:0:0:0:
256,192,73961,1,8,0:0:0:0:
256,192,74310,1,0,0:0:0:0:
256,192,74484,1,0,0:0:0:0:
256,192,74833,1,8,0:0:0:0:
256,192,75008,1,0,0:0:0:0:
256,192,75182,1,0,0:0:0:0:
256,192,75356,1,8,0:0:0:0:
256,192,75705,1,0,0:0:0:0:
256,192,76054,1,0,0:0:0:0:
256,192,76403,1,8,0:0:0:0:
256,192,76752,1,8,0:0:0:0:
256,192,76926,1,0,0:0:0:0:
256,192,77101,1,8,0:0:0:0:
256,192,77275,1,8,0:0:0:0:
256,192,77449,1,0,0:0:0:0:
256,192,77624,1,0,0:0:0:0:
256,192,77798,1,8,0:0:0:0:
256,192,77973,1,0,0:0:0:0:
256,192,78147,1,8,0:0:0:0:
256,192,78496,1,8,0:0:0:0:
256,192,78845,1,0,0:0:0:0:
256,192,79194,1,8,0:0:0:0:
256,192,79542,1,0,0:0:0:0:
256,192,79891,1,8,0:0:0:0:
256,192,80066,1,0,0:0:0:0:
256,192,80240,1,8,0:0:0:0:
256,192,80589,1,0,0:0:0:0:
256,192,80763,1,0,0:0:0:0:
256,192,80938,1,8,0:0:0:0:
256,192,81112,1,0,0:0:0:0:
256,192,81287,1,0,0:0:0:0:
256,192,81461,1,8,0:0:0:0:
256,192,81810,1,0,0:0:0:0:
256,192,82159,1,0,0:0:0:0:
256,192,82333,1,8,0:0:0:0:
256,192,82682,1,0,0:0:0:0:
256,192,83031,1,8,0:0:0:0:
256,192,83380,1,8,0:0:0:0:
256,192,83554,1,0,0:0:0:0:
256,192,83728,1,8,0:0:0:0:
256,192,83903,1,8,0:0:0:0:
256,192,84077,1,0,0:0:0:0:
256,192,84252,1,8,0:0:0:0:
256,192,84601,1,0,0:0:0:0:
256,192,84949,1,0,0:0:0:0:
256,192,85124,1,8,0:0:0:0:
256,192,85822,1,8,0:0:0:0:
256,192,86170,1,0,0:0:0:0:
256,192,86345,1,0,0:0:0:0:
256,192,86519,1,8,0:0:0:0:
256,192,86868,1,0,0:0:0:0:
256,192,87217,1,8,0:0:0:0:
256,192,87566,1,0,0:0:0:0:
256,192,87915,1,8,0:0:0:0:
256,192,88612,1,8,0:0:0:0:
256,192,88787,1,0,0:0:0:0:
256,192,88961,1,0,0:0:0:0:
256,192,89135,1,8,0:0:0:0:
256,192,89484,1,8,0:0:0:0:
256,192,89659,1,0,0:0:0:0:
256,192,90008,1,8,0:0:0:0:
256,192,90182,1,8,0:0:0:0:
256,192,90356,1,0,0:0:0:0:
256,192,90531,1,0,0:0:0:0:
256,192,90705,1,8,0:0:0:0:
256,192,91054,12,0,92798,0:0:0:0:
256,192,93496,5,12,0:0:0:0:
256,192,93845,1,12,0:0:0:0:
256,192,94194,1,0,0:0:0:0:
256,192,94542,1,12,0:0:0:0:
256,192,95240,1,8,0:0:0:0:
256,192,95415,1,0,0:0:0:0:
256,192,95589,1,8,0:0:0:0:
256,192,95763,1,8,0:0:0:0:
256,192,95938,1,0,0:0:0:0:
256,192,96287,1,12,0:0:0:0:
256,192,96984,1,8,0:0:0:0:
256,192,97333,1,0,0:0:0:0:
256,192,97508,1,0,0:0:0:0:
256,192,97682,1,8,0:0:0:0:
256,192,98031,1,0,0:0:0:0:
256,192,98380,1,8,0:0:0:0:
256,192,98728,1,8,0:0:0:0:
256,192,98903,1,0,0:0:0:0:
256,192,99077,1,8,0:0:0:0:
256,192,99252,1,8,0:0:0:0:
256,192,99426,1,0,0:0:0:0:
256,192,99775,1,8,0:0:0:0:
256,192,100124,1,0,0:0:0:0:
256,192,100298,1,0,0:0:0:0:
256,192,100473,1,8,0:0:0:0:
256,192,100822,1,0,0:0:0:0:
256,192,101170,1,8,0:0:0:0:
256,192,101519,1,0,0:0:0:0:
256,192,101868,1,8,0:0:0:0:
256,192,102217,1,8,0:0:0:0:
256,192,102391,1,8,0:0:0:0:
256,192,102566,1,8,0:0:0:0:
256,192,102915,1,0,0:0:0:0:
256,192,103089,1,0,0:0:0:0:
256,192,103263,1,8,0:0:0:0:
256,192,103438,1,8,0:0:0:0:
256,192,103612,1,0,0:0:0:0:
256,192,103961,1,8,0:0:0:0:
256,192,104310,1,8,0:0:0:0:
256,192,104484,1,0,0:0:0:0:
256,192,104659,1,8,0:0:0:0:
256,192,104833,1,8,0:0:0:0:
256,192,105008,1,0,0:0:0:0:
256,192,105182,1,8,0:0:0:0:
256,192,105531,1,0,0:0:0:0:
256,192,105705,1,8,0:0:0:0:
256,192,106054,1,0,0:0:0:0:
256,192,106228,1,8,0:0:0:0:
256,192,106403,1,0,0:0:0:0:
256,192,106752,1,8,0:0:0:0:
256,192,106926,1,8,0:0:0:0:
256,192,107101,1,0,0:0:0:0:
256,192,107275,1,0,0:0:0:0:
256,192,107449,1,8,0:0:0:0:
256,192,107798,1,0,0:0:0:0:
256,192,107973,1,0,0:0:0:0:
256,192,108147,1,8,0:0:0:0:
256,192,108496,1,0,0:0:0:0:
256,192,108845,1,8,0:0:0:0:
256,192,109019,1,0,0:0:0:0:
256,192,109194,1,8,0:0:0:0:
256,192,109368,1,8,0:0:0:0:
256,192,109542,1,8,0:0:0:0:
256,192,109891,1,0,0:0:0:0:
256,192,110066,1,0,0:0:0:0:
256,192,110240,1,8,0:0:0:0:
256,192,110415,1,0,0:0:0:0:
256,192,110589,1,0,0:0:0:0:
256,192,110763,1,8,0:0:0:0:
256,192,110938,1,0,0:0:0:0:
256,192,111112,1,8,0:0:0:0:
256,192,111287,1,0,0:0:0:0:
256,192,111635,1,8,0:0:0:0:
256,192,111984,1,0,0:0:0:0:
256,192,112159,1,0,0:0:0:0:
256,192,112333,1,8,0:0:0:0:
256,192,112682,1,0,0:0:0:0:
256,192,113031,1,8,0:0:0:0:
256,192,113380,1,8,0:0:0:0:
256,192,113554,1,0,0:0:0:0:
256,192,113903,1,0,0:0:0:0:
256,192,114077,1,8,0:0:0:0:
256,192,114426,1,0,0:0:0:0:
256,192,114601,1,8,0:0:0:0:
256,192,114775,1,0,0:0:0:0:
256,192,114949,1,0,0:0:0:0:
256,192,115124,1,8,0:0:0:0:
256,192,115298,1,8,0:0:0:0:
256,192,115473,1,0,0:0:0:0:
256,192,115647,1,0,0:0:0:0:
256,192,115822,1,8,0:0:0:0:
256,192,116170,1,8,0:0:0:0:
256,192,116345,1,0,0:0:0:0:
256,192,116694,1,0,0:0:0:0:
256,192,116868,1,8,0:0:0:0:
256,192,117217,1,0,0:0:0:0:
256,192,117391,1,0,0:0:0:0:
256,192,117566,1,8,0:0:0:0:
256,192,117740,1,0,0:0:0:0:
256,192,117915,1,8,0:0:0:0:
256,192,118089,1,8,0:0:0:0:
256,192,118263,1,0,0:0:0:0:
256,192,118612,1,12,0:0:0:0:
256,192,118961,1,0,0:0:0:0:
256,192,119135,1,0,0:0:0:0:
256,192,119310,1,8,0:0:0:0:
256,192,119659,1,8,0:0:0:0:
256,192,119833,1,0,0:0:0:0:
256,192,120008,1,8,0:0:0:0:
256,192,120182,1,8,0:0:0:0:
256,192,120356,1,0,0:0:0:0:
256,192,120705,1,8,0:0:0:0:
256,192,121054,1,0,0:0:0:0:
256,192,121228,1,0,0:0:0:0:
256,192,121403,1,8,0:0:0:0:
256,192,121752,1,8,0:0:0:0:
256,192,121926,1,0,0:0:0:0:
256,192,122275,1,8,0:0:0:0:
256,192,122449,1,8,0:0:0:0:
256,192,122798,1,0,0:0:0:0:
256,192,122973,1,8,0:0:0:0:
256,192,123147,1,0,0:0:0:0:
256,192,123322,1,0,0:0:0:0:
256,192,123496,1,8,0:0:0:0:
256,192,123845,1,0,0:0:0:0:
256,192,124019,1,0,0:0:0:0:
256,192,124194,1,8,0:0:0:0:
256,192,124542,1,8,0:0:0:0:
256,192,124717,1,0,0:0:0:0:
256,192,124891,1,8,0:0:0:0:
256,192,125240,1,0,0:0:0:0:
256,192,125415,1,8,0:0:0:0:
256,192,125589,1,8,0:0:0:0:
256,192,125763,1,8,0:0:0:0:
256,192,125938,1,0,0:0:0:0:
256,192,126287,1,8,0:0:0:0:
256,192,126461,1,0,0:0:0:0:
256,192,126635,1,0,0:0:0:0:
256,192,126810,1,0,0:0:0:0:
256,192,126984,1,8,0:0:0:0:
256,192,127333,1,0,0:0:0:0:
256,192,127508,1,8,0:0:0:0:
256,192,127682,1,0,0:0:0:0:
256,192,127856,1,8,0:0:0:0:
256,192,128031,1,8,0:0:0:0:
256,192,128380,1,0,0:0:0:0:
256,192,128554,1,0,0:0:0:0:
256,192,128728,1,8,0:0:0:0:
256,192,129077,1,8,0:0:0:0:
256,192,129252,1,8,0:0:0:0:
256,192,129426,1,0,0:0:0:0:
256,192,129601,1,0,0:0:0:0:
256,192,129775,1,12,0:0:0:0:
256,192,130124,1,8,0:0:0:0:
256,192,130298,1,0,0:0:0:0:
256,192,130473,1,8,0:0:0:0:
256,192,130647,1,8,0:0:0:0:
256,192,130822,1,0,0:0:0:0:
256,192,131170,1,8,0:0:0:0:
256,192,131519,1,0,0:0:0:0:
256,192,131694,1,0,0:0:0:0:
256,192,131868,1,8,0:0:0:0:
256,192,132217,1,8,0:0:0:0:
256,192,132391,1,0,0:0:0:0:
256,192,132566,1,8,0:0:0:0:
256,192,132740,1,8,0:0:0:0:
256,192,132915,1,0,0:0:0:0:
256,192,133089,1,8,0:0:0:0:
256,192,133263,1,0,0:0:0:0:
256,192,133438,1,8,0:0:0:0:
256,192,133612,1,0,0:0:0:0:
256,192,133787,1,0,0:0:0:0:
256,192,133961,1,8,0:0:0:0:
256,192,134310,1,0,0:0:0:0:
256,192,134659,1,8,0:0:0:0:
256,192,135008,1,0,0:0:0:0:
256,192,135182,1,0,0:0:0:0:
256,192,135356,1,8,0:0:0:0:
256,192,135705,1,0,0:0:0:0:
256,192,135880,1,0,0:0:0:0:
256,192,136228,1,8,0:0:0:0:
256,192,136403,1,0,0:0:0:0:
256,192,136577,1,0,0:0:0:0:
256,192,136752,1,8,0:0:0:0:
256,192,137101,1,8,0:0:0:0:
256,192,137275,1,0,0:0:0:0:
256,192,137624,1,0,0:0:0:0:
256,192,137798,1,8,0:0:0:0:
256,192,138147,1,0,0:0:0:0:
256,192,138496,1,0,0:0:0:0:
256,192,138670,1,0,0:0:0:0:
256,192,138845,1,8,0:0:0:0:
256,192,139194,1,0,0:0:0:0:
256,192,139368,1,8,0:0:0:0:
256,192,139542,1,8,0:0:0:0:
256,192,139717,1,8,0:0:0:0:
256,192,139891,1,0,0:0:0:0:
256,192,140066,1,0,0:0:0:0:
256,192,140240,1,8,0:0:0:0:
256,192,140415,1,0,0:0:0:0:
256,192,140589,1,0,0:0:0:0:
256,192,140938,1,12,0:0:0:0:
256,192,141287,1,0,0:0:0:0:
256,192,141635,1,8,0:0:0:0:
256,192,141810,1,8,0:0:0:0:
256,192,141984,1,0,0:0:0:0:
256,192,142159,1,8,0:0:0:0:
256,192,142508,1,8,0:0:0:0:
256,192,142682,1,0,0:0:0:0:
256,192,142856,1,0,0:0:0:0:
256,192,143031,1,8,0:0:0:0:
256,192,143205,1,8,0:0:0:0:
256,192,143380,1,0,0:0:0:0:
256,192,143728,1,8,0:0:0:0:
256,192,144426,1,8,0:0:0:0:
256,192,144775,1,0,0:0:0:0:
256,192,144949,1,8,0:0:0:0:
256,192,145124,1,0,0:0:0:0:
256,192,145473,1,8,0:0:0:0:
256,192,145647,1,8,0:0:0:0:
256,192,145996,1,0,0:0:0:0:
256,192,146170,1,8,0:0:0:0:
256,192,146345,1,8,0:0:0:0:
256,192,146519,1,0,0:0:0:0:
256,192,146868,1,0,0:0:0:0:
256,192,147217,1,8,0:0:0:0:
256,192,147566,1,0,0:0:0:0:
256,192,148263,1,0,0:0:0:0:
256,192,148612,1,8,0:0:0:0:
256,192,148961,1,8,0:0:0:0:
256,192,149310,1,0,0:0:0:0:
256,192,150008,1,8,0:0:0:0:
256,192,150356,1,0,0:0:0:0:
256,192,150531,1,0,0:0:0:0:
256,192,150705,1,8,0:0:0:0:
256,192,151054,1,8,0:0:0:0:
256,192,151403,1,0,0:0:0:0:
256,192,151752,1,8,0:0:0:0:
256,192,151926,1,8,0:0:0:0:
256,192,152101,1,0,0:0:0:0:
256,192,152449,1,0,0:0:0:0:
256,192,152798,1,8,0:0:0:0:
256,192,153147,1,8,0:0:0:0:
256,192,153496,1,0,0:0:0:0:
256,192,153845,1,0,0:0:0:0:
256,192,154194,1,8,0:0:0:0:
256,192,154542,1,0,0:0:0:0:
256,192,154717,1,0,0:0:0:0:
256,192,154891,1,8,0:0:0:0:
256,192,155240,1,0,0:0:0:0:
256,192,155415,1,8,0:0:0:0:
256,192,155589,1,0,0:0:0:0:
256,192,155763,1,8,0:0:0:0:
256,192,155938,1,0,0:0:0:0:
256,192,156287,1,8,0:0:0:0:
256,192,156984,1,8,0:0:0:0:
256,192,157333,1,0,0:0:0:0:
256,192,157508,1,0,0:0:0:0:
256,192,157682,1,8,0:0:0:0:
256,192,158031,1,0,0:0:0:0:
256,192,158205,1,8,0:0:0:0:
256,192,158380,1,8,0:0:0:0:
256,192,158554,1,8,0:0:0:0:
256,192,158728,1,0,0:0:0:0:
256,192,159077,1,8,0:0:0:0:
256,192,159426,1,0,0:0:0:0:
256,192,159775,1,8,0:0:0:0:
256,192,160124,1,8,0:0:0:0:
256,192,160298,1,0,0:0:0:0:
256,192,160473,1,8,0:0:0:0:
256,192,160822,1,0,0:0:0:0:
256,192,160996,1,0,0:0:0:0:
256,192,161170,1,8,0:0:0:0:
256,192,161519,1,0,0:0:0:0:
256,192,161868,1,8,0:0:0:0:
256,192,162217,1,0,0:0:0:0:
256,192,162566,1,8,0:0:0:0:
256,192,162915,1,8,0:0:0:0:
256,192,163089,1,8,0:0:0:0:
256,192,163263,1,0,0:0:0:0:
256,192,163438,1,8,0:0:0:0:
256,192,163612,1,0,0:0:0:0:
256,192,163961,1,8,0:0:0:0:
256,192,164310,1,0,0:0:0:0:
256,192,164484,1,8,0:0:0:0:
256,192,164659,1,8,0:0:0:0:
256,192,164833,1,8,0:0:0:0:
256,192,165008,1,0,0:0:0:0:
256,192,165182,1,0,0:0:0:0:
256,192,165356,1,8,0:0:0:0:
256,192,165531,1,0,0:0:0:0:
256,192,165705,1,0,0:0:0:0:
256,192,166054,1,12,0:0:0:0:
256,192,166403,1,0,0:0:0:0:
256,192,166577,1,0,0:0:0:0:
256,192,166752,1,8,0:0:0:0:
256,192,167101,1,8,0:0:0:0:
256,192,167275,1,0,0:0:0:0:
256,192,167449,1,8,0:0:0:0:
256,192,167624,1,8,0:0:0:0:
256,192,167798,1,0,0:0:0:0:
256,192,168147,1,8,0:0:0:0:
256,192,168496,1,0,0:0:0:0:
256,192,168670,1,0,0:0:0:0:
256,192,168845,1,8,0:0:0:0:
256,192,169194,1,0,0:0:0:0:
256,192,169542,1,8,0:0:0:0:
256,192,169891,1,0,0:0:0:0:
256,192,170066,1,8,0:0:0:0:
256,192,170240,1,0,0:0:0:0:
256,192,170415,1,8,0:0:0:0:
256,192,170589,1,0,0:0:0:0:
256,192,170763,1,0,0:0:0:0:
256,192,170938,1,8,0:0:0:0:
256,192,171287,1,0,0:0:0:0:
256,192,171461,1,0,0:0:0:0:
256,192,171635,1,8,0:0:0:0:
256,192,171984,1,0,0:0:0:0:
256,192,172333,1,8,0:0:0:0:
256,192,172682,1,0,0:0:0:0:
256,192,172856,1,8,0:0:0:0:
256,192,173031,1,8,0:0:0:0:
256,192,173205,1,8,0:0:0:0:
256,192,173380,1,0,0:0:0:0:
256,192,173728,1,8,0:0:0:0:
256,192,174077,1,0,0:0:0:0:
256,192,174252,1,8,0:0:0:0:
256,192,174426,1,0,0:0:0:0:
256,192,174775,1,0,0:0:0:0:
256,192,175124,1,8,0:0:0:0:
256,192,175473,1,0,0:0:0:0:
256,192,175647,1,8,0:0:0:0:
256,192,175822,1,8,0:0:0:0:
256,192,175996,1,8,0:0:0:0:
256,192,176170,1,0,0:0:0:0:
256,192,176519,1,8,0:0:0:0:
256,192,176868,1,0,0:0:0:0:
256,192,177042,1,8,0:0:0:0:
256,192,177217,1,4,0:0:0:0:
256,192,177915,1,8,0:0:0:0:
256,192,178263,1,0,0:0:0:0:
256,192,178438,1,0,0:0:0:0:
256,192,178612,1,8,0:0:0:0:
256,192,178787,1,8,0:0:0:0:
256,192,178961,1,0,0:0:0:0:
256,192,179310,1,8,0:0:0:0:
256,192,179659,1,0,0:0:0:0:
256,192,179833,1,0,0:0:0:0:
256,192,180008,1,8,0:0:0:0:
256,192,180356,1,0,0:0:0:0:
256,192,180705,1,8,0:0:0:0:
256,192,181054,1,0,0:0:0:0:
256,192,181228,1,8,0:0:0:0:
256,192,181403,1,8,0:0:0:0:
256,192,181577,1,0,0:0:0:0:
256,192,181752,1,0,0:0:0:0:
256,192,181926,1,8,0:0:0:0:
256,192,182101,1,8,0:0:0:0:
256,192,182449,1,0,0:0:0:0:
256,192,182624,1,0,0:0:0:0:
256,192,182798,1,8,0:0:0:0:
256,192,183147,1,0,0:0:0:0:
256,192,183496,1,8,0:0:0:0:
256,192,183845,1,0,0:0:0:0:
256,192,184019,1,8,0:0:0:0:
256,192,184194,1,8,0:0:0:0:
256,192,184368,1,8,0:0:0:0:
256,192,184542,1,0,0:0:0:0:
256,192,184717,1,0,0:0:0:0:
256,192,184891,1,8,0:0:0:0:
256,192,185066,1,0,0:0:0:0:
256,192,185240,1,0,0:0:0:0:
256,192,185589,1,8,0:0:0:0:
256,192,185938,1,0,0:0:0:0:
256,192,186112,1,0,0:0:0:0:
256,192,186287,1,8,0:0:0:0:
256,192,186635,1,8,0:0:0:0:
256,192,186810,1,0,0:0:0:0:
256,192,186984,1,8,0:0:0:0:
256,192,187159,1,8,0:0:0:0:
256,192,187333,1,0,0:0:0:0:
256,192,187682,1,8,0:0:0:0:
256,192,187856,1,0,0:0:0:0:
256,192,188031,1,0,0:0:0:0:
256,192,188205,1,0,0:0:0:0:
256,192,188380,1,12,0:0:0:0:
256,192,188728,12,0,190473,0:0:0:0:
256,192,191170,5,12,0:0:0:0:
256,192,191519,1,12,0:0:0:0:
256,192,191868,1,0,0:0:0:0:
256,192,192217,1,12,0:0:0:0:
256,192,192915,1,8,0:0:0:0:
256,192,193089,1,0,0:0:0:0:
256,192,193263,1,8,0:0:0:0:
256,192,193438,1,8,0:0:0:0:
256,192,193612,1,0,0:0:0:0:
256,192,193961,1,12,0:0:0:0:
256,192,194310,1,0,0:0:0:0:
256,192,194659,1,8,0:0:0:0:
256,192,195008,1,0,0:0:0:0:
256,192,195182,1,8,0:0:0:0:
256,192,195356,1,8,0:0:0:0:
256,192,195531,1,8,0:0:0:0:
256,192,195705,1,0,0:0:0:0:
256,192,196054,1,8,0:0:0:0:
256,192,196403,1,0,0:0:0:0:
256,192,196577,1,0,0:0:0:0:
256,192,196752,1,8,0:0:0:0:
256,192,197101,1,8,0:0:0:0:
256,192,197275,1,0,0:0:0:0:
256,192,197449,1,8,0:0:0:0:
256,192,197624,1,8,0:0:0:0:
256,192,197798,1,0,0:0:0:0:
256,192,197973,1,0,0:0:0:0:
256,192,198147,1,8,0:0:0:0:
256,192,198496,1,0,0:0:0:0:
256,192,198845,1,8,0:0:0:0:
256,192,199194,1,0,0:0:0:0:
256,192,199368,1,0,0:0:0:0:
256,192,199542,1,8,0:0:0:0:
256,192,199891,1,8,0:0:0:0:
256,192,200066,1,0,0:0:0:0:
256,192,200240,1,8,0:0:0:0:
256,192,200589,1,0,0:0:0:0:
256,192,200763,1,8,0:0:0:0:
256,192,200938,1,8,0:0:0:0:
256,192,201112,1,8,0:0:0:0:
256,192,201287,1,0,0:0:0:0:
256,192,201635,1,8,0:0:0:0:
256,192,201984,1,0,0:0:0:0:
256,192,202159,1,0,0:0:0:0:
256,192,202333,1,8,0:0:0:0:
256,192,202508,1,0,0:0:0:0:
256,192,202682,1,0,0:0:0:0:
256,192,202856,1,8,0:0:0:0:
256,192,203031,1,0,0:0:0:0:
256,192,203205,1,8,0:0:0:0:
256,192,203380,1,8,0:0:0:0:
256,192,203728,1,0,0:0:0:0:
256,192,204077,1,0,0:0:0:0:
256,192,204252,1,0,0:0:0:0:
256,192,204426,1,8,0:0:0:0:
256,192,204601,1,0,0:0:0:0:
256,192,204775,1,0,0:0:0:0:
256,192,205124,1,12,0:0:0:0:
256,192,205473,1,0,0:0:0:0:
256,192,205647,1,0,0:0:0:0:
256,192,205822,1,8,0:0:0:0:
256,192,206170,1,8,0:0:0:0:
256,192,206345,1,0,0:0:0:0:
256,192,206519,1,8,0:0:0:0:
256,192,206694,1,8,0:0:0:0:
256,192,206868,1,0,0:0:0:0:
256,192,207217,1,8,0:0:0:0:
256,192,207566,1,0,0:0:0:0:
256,192,207740,1,0,0:0:0:0:
256,192,207915,1,8,0:0:0:0:
256,192,208263,1,8,0:0:0:0:
256,192,208438,1,0,0:0:0:0:
256,192,208612,1,8,0:0:0:0:
256,192,208787,1,8,0:0:0:0:
256,192,208961,1,0,0:0:0:0:
256,192,209135,1,0,0:0:0:0:
256,192,209310,1,8,0:0:0:0:
256,192,209659,1,0,0:0:0:0:
256,192,210008,1,8,0:0:0:0:
256,192,210356,1,0,0:0:0:0:
256,192,210531,1,0,0:0:0:0:
256,192,210705,1,8,0:0:0:0:
256,192,210880,1,0,0:0:0:0:
256,192,211054,1,0,0:0:0:0:
256,192,211228,1,8,0:0:0:0:
256,192,211403,1,0,0:0:0:0:
256,192,211577,1,0,0:0:0:0:
256,192,211752,1,8,0:0:0:0:
256,192,211926,1,0,0:0:0:0:
256,192,212101,1,8,0:0:0:0:
256,192,212449,1,0,0:0:0:0:
256,192,212624,1,0,0:0:0:0:
256,192,212798,1,8,0:0:0:0:
256,192,212973,1,0,0:0:0:0:
256,192,213147,1,0,0:0:0:0:
256,192,213322,1,8,0:0:0:0:
256,192,213496,1,8,0:0:0:0:
256,192,213670,1,8,0:0:0:0:
256,192,213845,1,0,0:0:0:0:
256,192,214019,1,8,0:0:0:0:
256,192,214368,1,0,0:0:0:0:
256,192,214542,1,8,0:0:0:0:
256,192,214891,1,0,0:0:0:0:
256,192,215240,1,8,0:0:0:0:
256,192,215415,1,0,0:0:0:0:
256,192,215589,1,8,0:0:0:0:
256,192,215763,1,8,0:0:0:0:
256,192,215938,1,0,0:0:0:0:
256,192,216287,1,12,0:0:0:0:
256,192,216635,1,0,0:0:0:0:
256,192,216810,1,0,0:0:0:0:
256,192,216984,1,8,0:0:0:0:
256,192,217333,1,0,0:0:0:0:
256,192,217508,1,8,0:0:0:0:
256,192,217682,1,8,0:0:0:0:
256,192,217856,1,8,0:0:0:0:
256,192,218031,1,0,0:0:0:0:
256,192,218205,1,0,0:0:0:0:
256,192,218380,1,8,0:0:0:0:
256,192,218554,1,8,0:0:0:0:
256,192,218728,1,0,0:0:0:0:
256,192,218903,1,0,0:0:0:0:
256,192,219077,1,8,0:0:0:0:
256,192,219426,1,0,0:0:0:0:
256,192,219601,1,8,0:0:0:0:
256,192,219775,1,0,0:0:0:0:
256,192,219949,1,8,0:0:0:0:
256,192,220124,1,0,0:0:0:0:
256,192,220298,1,0,0:0:0:0:
256,192,220473,1,8,0:0:0:0:
256,192,220822,1,0,0:0:0:0:
256,192,220996,1,8,0:0:0:0:
256,192,221170,1,8,0:0:0:0:
256,192,221345,1,8,0:0:0:0:
256,192,221519,1,0,0:0:0:0:
256,192,221694,1,0,0:0:0:0:
256,192,221868,1,8,0:0:0:0:
256,192,222217,1,0,0:0:0:0:
256,192,222566,1,8,0:0:0:0:
256,192,222915,1,0,0:0:0:0:
256,192,223089,1,8,0:0:0:0:
256,192,223263,1,8,0:0:0:0:
256,192,223438,1,8,0:0:0:0:
256,192,223612,1,0,0:0:0:0:
256,192,223961,1,8,0:0:0:0:
256,192,224135,1,0,0:0:0:0:
256,192,224310,1,8,0:0:0:0:
256,192,224484,1,8,0:0:0:0:
256,192,224659,1,8,0:0:0:0:
256,192,224833,1,0,0:0:0:0:
256,192,225008,1,0,0:0:0:0:
256,192,225182,1,8,0:0:0:0:
256,192,225356,1,0,0:0:0:0:
256,192,225705,1,8,0:0:0:0:
256,192,226054,1,0,0:0:0:0:
256,192,226228,1,0,0:0:0:0:
256,192,226403,1,8,0:0:0:0:
256,192,226577,1,0,0:0:0:0:
256,192,226752,1,8,0:0:0:0:
256,192,226926,1,8,0:0:0:0:
256,192,227101,1,0,0:0:0:0:
256,192,227449,1,12,0:0:0:0:
256,192,227798,1,0,0:0:0:0:
256,192,227973,1,0,0:0:0:0:
256,192,228147,1,8,0:0:0:0:
256,192,228496,1,8,0:0:0:0:
256,192,228670,1,0,0:0:0:0:
256,192,228845,1,8,0:0:0:0:
256,192,229019,1,8,0:0:0:0:
256,192,229194,1,0,0:0:0:0:
256,192,229542,1,8,0:0:0:0:
256,192,229891,1,0,0:0:0:0:
256,192,230066,1,0,0:0:0:0:
256,192,230240,1,8,0:0:0:0:
256,192,230589,1,8,0:0:0:0:
256,192,230763,1,0,0:0:0:0:
256,192,231112,1,8,0:0:0:0:
256,192,231287,1,0,0:0:0:0:
256,192,231461,1,0,0:0:0:0:
256,192,231635,1,8,0:0:0:0:
256,192,231984,1,0,0:0:0:0:
256,192,232333,1,8,0:0:0:0:
256,192,232682,1,0,0:0:0:0:
256,192,232856,1,0,0:0:0:0:
256,192,233031,1,8,0:0:0:0:
256,192,233380,1,0,0:0:0:0:
256,192,233554,1,8,0:0:0:0:
256,192,233903,1,0,0:0:0:0:
256,192,234077,1,0,0:0:0:0:
256,192,234252,1,8,0:0:0:0:
256,192,234426,1,8,0:0:0:0:
256,192,234601,1,8,0:0:0:0:
256,192,234775,1,0,0:0:0:0:
256,192,235124,1,8,0:0:0:0:
256,192,235473,1,0,0:0:0:0:
256,192,235647,1,0,0:0:0:0:
256,192,235822,1,8,0:0:0:0:
256,192,236170,1,0,0:0:0:0:
256,192,236519,1,8,0:0:0:0:
256,192,236694,1,0,0:0:0:0:
256,192,236868,1,8,0:0:0:0:
256,192,237042,1,8,0:0:0:0:
256,192,237217,1,0,0:0:0:0:
256,192,237391,1,8,0:0:0:0:
256,192,237566,1,0,0:0:0:0:
256,192,237740,1,0,0:0:0:0:
256,192,237915,1,8,0:0:0:0:
256,192,238089,1,8,0:0:0:0:
256,192,238263,1,0,0:0:0:0:
256,192,238612,1,8,0:0:0:0:
256,192,238787,1,8,0:0:0:0:
256,192,238961,1,8,0:0:0:0:
256,192,239310,1,8,0:0:0:0:
256,192,239659,1,0,0:0:0:0:
256,192,239833,1,8,0:0:0:0:
256,192,240008,1,0,0:0:0:0:
256,192,240182,1,8,0:0:0:0:
256,192,240356,1,8,0:0:0:0:
256,192,240531,1,0,0:0:0:0:
256,192,240705,1,8,0:0:0:0:
256,192,240880,1,8,0:0:0:0:
256,192,241054,1,0,0:0:0:0:
256,192,241228,1,0,0:0:0:0:
256,192,241403,1,8,0:0:0:0:
256,192,241752,1,0,0:0:0:0:
256,192,241926,1,0,0:0:0:0:
256,192,242101,1,8,0:0:0:0:
256,192,242275,1,0,0:0:0:0:
256,192,242449,1,8,0:0:0:0:
256,192,242624,1,0,0:0:0:0:
256,192,242973,1,8,0:0:0:0:
256,192,243147,1,0,0:0:0:0:
256,192,243322,1,0,0:0:0:0:
256,192,243496,1,8,0:0:0:0:
256,192,243670,1,8,0:0:0:0:
256,192,243845,1,0,0:0:0:0:
256,192,244019,1,0,0:0:0:0:
256,192,244194,1,8,0:0:0:0:
256,192,244368,1,8,0:0:0:0:
256,192,244542,1,0,0:0:0:0:
256,192,244717,1,8,0:0:0:0:
256,192,244891,1,0,0:0:0:0:
256,192,245066,1,0,0:0:0:0:
256,192,245240,1,8,0:0:0:0:
256,192,245415,1,0,0:0:0:0:
256,192,245589,1,8,0:0:0:0:
256,192,245763,1,8,0:0:0:0:
256,192,245938,1,0,0:0:0:0:
256,192,246112,1,8,0:0:0:0:
256,192,246287,1,0,0:0:0:0:
256,192,246461,1,0,0:0:0:0:
256,192,246635,1,8,0:0:0:0:
256,192,246810,1,0,0:0:0:0:
256,192,246984,1,8,0:0:0:0:
256,192,247159,1,8,0:0:0:0:
256,192,247333,1,0,0:0:0:0:
256,192,247682,1,8,0:0:0:0:
256,192,247856,1,0,0:0:0:0:
256,192,248031,1,8,0:0:0:0:
256,192,248205,1,8,0:0:0:0:
256,192,248554,1,0,0:0:0:0:
256,192,248728,1,8,0:0:0:0:
256,192,248903,1,0,0:0:0:0:
256,192,249077,1,8,0:0:0:0:
256,192,249252,1,8,0:0:0:0:
256,192,249426,1,0,0:0:0:0:
256,192,249775,1,8,0:0:0:0:
256,192,249949,1,8,0:0:0:0:
256,192,250124,1,8,0:0:0:0:
256,192,250473,1,0,0:0:0:0:
256,192,250822,1,8,0:0:0:0:
256,192,250996,1,0,0:0:0:0:
256,192,251345,1,8,0:0:0:0:
256,192,251519,1,0,0:0:0:0:
256,192,251694,1,0,0:0:0:0:
256,192,251868,1,8,0:0:0:0:
256,192,252042,1,8,0:0:0:0:
256,192,252217,1,0,0:0:0:0:
256,192,252391,1,0,0:0:0:0:
256,192,252566,1,8,0:0:0:0:
256,192,252915,1,0,0:0:0:0:
256,192,253263,1,8,0:0:0:0:
256,192,253438,1,0,0:0:0:0:
256,192,253612,1,8,0:0:0:0:
256,192,253787,1,0,0:0:0:0:
256,192,254135,1,0,0:0:0:0:
256,192,254310,1,8,0:0:0:0:
256,192,254484,1,0,0:0:0:0:
256,192,254659,1,8,0:0:0:0:
256,192,254833,1,8,0:0:0:0:
256,192,255008,1,0,0:0:0:0:
256,192,255182,1,0,0:0:0:0:
256,192,255356,1,8,0:0:0:0:
256,192,255705,1,8,0:0:0:0:
256,192,255880,1,0,0:0:0:0:
256,192,256054,1,8,0:0:0:0:
256,192,256228,1,8,0:0:0:0:
256,192,256403,1,0,0:0:0:0:
256,192,256577,1,0,0:0:0:0:
256,192,256752,1,8,0:0:0:0:
256,192,257101,1,0,0:0:0:0:
256,192,257275,1,0,0:0:0:0:
256,192,257449,1,8,0:0:0:0:
256,192,257624,1,8,0:0:0:0:
256,192,257798,1,0,0:0:0:0:
256,192,257973,1,0,0:0:0:0:
256,192,258147,1,12,0:0:0:0:
256,192,258845,1,12,0:0:0:0:
256,192,259542,1,12,0:0:0:0:
256,192,259891,1,0,0:0:0:0:
256,192,260066,1,0,0:0:0:0:
256,192,260240,1,12,0:0:0:0:
256,192,260589,1,0,0:0:0:0:
256,192,260938,1,8,0:0:0:0:
256,192,261984,1,8,0:0:0:0:
256,192,263728,1,0,0:0:0:0:
256,192,265822,1,8,0:0:0:0:
256,192,266519,1,8,0:0:0:0:
256,192,268961,1,0,0:0:0:0:
256,192,269310,1,8,0:0:0:0:
256,192,270705,1,8,0:0:0:0:
256,192,271403,1,0,0:0:0:0:
256,192,271752,1,0,0:0:0:0:
256,192,272101,1,8,0:0:0:0:
256,192,272449,1,0,0:0:0:0:
256,192,272798,1,8,0:0:0:0:
256,192,273496,1,8,0:0:0:0:
256,192,273845,1,8,0:0:0:0:
256,192,274194,1,8,0:0:0:0:
256,192,274891,1,8,0:0:0:0:
256,192,275938,1,8,0:0:0:0:
256,192,276112,1,0,0:0:0:0:
256,192,276287,1,8,0:0:0:0:
256,192,277333,1,0,0:0:0:0:
256,192,277682,1,12,0:0:0:0:
256,192,278380,1,8,0:0:0:0:
256,192,278554,1,8,0:0:0:0:
256,192,278728,1,0,0:0:0:0:
256,192,278903,1,8,0:0:0:0:
256,192,279077,1,0,0:0:0:0:
256,192,279252,1,8,0:0:0:0:
256,192,279426,1,0,0:0:0:0:
256,192,279601,1,0,0:0:0:0:
256,192,279775,1,8,0:0:0:0:
256,192,279949,1,8,0:0:0:0:
256,192,280124,1,0,0:0:0:0:
256,192,280473,1,12,0:0:0:0:
256,192,280822,1,12,0:0:0:0:
256,192,281170,1,0,0:0:0:0:
256,192,281519,1,12,0:0:0:0:
256,192,282217,1,8,0:0:0:0:
256,192,282391,1,0,0:0:0:0:
256,192,282566,1,8,0:0:0:0:
256,192,282740,1,8,0:0:0:0:
256,192,282915,1,0,0:0:0:0:
256,192,283263,1,12,0:0:0:0:
256,192,283612,1,0,0:0:0:0:
256,192,283787,1,0,0:0:0:0:
256,192,283961,1,8,0:0:0:0:
256,192,284310,1,8,0:0:0:0:
256,192,284484,1,0,0:0:0:0:
256,192,284659,1,8,0:0:0:0:
256,192,284833,1,8,0:0:0:0:
256,192,285008,1,0,0:0:0:0:
256,192,285182,1,0,0:0:0:0:
256,192,285356,1,8,0:0:0:0:
256,192,285531,1,8,0:0:0:0:
256,192,285705,1,0,0:0:0:0:
256,192,286054,1,8,0:0:0:0:
256,192,286403,1,0,0:0:0:0:
256,192,286577,1,0,0:0:0:0:
256,192,286752,1,8,0:0:0:0:
256,192,287101,1,0,0:0:0:0:
256,192,287275,1,8,0:0:0:0:
256,192,287449,1,8,0:0:0:0:
256,192,287624,1,8,0:0:0:0:
256,192,287798,1,0,0:0:0:0:
256,192,287973,1,0,0:0:0:0:
256,192,288147,1,8,0:0:0:0:
256,192,288496,1,0,0:0:0:0:
256,192,288670,1,0,0:0:0:0:
256,192,288845,1,8,0:0:0:0:
256,192,289194,1,8,0:0:0:0:
256,192,289368,1,0,0:0:0:0:
256,192,289542,1,8,0:0:0:0:
256,192,289891,1,0,0:0:0:0:
256,192,290066,1,8,0:0:0:0:
256,192,290240,1,8,0:0:0:0:
256,192,290415,1,8,0:0:0:0:
256,192,290589,1,0,0:0:0:0:
256,192,290763,1,0,0:0:0:0:
256,192,290938,1,8,0:0:0:0:
256,192,291112,1,8,0:0:0:0:
256,192,291287,1,0,0:0:0:0:
256,192,291635,1,8,0:0:0:0:
256,192,291810,1,0,0:0:0:0:
256,192,291984,1,0,0:0:0:0:
256,192,292159,1,8,0:0:0:0:
256,192,292333,1,8,0:0:0:0:
256,192,292508,1,0,0:0:0:0:
256,192,292682,1,12,0:0:0:0:
256,192,293031,1,0,0:0:0:0:
256,192,293205,1,0,0:0:0:0:
256,192,293380,1,8,0:0:0:0:
256,192,293554,1,0,0:0:0:0:
256,192,293728,1,8,0:0:0:0:
256,192,293903,1,8,0:0:0:0:
256,192,294077,1,0,0:0:0:0:
256,192,294426,1,12,0:0:0:0:
256,192,294775,1,0,0:0:0:0:
256,192,294949,1,0,0:0:0:0:
256,192,295124,1,8,0:0:0:0:
256,192,295473,1,8,0:0:0:0:
256,192,295647,1,0,0:0:0:0:
256,192,295822,1,8,0:0:0:0:
256,192,295996,1,8,0:0:0:0:
256,192,296170,1,0,0:0:0:0:
256,192,296519,1,8,0:0:0:0:
256,192,296868,1,0,0:0:0:0:
256,192,297042,1,0,0:0:0:0:
256,192,297217,1,8,0:0:0:0:
256,192,297566,1,8,0:0:0:0:
256,192,297740,1,0,0:0:0:0:
256,192,298089,1,8,0:0:0:0:
256,192,298263,1,0,0:0:0:0:
256,192,298438,1,0,0:0:0:0:
256,192,298612,1,8,0:0:0:0:
256,192,298961,1,0,0:0:0:0:
256,192,299135,1,0,0:0:0:0:
256,192,299310,1,8,0:0:0:0:
256,192,299484,1,8,0:0:0:0:
256,192,299659,1,0,0:0:0:0:
256,192,300008,1,8,0:0:0:0:
256,192,300356,1,0,0:0:0:0:
256,192,300531,1,0,0:0:0:0:
256,192,300705,1,8,0:0:0:0:
256,192,301054,1,8,0:0:0:0:
256,192,301228,1,0,0:0:0:0:
256,192,301403,1,8,0:0:0:0:
256,192,301577,1,8,0:0:0:0:
256,192,301752,1,0,0:0:0:0:
256,192,301926,1,8,0:0:0:0:
256,192,302275,1,0,0:0:0:0:
256,192,302449,1,8,0:0:0:0:
256,192,302624,1,8,0:0:0:0:
256,192,302798,1,0,0:0:0:0:
256,192,303147,1,0,0:0:0:0:
256,192,303496,1,8,0:0:0:0:
256,192,303845,1,0,0:0:0:0:
256,192,304019,1,8,0:0:0:0:
256,192,304194,1,0,0:0:0:0:
256,192,304368,1,8,0:0:0:0:
256,192,304542,1,0,0:0:0:0:
256,192,304891,1,8,0:0:0:0:
256,192,305066,1,8,0:0:0:0:
256,192,305240,1,0,0:0:0:0:
256,192,305415,1,0,0:0:0:0:
256,192,305589,1,8,0:0:0:0:
256,192,305763,1,8,0:0:0:0:
256,192,305938,1,0,0:0:0:0:
256,192,306287,1,8,0:0:0:0:
256,192,306635,1,0,0:0:0:0:
256,192,306810,1,0,0:0:0:0:
256,192,306984,1,8,0:0:0:0:
256,192,307333,1,8,0:0:0:0:
256,192,307682,1,0,0:0:0:0:
256,192,308031,1,0,0:0:0:0:
256,192,308380,1,12,0:0:0:0:
256,192,309077,1,12,0:0:0:0:
256,192,309426,1,0,0:0:0:0:
256,192,309601,1,0,0:0:0:0:
256,192,309775,1,8,0:0:0:0:
256,192,310124,1,8,0:0:0:0:
256,192,310298,1,0,0:0:0:0:
256,192,310647,1,8,0:0:0:0:
256,192,310822,1,0,0:0:0:0:
256,192,310996,1,0,0:0:0:0:
256,192,311170,1,12,0:0:0:0:
256,192,311868,1,8,0:0:0:0:
256,192,312217,1,8,0:0:0:0:
256,192,312566,1,0,0:0:0:0:
256,192,312915,1,8,0:0:0:0:
256,192,313089,1,0,0:0:0:0:
256,192,313263,1,8,0:0:0:0:
256,192,313438,1,8,0:0:0:0:
256,192,313612,1,0,0:0:0:0:
256,192,313787,1,0,0:0:0:0:
256,192,313961,1,12,0:0:0:0:
256,192,314659,1,8,0:0:0:0:
256,192,315008,1,0,0:0:0:0:
256,192,315182,1,8,0:0:0:0:
256,192,315356,1,0,0:0:0:0:
256,192,315531,1,8,0:0:0:0:
256,192,315705,1,0,0:0:0:0:
256,192,316054,1,8,0:0:0:0:
256,192,316403,1,0,0:0:0:0:
256,192,316577,1,0,0:0:0:0:
256,192,316752,1,0,0:0:0:0:
256,192,317101,1,0,0:0:0:0:
256,192,317449,1,8,0:0:0:0:
256,192,317798,1,0,0:0:0:0:
256,192,317973,1,8,0:0:0:0:
256,192,318147,1,8,0:0:0:0:
256,192,318322,1,8,0:0:0:0:
256,192,318496,1,0,0:0:0:0:
256,192,318670,1,0,0:0:0:0:
256,192,318845,1,8,0:0:0:0:
256,192,319019,1,0,0:0:0:0:
256,192,319194,1,0,0:0:0:0:
256,192,319542,1,8,0:0:0:0:
256,192,319891,1,0,0:0:0:0:
256,192,320066,1,0,0:0:0:0:
256,192,320240,1,8,0:0:0:0:
256,192,320589,1,8,0:0:0:0:
256,192,320763,1,0,0:0:0:0:
256,192,320938,1,8,0:0:0:0:
256,192,321112,1,8,0:0:0:0:
256,192,321287,1,0,0:0:0:0:
256,192,321461,1,8,0:0:0:0:
256,192,321635,1,0,0:0:0:0:
256,192,321810,1,0,0:0:0:0:
256,192,321984,1,8,0:0:0:0:
256,192,322159,1,0,0:0:0:0:
256,192,322333,1,8,0:0:0:0:
256,192,322682,1,0,0:0:0:0:
256,192,322856,1,0,0:0:0:0:
256,192,323031,1,8,0:0:0:0:
256,192,323205,1,0,0:0:0:0:
256,192,323380,1,8,0:0:0:0:
256,192,323554,1,8,0:0:0:0:
256,192,323903,1,8,0:0:0:0:
256,192,324077,1,0,0:0:0:0:
256,192,324252,1,0,0:0:0:0:
256,192,324426,1,8,0:0:0:0:
256,192,324601,1,8,0:0:0:0:
256,192,324775,1,0,0:0:0:0:
256,192,324949,1,0,0:0:0:0:
256,192,325124,1,12,0:0:0:0:
256,192,325473,1,0,0:0:0:0:
256,192,325822,1,8,0:0:0:0:
256,192,326170,1,0,0:0:0:0:
256,192,326345,1,8,0:0:0:0:
256,192,326519,1,0,0:0:0:0:
256,192,326694,1,8,0:0:0:0:
256,192,326868,1,0,0:0:0:0:
256,192,327042,1,0,0:0:0:0:
256,192,327217,1,8,0:0:0:0:
256,192,327566,1,0,0:0:0:0:
256,192,327915,1,8,0:0:0:0:
256,192,328263,1,8,0:0:0:0:
256,192,328438,1,8,0:0:0:0:
256,192,328612,1,8,0:0:0:0:
256,192,328961,1,0,0:0:0:0:
256,192,329135,1,8,0:0:0:0:
256,192,329310,1,0,0:0:0:0:
256,192,329484,1,8,0:0:0:0:
256,192,329659,1,0,0:0:0:0:
256,192,329833,1,0,0:0:0:0:
256,192,330008,1,8,0:0:0:0:
256,192,330182,1,8,0:0:0:0:
256,192,330356,1,0,0:0:0:0:
256,192,330531,1,0,0:0:0:0:
256,192,330705,1,12,0:0:0:0:
256,192,331054,1,0,0:0:0:0:
256,192,331403,1,8,0:0:0:0:
256,192,331577,1,0,0:0:0:0:
256,192,331752,1,8,0:0:0:0:
256,192,331926,1,8,0:0:0:0:
256,192,332101,1,0,0:0:0:0:
256,192,332275,1,8,0:0:0:0:
256,192,332449,1,0,0:0:0:0:
256,192,332624,1,0,0:0:0:0:
256,192,332798,1,8,0:0:0:0:
256,192,332973,1,8,0:0:0:0:
256,192,333147,1,0,0:0:0:0:
256,192,333496,1,8,0:0:0:0:
256,192,333497,1,12,0:0:0:0:
256,192,334237,1,0,0:0:0:0:
256,192,335037,1,8,0:0:0:0:
256,192,336040,1,8,0:0:0:0:
256,192,337119,1,0,0:0:0:0:
256,192,338086,1,12,0:0:0:0:
256,192,338603,12,12,342223,0:0:0:0:
