osu file format v14

[General]
AudioFilename: virtual
AudioLeadIn: 0
PreviewTime: 2847
Countdown: 0
SampleSet: Soft
StackLeniency: 0.7
Mode: 3
LetterboxInBreaks: 0
SpecialStyle: 0
WidescreenStoryboard: 0

[Editor]
Bookmarks: 2847,13918,14275,28561,29275,31320,41320,42748,48462,54177,54891,57034,58105,59177,60248,71676,74533,75962,76676,80248,81676,83214,86547,87429,89429,90519,91719,91919
DistanceSpacing: 0.9
BeatDivisor: 16
GridSize: 32
TimelineZoom: 0.9

[Metadata]
Title:Orange (Piano Arrange Ver.)
TitleUnicode:オレンジ (Piano Arrange Ver.)
Artist:7!!
ArtistUnicode:7!!
Creator:Kawawa
Version:Normal
Source:四月は君の嘘
Tags:shigatsu wa kimi no uso your lie in april ending kawaEE piano arrange wawa
BeatmapID:1133512
BeatmapSetID:505667

[Difficulty]
HPDrainRate:7
CircleSize:7
OverallDifficulty:7
ApproachRate:5
SliderMultiplier:1.4
SliderTickRate:1

[Events]
//Background and Video events
0,0,"BG.png",0,0
//Break Periods
//Storyboard Layer 0 (Background)
//Storyboard Layer 1 (Fail)
//Storyboard Layer 2 (Pass)
//Storyboard Layer 3 (Foreground)
//Storyboard Sound Samples
Sample,2847,0,"B4S.wav",50
Sample,2847,0,"E4S.wav",50
Sample,4275,0,"B4S.wav",50
Sample,4275,0,"E4S.wav",50
Sample,5704,0,"C4S.wav",50
Sample,5704,0,"C5S.wav",50
Sample,7132,0,"C5S.wav",50
Sample,8561,0,"D4S.wav",50
Sample,8561,0,"D5S.wav",50
Sample,9989,0,"D4S.wav",50
Sample,10346,0,"A4S.wav",50
Sample,10704,0,"D5S.wav",50
Sample,11061,0,"A5S.wav",50
Sample,11418,0,"G2S.wav",50
Sample,12846,0,"F#2S_Gb2S.wav",50
Sample,14275,0,"C4S.wav",50
Sample,14275,0,"E5S.wav",50
Sample,14632,0,"G4S.wav",50
Sample,14989,0,"C5S.wav",50
Sample,15346,0,"G5S.wav",50
Sample,15704,0,"D4S.wav",50
Sample,15704,0,"F#5S_Gb5S.wav",50
Sample,16061,0,"A4S.wav",50
Sample,16418,0,"D5S.wav",50
Sample,16775,0,"C4S.wav",50
Sample,17132,0,"B3S.wav",50
Sample,17132,0,"D5S.wav",50
Sample,17489,0,"F#4S_Gb4S.wav",50
Sample,17846,0,"B4S.wav",50
Sample,18204,0,"F#5S_Gb5S.wav",50
Sample,18561,0,"E5S.wav",50
Sample,18561,0,"E4S.wav",50
Sample,18918,0,"B4S.wav",50
Sample,19275,0,"E5S.wav",50
Sample,19989,0,"C4S.wav",50
Sample,19989,0,"E6S.wav",50
Sample,20346,0,"G4S.wav",50
Sample,20704,0,"C5S.wav",50
Sample,21061,0,"C4S.wav",50
Sample,21775,0,"C4S.wav",50
Sample,22132,0,"E6S.wav",50
Sample,22489,0,"C6S.wav",50
Sample,22846,0,"A3S.wav",50
Sample,22846,0,"E6S.wav",50
Sample,23561,0,"E4S.wav",50
Sample,23918,0,"G5S.wav",50
Sample,23918,0,"E5S.wav",50
Sample,24632,0,"E4S.wav",50
Sample,24989,0,"G5S.wav",50
Sample,24989,0,"E5S.wav",50
Sample,25704,0,"E5S.wav",50
Sample,25704,0,"D4S.wav",50
Sample,26418,0,"E4S.wav",50
Sample,26775,0,"E5S.wav",50
Sample,27489,0,"E4S.wav",50
Sample,27846,0,"E5S.wav",50
Sample,28561,0,"D4S.wav",50
Sample,28918,0,"D4S.wav",50
Sample,29275,0,"D3S.wav",50
Sample,29445,0,"G3S.wav",50
Sample,29615,0,"A3S.wav",50
Sample,29786,0,"D4S.wav",50
Sample,29956,0,"G2S.wav",50
Sample,30127,0,"A4S.wav",50
Sample,30297,0,"D5S.wav",50
Sample,30468,0,"G5S.wav",50
Sample,30638,0,"A5S.wav",50
Sample,30809,0,"D6S.wav",50
Sample,30979,0,"G6S.wav",50
Sample,31150,0,"A6S.wav",50
Sample,31320,0,"C4S.wav",50
Sample,31677,0,"C4S.wav",50
Sample,31855,0,"G4S.wav",50
Sample,32034,0,"C5S.wav",50
Sample,32212,0,"D5S.wav",50
Sample,32391,0,"E5S.wav",50
Sample,32748,0,"D4S.wav",50
Sample,32927,0,"A4S.wav",50
Sample,33105,0,"E5S.wav",50
Sample,33284,0,"F#5S_Gb5S.wav",50
Sample,33462,0,"A5S.wav",50
Sample,33462,0,"A7S.wav",100
Sample,33641,0,"F#5S_Gb5S.wav",50
Sample,33820,0,"D5S.wav",50
Sample,33998,0,"C5S.wav",50
Sample,34177,0,"B5S.wav",50
Sample,34177,0,"B3S.wav",50
Sample,34355,0,"F#4S_Gb4S.wav",50
Sample,34534,0,"B4S.wav",50
Sample,34712,0,"D#5S_Eb5S.wav",50
Sample,34891,0,"B5S.wav",50
Sample,34891,0,"F#5S_Gb5S.wav",50
Sample,35070,0,"G5S.wav",50
Sample,35248,0,"A5S.wav",50
Sample,35427,0,"B5S.wav",50
Sample,35605,0,"E3S.wav",50
Sample,35784,0,"B3S.wav",50
Sample,35962,0,"E4S.wav",50
Sample,36141,0,"G4S.wav",50
Sample,36320,0,"G7S.wav",100
Sample,36320,0,"B4S.wav",50
Sample,36498,0,"E5S.wav",50
Sample,36677,0,"B4S.wav",50
Sample,36855,0,"G4S.wav",50
Sample,37034,0,"A3S.wav",50
Sample,37212,0,"E4S.wav",50
Sample,37391,0,"G4S.wav",50
Sample,37570,0,"C5S.wav",50
Sample,37748,0,"E5S.wav",50
Sample,37927,0,"A5S.wav",50
Sample,38105,0,"E5S.wav",50
Sample,38284,0,"C5S.wav",50
Sample,38462,0,"D3S.wav",50
Sample,38641,0,"A3S.wav",50
Sample,38820,0,"D4S.wav",50
Sample,38998,0,"F#4S_Gb4S.wav",50
Sample,39177,0,"A4S.wav",50
Sample,39355,0,"D5S.wav",50
Sample,39534,0,"A4S.wav",50
Sample,39712,0,"F#4S_Gb4S.wav",50
Sample,39891,0,"G3S.wav",50
Sample,39936,0,"G6S.wav",100
Sample,39980,0,"C7S.wav",100
Sample,40070,0,"D4S.wav",50
Sample,40248,0,"G4S.wav",50
Sample,40293,0,"G6S.wav",100
Sample,40337,0,"B6S.wav",100
Sample,40427,0,"A4S.wav",50
Sample,40605,0,"B4S.wav",50
Sample,40650,0,"G6S.wav",100
Sample,40695,0,"B6S.wav",100
Sample,40784,0,"D5S.wav",50
Sample,40962,0,"G5S.wav",50
Sample,41141,0,"A5S.wav",50
Sample,41141,0,"D6S.wav",100
Sample,41320,0,"G3S.wav",50
Sample,41409,0,"B4S.wav",70
Sample,41498,0,"D4S.wav",50
Sample,41587,0,"G5S.wav",70
Sample,41677,0,"B4S.wav",50
Sample,41766,0,"D6S.wav",70
Sample,41855,0,"G5S.wav",50
Sample,41945,0,"B6S.wav",70
Sample,42034,0,"D6S.wav",50
Sample,42123,0,"G7S.wav",70
Sample,42212,0,"B6S.wav",50
Sample,42302,0,"D8S.wav",70
Sample,42391,0,"G7S.wav",50
Sample,42569,0,"G4S.wav",50
Sample,42748,0,"C6S.wav",50
Sample,42748,0,"A3S.wav",50
Sample,42927,0,"G3S.wav",50
Sample,43105,0,"C4S.wav",50
Sample,43284,0,"C4S.wav",50
Sample,43462,0,"G4S.wav",50
Sample,43641,0,"E4S.wav",50
Sample,43819,0,"C4S.wav",50
Sample,43998,0,"G3S.wav",50
Sample,44355,0,"A3S.wav",50
Sample,44534,0,"D4S.wav",50
Sample,44712,0,"D4S.wav",50
Sample,44891,0,"A4S.wav",50
Sample,44891,0,"A7S.wav",100
Sample,45069,0,"F#4S_Gb4S.wav",50
Sample,45248,0,"D4S.wav",50
Sample,45427,0,"A3S.wav",50
Sample,45605,0,"B2S.wav",50
Sample,45605,0,"F#6S_Gb6S.wav",100
Sample,45784,0,"F#4S_Gb4S.wav",50
Sample,45962,0,"B4S.wav",50
Sample,46141,0,"D#5S_Eb5S.wav",50
Sample,46319,0,"B5S.wav",50
Sample,46319,0,"F#5S_Gb5S.wav",50
Sample,46498,0,"G5S.wav",50
Sample,46677,0,"A5S.wav",50
Sample,46855,0,"B5S.wav",50
Sample,47034,0,"E3S.wav",50
Sample,47212,0,"B3S.wav",50
Sample,47391,0,"E4S.wav",50
Sample,47569,0,"G4S.wav",50
Sample,47748,0,"G7S.wav",100
Sample,47748,0,"B4S.wav",50
Sample,47927,0,"E5S.wav",50
Sample,48105,0,"B4S.wav",50
Sample,48284,0,"G4S.wav",50
Sample,48462,0,"C3S.wav",50
Sample,48819,0,"G7S.wav",100
Sample,49177,0,"E4S.wav",50
Sample,49534,0,"C6S.wav",100
Sample,49891,0,"E4S.wav",50
Sample,50248,0,"C6S.wav",100
Sample,50605,0,"E4S.wav",50
Sample,50962,0,"C6S.wav",100
Sample,51319,0,"C4S.wav",50
Sample,51319,0,"C3S.wav",50
Sample,52034,0,"C4S.wav",50
Sample,52034,0,"C6S.wav",50
Sample,52391,0,"C6S.wav",50
Sample,52748,0,"G4S.wav",50
Sample,53105,0,"C6S.wav",50
Sample,53462,0,"G4S.wav",50
Sample,53998,0,"D6S.wav",50
Sample,54177,0,"A3S.wav",50
Sample,54891,0,"A3S.wav",50
Sample,54980,0,"A5S.wav",70
Sample,55069,0,"B3S.wav",50
Sample,55159,0,"B5S.wav",70
Sample,55248,0,"C4S.wav",50
Sample,55337,0,"C6S.wav",70
Sample,55427,0,"D4S.wav",50
Sample,55516,0,"D6S.wav",70
Sample,55605,0,"G4S.wav",50
Sample,55694,0,"G6S.wav",70
Sample,55784,0,"F#4S_Gb4S.wav",50
Sample,55873,0,"F#6S_Gb6S.wav",70
Sample,55962,0,"A4S.wav",50
Sample,56052,0,"A6S.wav",70
Sample,56141,0,"B4S.wav",50
Sample,56230,0,"B6S.wav",70
Sample,56319,0,"C5S.wav",50
Sample,56409,0,"C7S.wav",70
Sample,56498,0,"D5S.wav",50
Sample,56587,0,"D6S.wav",70
Sample,56677,0,"E5S.wav",50
Sample,56766,0,"E7S.wav",70
Sample,56855,0,"F#5S_Gb5S.wav",50
Sample,56944,0,"F#7S_Gb7S.wav",70
Sample,57034,0,"D2S.wav",50
Sample,57034,0,"G5S.wav",50
Sample,57391,0,"D2S.wav",50
Sample,57391,0,"G5S.wav",50
Sample,58105,0,"F#5S_Gb5S.wav",50
Sample,58105,0,"D2S.wav",50
Sample,59177,0,"D5S.wav",50
Sample,59534,0,"G5S.wav",50
Sample,59891,0,"A5S.wav",50
Sample,60248,0,"D6S.wav",50
Sample,60426,0,"D3S.wav",50
Sample,60605,0,"G3S.wav",50
Sample,60783,0,"B3S.wav",50
Sample,60962,0,"D4S.wav",50
Sample,61140,0,"G4S.wav",50
Sample,61319,0,"B4S.wav",50
Sample,61498,0,"D5S.wav",50
Sample,61676,0,"G5S.wav",50
Sample,61855,0,"D5S.wav",50
Sample,62033,0,"B4S.wav",50
Sample,62212,0,"G4S.wav",50
Sample,62569,0,"G3S.wav",50
Sample,62748,0,"G4S.wav",50
Sample,62926,0,"D4S.wav",50
Sample,63105,0,"B3S.wav",50
Sample,63283,0,"F#3S_Gb3S.wav",50
Sample,63462,0,"B3S.wav",50
Sample,63640,0,"B3S.wav",50
Sample,63819,0,"F#4S_Gb4S.wav",50
Sample,63998,0,"B3S.wav",50
Sample,64176,0,"D#4S_Eb4S.wav",50
Sample,64355,0,"F#4S_Gb4S.wav",50
Sample,64533,0,"B4S.wav",50
Sample,64712,0,"B3S.wav",50
Sample,64890,0,"D#4S_Eb4S.wav",50
Sample,65069,0,"F#4S_Gb4S.wav",50
Sample,65248,0,"B4S.wav",50
Sample,65426,0,"B3S.wav",50
Sample,65605,0,"D#4S_Eb4S.wav",50
Sample,65783,0,"F#4S_Gb4S.wav",50
Sample,65962,0,"E3S.wav",50
Sample,66140,0,"B3S.wav",50
Sample,66319,0,"E4S.wav",50
Sample,66498,0,"E4S.wav",50
Sample,66676,0,"B4S.wav",50
Sample,66855,0,"G4S.wav",50
Sample,67033,0,"E5S.wav",50
Sample,67212,0,"E5S.wav",50
Sample,67390,0,"E4S.wav",50
Sample,67569,0,"B4S.wav",50
Sample,67748,0,"G4S.wav",50
Sample,67926,0,"E4S.wav",50
Sample,68105,0,"B3S.wav",50
Sample,68283,0,"E3S.wav",50
Sample,68462,0,"E4S.wav",50
Sample,68640,0,"B3S.wav",50
Sample,68819,0,"D3S.wav",50
Sample,68998,0,"A3S.wav",50
Sample,69176,0,"D4S.wav",50
Sample,69355,0,"D4S.wav",50
Sample,69533,0,"A4S.wav",50
Sample,69712,0,"F#4S_Gb4S.wav",50
Sample,69890,0,"D4S.wav",50
Sample,70069,0,"A3S.wav",50
Sample,70248,0,"G3S.wav",50
Sample,70426,0,"D3S.wav",50
Sample,70605,0,"G3S.wav",50
Sample,70783,0,"B3S.wav",50
Sample,70962,0,"D4S.wav",50
Sample,71140,0,"G4S.wav",50
Sample,71319,0,"B4S.wav",50
Sample,71721,0,"G6S.wav",100
Sample,71765,0,"D7S.wav",100
Sample,71855,0,"G4S.wav",50
Sample,72033,0,"C4S.wav",50
Sample,72212,0,"D4S.wav",50
Sample,72390,0,"E4S.wav",50
Sample,72748,0,"C4S.wav",50
Sample,73149,0,"F#6S_Gb6S.wav",100
Sample,73194,0,"D7S.wav",100
Sample,73283,0,"A4S.wav",50
Sample,73462,0,"D5S.wav",50
Sample,73640,0,"E5S.wav",50
Sample,73864,0,"F#7S_Gb7S.wav",70
Sample,73908,0,"D8S.wav",70
Sample,74176,0,"D4S.wav",50
Sample,74355,0,"D4S.wav",50
Sample,74533,0,"B4S.wav",50
Sample,74533,0,"D6S.wav",50
Sample,74890,0,"E5S.wav",50
Sample,75069,0,"D5S.wav",50
Sample,75248,0,"F#5S_Gb5S.wav",50
Sample,75426,0,"F#5S_Gb5S.wav",50
Sample,75605,0,"D5S.wav",50
Sample,75783,0,"G5S.wav",50
Sample,75962,0,"G4S.wav",50
Sample,76140,0,"E5S.wav",50
Sample,76319,0,"B5S.wav",100
Sample,76498,0,"G6S.wav",50
Sample,76676,0,"B4S.wav",50
Sample,76676,0,"G4S.wav",50
Sample,76765,0,"G8S.wav",50
Sample,77033,0,"E4S.wav",50
Sample,77212,0,"E4S.wav",50
Sample,77390,0,"C6S.wav",50
Sample,77390,0,"A3S.wav",50
Sample,77569,0,"E4S.wav",50
Sample,77748,0,"A4S.wav",50
Sample,77926,0,"C5S.wav",50
Sample,78105,0,"E5S.wav",50
Sample,78283,0,"A5S.wav",50
Sample,78462,0,"E5S.wav",50
Sample,78640,0,"C5S.wav",50
Sample,78819,0,"D3S.wav",50
Sample,78998,0,"A3S.wav",50
Sample,79176,0,"D4S.wav",50
Sample,79355,0,"F#4S_Gb4S.wav",50
Sample,79533,0,"A4S.wav",50
Sample,79533,0,"A5S.wav",50
Sample,79890,0,"F#4S_Gb4S.wav",50
Sample,80248,0,"G4S.wav",70
Sample,80367,0,"B4S.wav",70
Sample,80486,0,"D5S.wav",70
Sample,80605,0,"G5S.wav",70
Sample,80724,0,"B5S.wav",70
Sample,80843,0,"D6S.wav",70
Sample,80962,0,"B4S.wav",50
Sample,81081,0,"B6S.wav",70
Sample,81200,0,"D7S.wav",70
Sample,81319,0,"G7S.wav",70
Sample,81438,0,"B7S.wav",70
Sample,81557,0,"D8S.wav",70
Sample,81676,0,"B4S.wav",50
Sample,82445,0,"E6H2.wav",30
Sample,82829,0,"E6H2.wav",30
Sample,83214,0,"C7H2.wav",30
Sample,83630,0,"C#7H_Db7H2.wav",30
Sample,83839,0,"C#7H_Db7H2.wav",30
Sample,87429,0,"D#5S_Eb5S.wav",30
Sample,87762,0,"D#6S_Eb6S.wav",50
Sample,88095,0,"D#6S_Eb6S.wav",50
Sample,88429,0,"A#6S_Bb6S.wav",50
Sample,89095,0,"A#6S_Bb6S.wav",50
Sample,89429,0,"G#6S_Ab6S.wav",50
Sample,90519,0,"G6S.wav",50

[TimingPoints]
2847,714.285714285714,4,2,0,20,1,0
28561,-100,4,2,0,20,0,1
29275,681.818181818182,4,2,0,20,1,0
29275,-105.263157894737,4,2,0,20,0,0
31320,714.285714285714,4,2,0,20,1,0
41320,-100,4,2,0,20,0,1
42748,-100,4,2,0,20,0,0
54891,-100,4,2,0,20,0,1
57034,-100,4,2,0,20,0,0
57391,-100,4,2,0,20,0,1
57480,-100,4,2,0,20,0,0
58105,-100,4,2,0,20,0,1
58194,-100,4,2,0,20,0,0
60248,714.285714285714,4,2,0,20,1,0
75962,-100,4,2,0,20,0,1
76676,-100,4,2,0,20,0,0
80248,-100,4,2,0,20,0,1
81676,769.230769230769,4,2,0,20,1,0
81676,-93.4579439252336,4,2,0,20,0,0
83214,833.333333333333,4,2,0,20,1,0
83214,-86.2068965517241,4,2,0,20,0,0
86547,882.352941176471,4,2,0,20,1,0
86547,-81.3008130081301,4,2,0,20,0,0
87429,1000,4,2,0,20,1,0
87429,-71.4285714285714,4,2,0,20,0,0
89429,1090.90909090909,4,2,0,20,1,0
89429,-65.7894736842105,4,2,0,20,0,1
89519,-65.7894736842105,4,2,0,20,0,0
90519,1200,4,2,0,20,1,0
90519,-59.5238095238095,4,2,0,20,0,1
90619,-59.5238095238095,4,2,0,20,0,0
91719,-59.5238095238095,4,2,0,20,0,1
91919,-59.5238095238095,4,2,0,20,0,0

[HitObjects]
109,192,2847,5,0,0:0:0:100:E5S.wav
402,192,2847,1,0,0:0:0:100:G5S.wav
182,192,3561,5,0,0:0:0:100:E6S.wav
182,192,3918,1,0,0:0:0:100:F#6S_Gb6S.wav
329,192,4096,1,0,0:0:0:100:G6S.wav
475,192,4632,1,0,0:0:0:100:B6S.wav
329,192,4811,1,0,0:0:0:100:A6S.wav
36,192,5346,1,0,0:0:0:100:D6S.wav
182,192,5525,1,0,0:0:0:100:E6S.wav
475,192,5704,1,0,0:0:0:100:E5S.wav
329,192,5704,1,0,0:0:0:100:G5S.wav
109,192,6418,1,0,0:0:0:50:G4S.wav
329,192,6775,1,0,0:0:0:100:G5S.wav
475,192,6775,1,0,0:0:0:100:E5S.wav
36,192,7132,1,0,0:0:0:50:C4S.wav
182,192,7489,1,0,0:0:0:50:G4S.wav
329,192,7846,1,0,0:0:0:100:C5S.wav
475,192,8204,1,0,0:0:0:100:E5S.wav
36,192,8561,1,0,0:0:0:100:F#5S_Gb5S.wav
256,192,8561,1,0,0:0:0:100:A5S.wav
475,192,9275,1,0,0:0:0:100:D6S.wav
475,192,9632,1,0,0:0:0:100:D6S.wav
475,192,9811,1,0,0:0:0:100:D6S.wav
36,192,9989,1,0,0:0:0:50:D5S.wav
329,192,10346,1,0,0:0:0:100:C6S.wav
109,192,10704,1,0,0:0:0:100:B5S.wav
329,192,11061,1,0,0:0:0:100:C6S.wav
182,192,11418,1,0,0:0:0:100:G5S.wav
475,192,11418,1,0,0:0:0:100:B5S.wav
182,192,12132,1,0,0:0:0:100:G5S.wav
475,192,12132,1,0,0:0:0:100:B5S.wav
36,192,12489,1,0,0:0:0:100:G5S.wav
182,192,12668,1,0,0:0:0:100:B5S.wav
329,192,12846,1,0,0:0:0:100:A5S.wav
475,192,12846,1,0,0:0:0:100:F#5S_Gb5S.wav
329,192,13739,1,0,0:0:0:100:A5S.wav
475,192,13918,1,0,0:0:0:100:B5S.wav
182,192,14275,1,0,0:0:0:50:E5S.wav
36,192,14275,1,0,0:0:0:50:C4S.wav
329,192,14275,1,0,0:0:0:100:C6S.wav
475,192,14275,1,0,0:0:0:100:G5S.wav
36,192,14632,1,0,0:0:0:100:C6S.wav
36,192,14811,1,0,0:0:0:100:C6S.wav
182,192,15168,1,0,0:0:0:100:G6S.wav
329,192,15704,1,0,0:0:0:100:A5S.wav
475,192,15704,1,0,0:0:0:100:F#6S_Gb6S.wav
475,192,16596,1,0,0:0:0:100:E6S.wav
475,192,16775,1,0,0:0:0:100:E6S.wav
475,192,16954,1,0,0:0:0:100:E6S.wav
182,192,17132,1,0,0:0:0:100:D6S.wav
329,192,17132,1,0,0:0:0:100:F#5S_Gb5S.wav
36,192,17489,1,0,0:0:0:100:D6S.wav
36,192,17668,1,0,0:0:0:100:D6S.wav
256,192,18025,1,0,0:0:0:100:A6S.wav
475,192,18561,1,0,0:0:0:100:G6S.wav
36,192,18561,1,0,0:0:0:100:G5S.wav
256,192,19632,1,0,0:0:0:100:A6S.wav
182,192,19811,1,0,0:0:0:100:B6S.wav
109,192,19989,1,0,0:0:0:100:G6S.wav
402,192,19989,1,0,0:0:0:100:C7S.wav
36,192,21061,1,0,0:0:0:50:G4S.wav
329,192,21061,1,0,0:0:0:100:E6S.wav
475,192,21418,1,0,0:0:0:100:G6S.wav
36,192,21775,1,0,0:0:0:50:G4S.wav
329,192,21775,1,0,0:0:0:100:E6S.wav
475,192,22132,1,0,0:0:0:100:G6S.wav
329,192,22489,1,0,0:0:0:100:E6S.wav
36,192,22846,1,0,0:0:0:100:B6S.wav
182,192,22846,1,0,0:0:0:100:G6S.wav
182,192,23382,1,0,0:0:0:100:B6S.wav
402,192,23739,1,0,0:0:0:100:C7S.wav
256,192,23918,1,0,0:0:0:100:B6S.wav
109,192,24096,1,0,0:0:0:100:A6S.wav
329,192,24632,1,0,0:0:0:100:G6S.wav
475,192,24811,1,0,0:0:0:100:B6S.wav
36,192,25346,1,0,0:0:0:100:G5S.wav
182,192,25525,1,0,0:0:0:100:A5S.wav
475,192,25704,1,0,0:0:0:100:B5S.wav
329,192,25704,1,0,0:0:0:100:G5S.wav
109,192,26061,1,0,0:0:0:50:E5S.wav
402,192,26418,1,0,0:0:0:100:G5S.wav
402,192,26775,1,0,0:0:0:100:G5S.wav
109,192,26775,1,0,0:0:0:100:B5S.wav
402,192,27489,1,0,0:0:0:100:G5S.wav
402,192,27846,1,0,0:0:0:100:G5S.wav
109,192,27846,1,0,0:0:0:100:B5S.wav
36,192,28561,1,0,0:0:0:50:A4S.wav
475,192,28561,1,0,0:0:0:100:A5S.wav
256,192,28561,1,0,0:0:0:100:F#5S_Gb5S.wav
36,192,28918,1,0,0:0:0:50:A4S.wav
256,192,28918,1,0,0:0:0:100:F#5S_Gb5S.wav
475,192,28918,1,0,0:0:0:100:A5S.wav
475,192,31320,1,0,0:0:0:50:G5S.wav
329,192,31320,1,0,0:0:0:100:E6S.wav
182,192,31320,1,0,0:0:0:100:C6S.wav
36,192,31677,1,0,0:0:0:100:E6S.wav
182,192,31855,1,0,0:0:0:100:F#6S_Gb6S.wav
329,192,32034,1,0,0:0:0:100:G6S.wav
402,192,32570,1,0,0:0:0:100:B6S.wav
256,192,32748,1,0,0:0:0:100:A6S.wav
109,192,32927,1,0,0:0:0:100:G6S.wav
256,192,33105,1,0,0:0:0:100:A6S.wav
182,192,33641,1,0,0:0:0:100:F#6S_Gb6S.wav
182,192,33820,1,0,0:0:0:100:F#6S_Gb6S.wav
329,192,33998,1,0,0:0:0:100:G6S.wav
475,192,34177,1,0,0:0:0:100:A6S.wav
36,192,34177,1,0,0:0:0:100:F#6S_Gb6S.wav
329,192,34891,1,0,0:0:0:100:A6S.wav
182,192,34891,1,0,0:0:0:100:F#6S_Gb6S.wav
329,192,35427,1,0,0:0:0:100:B6S.wav
475,192,35427,1,0,0:0:0:100:E6S.wav
109,192,35605,1,0,0:0:0:100:A6S.wav
182,192,35784,1,0,0:0:0:100:G6S.wav
256,192,35962,1,0,0:0:0:100:F#6S_Gb6S.wav
329,192,36141,1,0,0:0:0:100:G6S.wav
182,192,36498,1,0,0:0:0:100:E6S.wav
182,192,36677,1,0,0:0:0:100:E6S.wav
329,192,36855,1,0,0:0:0:100:F#6S_Gb6S.wav
36,192,37034,1,0,0:0:0:100:G6S.wav
475,192,37034,1,0,0:0:0:100:C6S.wav
475,192,37391,1,0,0:0:0:100:G6S.wav
36,192,37391,1,0,0:0:0:100:C6S.wav
475,192,37570,1,0,0:0:0:100:G6S.wav
36,192,37570,1,0,0:0:0:100:C6S.wav
475,192,37927,1,0,0:0:0:100:G6S.wav
36,192,37927,1,0,0:0:0:100:C6S.wav
475,192,38105,1,0,0:0:0:100:G6S.wav
36,192,38105,1,0,0:0:0:100:C6S.wav
475,192,38284,1,0,0:0:0:100:G6S.wav
36,192,38284,1,0,0:0:0:100:C6S.wav
182,192,38462,1,0,0:0:0:100:F#6S_Gb6S.wav
329,192,38462,1,0,0:0:0:100:D6S.wav
109,192,38820,1,0,0:0:0:100:A5S.wav
402,192,38820,1,0,0:0:0:100:D6S.wav
402,192,39177,1,0,0:0:0:100:D6S.wav
109,192,39177,1,0,0:0:0:100:A5S.wav
475,192,39534,1,0,0:0:0:100:C7S.wav
329,192,39534,1,0,0:0:0:100:A6S.wav
475,192,39712,1,0,0:0:0:100:C7S.wav
329,192,39712,1,0,0:0:0:100:A6S.wav
36,192,39891,128,0,40070:0:0:0:100:D6S.wav
36,192,40248,128,0,40427:0:0:0:100:D6S.wav
36,192,40605,128,0,40784:0:0:0:100:D6S.wav
475,192,40962,1,0,0:0:0:100:A6S.wav
256,192,41141,1,0,0:0:0:100:B6S.wav
36,192,41320,128,0,41498:0:0:0:70:G4S.wav
109,192,41498,128,0,41677:0:0:0:70:D5S.wav
182,192,41677,128,0,41855:0:0:0:70:B5S.wav
256,192,41855,128,0,42034:0:0:0:70:G6S.wav
329,192,42034,128,0,42212:0:0:0:70:D7S.wav
402,192,42212,128,0,42391:0:0:0:70:B7S.wav
475,192,42391,128,0,42569:0:0:0:70:G8S.wav
36,192,42569,1,0,0:0:0:50:G5S.wav
329,192,42748,1,0,0:0:0:100:G6S.wav
182,192,42748,1,0,0:0:0:100:E6S.wav
402,192,43105,1,0,0:0:0:100:G6S.wav
109,192,43105,1,0,0:0:0:100:C7S.wav
402,192,43284,1,0,0:0:0:100:G6S.wav
109,192,43284,1,0,0:0:0:100:C7S.wav
402,192,43462,1,0,0:0:0:100:G6S.wav
109,192,43462,1,0,0:0:0:100:C7S.wav
256,192,43998,1,0,0:0:0:100:D6S.wav
36,192,44177,1,0,0:0:0:50:D3S.wav
475,192,44177,1,0,0:0:0:100:C7S.wav
329,192,44355,1,0,0:0:0:100:A6S.wav
182,192,44534,1,0,0:0:0:100:G6S.wav
329,192,44712,1,0,0:0:0:100:A6S.wav
109,192,45069,1,0,0:0:0:100:F#6S_Gb6S.wav
109,192,45248,1,0,0:0:0:100:F#6S_Gb6S.wav
256,192,45427,1,0,0:0:0:100:G6S.wav
475,192,45605,1,0,0:0:0:100:A6S.wav
402,192,45605,1,0,0:0:0:50:B5S.wav
182,192,46319,1,0,0:0:0:100:A6S.wav
329,192,46319,1,0,0:0:0:100:F#6S_Gb6S.wav
475,192,46855,1,0,0:0:0:100:E6S.wav
329,192,46855,1,0,0:0:0:100:B6S.wav
182,192,47034,1,0,0:0:0:100:A6S.wav
36,192,47212,1,0,0:0:0:100:G6S.wav
256,192,47391,1,0,0:0:0:100:F#6S_Gb6S.wav
475,192,47569,1,0,0:0:0:100:G6S.wav
109,192,47927,1,0,0:0:0:100:E6S.wav
109,192,48105,1,0,0:0:0:100:E6S.wav
182,192,48284,1,0,0:0:0:100:F#6S_Gb6S.wav
256,192,48462,1,0,0:0:0:50:C6S.wav
475,192,48462,1,0,0:0:0:100:G6S.wav
36,192,48462,1,0,0:0:0:100:E6S.wav
182,192,49177,1,0,0:0:0:50:G4S.wav
329,192,49177,1,0,0:0:0:100:G5S.wav
36,192,49177,1,0,0:0:0:50:C4S.wav
475,192,49534,1,0,0:0:0:100:E6S.wav
329,192,49891,1,0,0:0:0:100:G6S.wav
109,192,49891,1,0,0:0:0:50:C5S.wav
182,192,49891,1,0,0:0:0:50:G4S.wav
475,192,50248,1,0,0:0:0:100:E6S.wav
109,192,50605,1,0,0:0:0:50:C4S.wav
329,192,50605,1,0,0:0:0:100:G6S.wav
182,192,50605,1,0,0:0:0:50:G4S.wav
475,192,50962,1,0,0:0:0:100:E6S.wav
36,192,51319,1,0,0:0:0:50:D#6S_Eb6S.wav
475,192,51319,1,0,0:0:0:100:D7S.wav
256,192,51319,1,0,0:0:0:100:G6S.wav
36,192,52034,1,0,0:0:0:50:D#4S_Eb4S.wav
329,192,52034,1,0,0:0:0:100:D#6S_Eb6S.wav
475,192,52034,1,0,0:0:0:100:C7S.wav
256,192,52391,1,0,0:0:0:100:D#6S_Eb6S.wav
402,192,52391,1,0,0:0:0:100:G6S.wav
36,192,52748,1,0,0:0:0:50:D#4S_Eb4S.wav
256,192,53105,1,0,0:0:0:100:D#6S_Eb6S.wav
402,192,53105,1,0,0:0:0:100:G6S.wav
36,192,53462,1,0,0:0:0:50:D#4S_Eb4S.wav
109,192,53819,1,0,0:0:0:100:B6S.wav
475,192,53998,1,0,0:0:0:100:F#6S_Gb6S.wav
329,192,53998,1,0,0:0:0:100:A6S.wav
182,192,54177,1,0,0:0:0:50:A4S.wav
182,192,54534,1,0,0:0:0:50:A4S.wav
182,192,54891,128,0,55069:0:0:0:70:A4S.wav
329,192,55069,128,0,55248:0:0:0:70:B4S.wav
475,192,55248,128,0,55427:0:0:0:70:C5S.wav
109,192,55427,128,0,55605:0:0:0:70:D5S.wav
256,192,55605,128,0,55784:0:0:0:70:G5S.wav
402,192,55784,128,0,55962:0:0:0:70:F#5S_Gb5S.wav
36,192,55962,128,0,56141:0:0:0:70:A5S.wav
182,192,56141,128,0,56319:0:0:0:70:B5S.wav
329,192,56319,128,0,56498:0:0:0:70:C6S.wav
475,192,56498,128,0,56677:0:0:0:70:D6S.wav
329,192,56677,128,0,56855:0:0:0:70:E6S.wav
182,192,56855,128,0,57034:0:0:0:70:F#6S_Gb6S.wav
475,192,57034,1,0,0:0:0:100:D6S.wav
36,192,57034,1,0,0:0:0:100:G6S.wav
36,192,57391,1,0,0:0:0:100:D6S.wav
475,192,57391,1,0,0:0:0:100:G6S.wav
256,192,58105,1,0,0:0:0:50:D3S.wav
475,192,58105,1,0,0:0:0:100:F#6S_Gb6S.wav
36,192,58105,1,0,0:0:0:100:D6S.wav
256,192,59177,1,0,0:0:0:100:D6S.wav
329,192,59534,1,0,0:0:0:100:G6S.wav
402,192,59891,1,0,0:0:0:100:A6S.wav
36,192,60248,1,0,0:0:0:50:G3S.wav
475,192,60248,1,0,0:0:0:100:C7S.wav
256,192,60248,1,0,0:0:0:100:G6S.wav
109,192,60426,1,0,0:0:0:100:G5S.wav
182,192,60605,1,0,0:0:0:100:A5S.wav
475,192,60783,1,0,0:0:0:100:B5S.wav
329,192,60962,1,0,0:0:0:100:D6S.wav
256,192,61319,1,0,0:0:0:100:B6S.wav
109,192,61319,1,0,0:0:0:100:D6S.wav
256,192,61498,1,0,0:0:0:100:B6S.wav
109,192,61498,1,0,0:0:0:100:D6S.wav
36,192,61855,1,0,0:0:0:100:G6S.wav
182,192,62033,1,0,0:0:0:100:D6S.wav
329,192,62212,1,0,0:0:0:100:B5S.wav
36,192,62390,1,0,0:0:0:50:D4S.wav
475,192,62390,1,0,0:0:0:70:D5S.wav
109,192,62748,1,0,0:0:0:100:G6S.wav
402,192,62748,1,0,0:0:0:100:D6S.wav
329,192,63105,1,0,0:0:0:100:C6S.wav
182,192,63105,1,0,0:0:0:100:A6S.wav
329,192,63462,1,0,0:0:0:100:C6S.wav
182,192,63462,1,0,0:0:0:100:A6S.wav
182,192,63640,1,0,0:0:0:100:A6S.wav
329,192,63640,1,0,0:0:0:100:C6S.wav
36,192,63998,1,0,0:0:0:100:B6S.wav
475,192,63998,1,0,0:0:0:100:D6S.wav
36,192,64355,1,0,0:0:0:100:B6S.wav
475,192,64355,1,0,0:0:0:100:D6S.wav
182,192,64712,1,0,0:0:0:100:B5S.wav
329,192,64890,1,0,0:0:0:100:B6S.wav
182,192,65069,1,0,0:0:0:100:B5S.wav
402,192,65248,1,0,0:0:0:100:B7S.wav
402,192,65605,1,0,0:0:0:100:B7S.wav
256,192,65783,1,0,0:0:0:100:G6S.wav
475,192,65962,1,0,0:0:0:100:C7S.wav
109,192,65962,1,0,0:0:0:100:A6S.wav
109,192,66498,1,0,0:0:0:100:C7S.wav
475,192,66498,1,0,0:0:0:100:A6S.wav
329,192,67033,1,0,0:0:0:100:B6S.wav
182,192,67033,1,0,0:0:0:100:D6S.wav
329,192,67212,1,0,0:0:0:100:B6S.wav
182,192,67212,1,0,0:0:0:100:D6S.wav
402,192,67748,1,0,0:0:0:100:B7S.wav
402,192,68105,1,0,0:0:0:100:B7S.wav
36,192,68462,1,0,0:0:0:100:D6S.wav
182,192,68462,1,0,0:0:0:100:G6S.wav
329,192,68819,1,0,0:0:0:100:A6S.wav
475,192,68819,1,0,0:0:0:100:C6S.wav
475,192,69176,1,0,0:0:0:100:C6S.wav
329,192,69176,1,0,0:0:0:100:A6S.wav
329,192,69355,1,0,0:0:0:100:A6S.wav
475,192,69355,1,0,0:0:0:100:C6S.wav
256,192,69712,1,0,0:0:0:100:B6S.wav
109,192,69712,1,0,0:0:0:100:D6S.wav
109,192,70069,1,0,0:0:0:100:D6S.wav
256,192,70069,1,0,0:0:0:100:B6S.wav
402,192,70962,1,0,0:0:0:100:G6S.wav
256,192,70962,1,0,0:0:0:100:D6S.wav
402,192,71319,1,0,0:0:0:100:D6S.wav
256,192,71319,1,0,0:0:0:100:G6S.wav
36,192,71676,128,0,71855:0:0:0:100:D6S.wav
182,192,71676,128,0,71855:0:0:0:50:C4S.wav
475,192,72033,1,0,0:0:0:100:C7S.wav
475,192,72212,1,0,0:0:0:100:C7S.wav
182,192,72390,1,0,0:0:0:50:D6S.wav
329,192,72390,1,0,0:0:0:100:B6S.wav
475,192,72748,1,0,0:0:0:100:C7S.wav
109,192,73105,128,0,73283:0:0:0:100:D6S.wav
256,192,73105,128,0,73283:0:0:0:50:D4S.wav
475,192,73819,128,0,73998:0:0:0:50:F#5S_Gb5S.wav
329,192,73819,128,0,73998:0:0:0:100:D7S.wav
36,192,74176,1,0,0:0:0:50:D6S.wav
182,192,74176,1,0,0:0:0:100:D7S.wav
36,192,74355,1,0,0:0:0:50:D6S.wav
182,192,74355,1,0,0:0:0:100:D7S.wav
329,192,74533,1,0,0:0:0:100:F#6S_Gb6S.wav
475,192,74533,1,0,0:0:0:100:D7S.wav
402,192,74890,1,0,0:0:0:100:E6S.wav
109,192,75069,1,0,0:0:0:100:D6S.wav
256,192,75426,1,0,0:0:0:100:F#6S_Gb6S.wav
109,192,75426,1,0,0:0:0:100:D6S.wav
475,192,75783,1,0,0:0:0:100:E6S.wav
329,192,75783,1,0,0:0:0:100:G6S.wav
36,192,75962,1,0,0:0:0:50:G5S.wav
109,192,76140,1,0,0:0:0:100:E6S.wav
182,192,76319,1,0,0:0:0:50:B6S.wav
256,192,76498,1,0,0:0:0:100:G7S.wav
475,192,76676,1,0,0:0:0:100:E5S.wav
329,192,76676,1,0,0:0:0:50:E8S.wav
36,192,77033,1,0,0:0:0:100:E5S.wav
109,192,77033,1,0,0:0:0:100:E6S.wav
36,192,77212,1,0,0:0:0:100:E5S.wav
109,192,77212,1,0,0:0:0:100:E6S.wav
402,192,77390,1,0,0:0:0:100:E6S.wav
256,192,77390,1,0,0:0:0:100:B6S.wav
402,192,77748,1,0,0:0:0:100:E6S.wav
182,192,77748,1,0,0:0:0:100:A6S.wav
402,192,77926,1,0,0:0:0:100:E6S.wav
182,192,77926,1,0,0:0:0:100:A6S.wav
109,192,78640,1,0,0:0:0:100:E6S.wav
475,192,78819,1,0,0:0:0:100:G6S.wav
329,192,78819,1,0,0:0:0:100:D6S.wav
475,192,78998,1,0,0:0:0:100:G6S.wav
329,192,78998,1,0,0:0:0:100:D6S.wav
182,192,79176,1,0,0:0:0:100:F#6S_Gb6S.wav
36,192,79176,1,0,0:0:0:100:D6S.wav
36,192,79355,1,0,0:0:0:100:F#6S_Gb6S.wav
182,192,79355,1,0,0:0:0:100:D6S.wav
475,192,79533,1,0,0:0:0:100:E6S.wav
329,192,79533,1,0,0:0:0:100:D6S.wav
402,192,79890,1,0,0:0:0:100:F#6S_Gb6S.wav
256,192,79890,1,0,0:0:0:50:D6S.wav
182,192,80248,1,0,0:0:0:50:D6S.wav
329,192,80248,1,0,0:0:0:100:B5S.wav
36,192,80248,1,0,0:0:0:100:G6S.wav
402,192,80962,1,0,0:0:0:50:D5S.wav
256,192,80962,1,0,0:0:0:70:G6S.wav
36,192,81676,1,0,0:0:0:50:G5S.wav
475,192,81676,1,0,0:0:0:70:G8S.wav
329,192,81676,1,0,0:0:0:50:D5S.wav
36,192,83214,1,0,0:0:0:70:C#5S_Db5S.wav
182,192,83630,1,0,0:0:0:70:G#5S_Ab5S.wav
329,192,84047,1,0,0:0:0:70:C#6S_Db6S.wav
475,192,84464,1,0,0:0:0:70:D#6S_Eb6S.wav
182,192,84880,1,0,0:0:0:70:F6S.wav
256,192,85297,1,0,0:0:0:70:G#6S_Ab6S.wav
329,192,85714,1,0,0:0:0:70:C#7S_Db7S.wav
402,192,86130,1,0,0:0:0:70:D#7S_Eb7S.wav
36,192,86547,1,0,0:0:0:30:D#4S_Eb4S.wav
475,192,86547,1,0,0:0:0:70:G#7S_Ab7S.wav
36,192,87762,1,0,0:0:0:70:D#7S_Eb7S.wav
36,192,88095,1,0,0:0:0:70:D#7S_Eb7S.wav
256,192,88429,1,0,0:0:0:70:A#7S_Bb7S.wav
256,192,89095,1,0,0:0:0:70:A#7S_Bb7S.wav
475,192,89429,1,0,0:0:0:70:G#7S_Ab7S.wav
329,192,90519,1,0,0:0:0:70:G7S.wav
182,192,91719,1,0,0:0:0:70:G#6S_Ab6S.wav
36,192,91719,1,0,0:0:0:70:C6S.wav
329,192,91819,1,0,0:0:0:70:C7S.wav
475,192,91919,1,0,0:0:0:70:G#7S_Ab7S.wav
