osu file format v14

[General]
AudioFilename: virtual
AudioLeadIn: 0
PreviewTime: 2847
Countdown: 0
SampleSet: Soft
StackLeniency: 0.7
Mode: 3
LetterboxInBreaks: 0
SpecialStyle: 0
WidescreenStoryboard: 0

[Editor]
Bookmarks: 2847,13918,14275,28561,29275,31320,41320,42748,48462,54177,54891,57034,58105,59177,60248,71676,74533,75962,76676,80248,81676,83214,86547,87429,89429,90519,91719,91919
DistanceSpacing: 0.9
BeatDivisor: 16
GridSize: 32
TimelineZoom: 1.2

[Metadata]
Title:Orange (Piano Arrange Ver.)
TitleUnicode:オレンジ (Piano Arrange Ver.)
Artist:7!!
ArtistUnicode:7!!
Creator:Kawawa
Version:Cherry Blossom
Source:四月は君の嘘
Tags:shigatsu wa kimi no uso your lie in april ending kawaEE piano arrange wawa
BeatmapID:1075668
BeatmapSetID:505667

[Difficulty]
HPDrainRate:8
CircleSize:7
OverallDifficulty:7
ApproachRate:5
SliderMultiplier:1.4
SliderTickRate:1

[Events]
//Background and Video events
0,0,"BG.png",0,0
//Break Periods
//Storyboard Layer 0 (Background)
//Storyboard Layer 1 (Fail)
//Storyboard Layer 2 (Pass)
//Storyboard Layer 3 (Foreground)
//Storyboard Sound Samples

[TimingPoints]
2847,714.285714285714,4,2,0,20,1,0
28561,-100,4,2,0,20,0,1
29275,681.818181818182,4,2,0,20,1,0
29275,-105.263157894737,4,2,0,20,0,0
31320,714.285714285714,4,2,0,20,1,0
41320,-100,4,2,0,20,0,1
42748,-100,4,2,0,20,0,0
54891,-100,4,2,0,20,0,1
57034,-100,4,2,0,20,0,0
57391,-100,4,2,0,20,0,1
57480,-100,4,2,0,20,0,0
58105,-100,4,2,0,20,0,1
58194,-100,4,2,0,20,0,0
60248,714.285714285714,4,2,0,20,1,0
75962,-100,4,2,0,20,0,1
76676,-100,4,2,0,20,0,0
80248,-100,4,2,0,20,0,1
81676,769.230769230769,4,2,0,20,1,0
81676,-93.4579439252336,4,2,0,20,0,0
83214,833.333333333333,4,2,0,20,1,0
83214,-86.2068965517241,4,2,0,20,0,0
86547,882.352941176471,4,2,0,20,1,0
86547,-81.3008130081301,4,2,0,20,0,0
87429,1000,4,2,0,20,1,0
87429,-71.4285714285714,4,2,0,20,0,0
89429,1090.90909090909,4,2,0,20,1,0
89429,-65.7894736842105,4,2,0,20,0,1
89519,-65.7894736842105,4,2,0,20,0,0
90519,1200,4,2,0,20,1,0
90519,-59.5238095238095,4,2,0,20,0,1
90619,-59.5238095238095,4,2,0,20,0,0
91719,-59.5238095238095,4,2,0,20,0,1
91919,-59.5238095238095,4,2,0,20,0,0

[HitObjects]
329,192,2847,5,0,0:0:0:100:E5S.wav
475,192,2847,1,0,0:0:0:100:G5S.wav
182,192,2847,1,0,0:0:0:50:B4S.wav
36,192,2847,1,0,0:0:0:50:E4S.wav
329,192,3561,5,0,0:0:0:100:E6S.wav
329,192,3918,1,0,0:0:0:100:F#6S_Gb6S.wav
475,192,4096,1,0,0:0:0:100:G6S.wav
36,192,4275,1,0,0:0:0:50:B4S.wav
182,192,4275,1,0,0:0:0:50:E4S.wav
475,192,4632,1,0,0:0:0:100:B6S.wav
329,192,4811,1,0,0:0:0:100:A6S.wav
109,192,5346,1,0,0:0:0:100:D6S.wav
256,192,5525,1,0,0:0:0:100:E6S.wav
402,192,5704,1,0,0:0:0:100:G5S.wav
475,192,5704,1,0,0:0:0:100:E5S.wav
36,192,5704,1,0,0:0:0:50:C4S.wav
109,192,5704,1,0,0:0:0:50:C5S.wav
182,192,6418,1,0,0:0:0:50:G4S.wav
475,192,6775,1,0,0:0:0:100:E5S.wav
402,192,6775,1,0,0:0:0:100:G5S.wav
109,192,7132,1,0,0:0:0:50:C4S.wav
36,192,7132,1,0,0:0:0:50:C5S.wav
182,192,7489,1,0,0:0:0:50:G4S.wav
256,192,7846,1,0,0:0:0:100:C5S.wav
329,192,8204,1,0,0:0:0:100:E5S.wav
475,192,8561,1,0,0:0:0:100:A5S.wav
402,192,8561,1,0,0:0:0:100:F#5S_Gb5S.wav
36,192,8561,1,0,0:0:0:50:D4S.wav
182,192,8561,1,0,0:0:0:50:D5S.wav
402,192,9275,1,0,0:0:0:100:D6S.wav
402,192,9632,1,0,0:0:0:100:D6S.wav
402,192,9811,1,0,0:0:0:100:D6S.wav
256,192,9989,1,0,0:0:0:50:D5S.wav
36,192,9989,1,0,0:0:0:50:D4S.wav
182,192,10346,1,0,0:0:0:100:C6S.wav
402,192,10346,1,0,0:0:0:50:A4S.wav
109,192,10704,1,0,0:0:0:100:B5S.wav
329,192,10704,1,0,0:0:0:50:D5S.wav
182,192,11061,1,0,0:0:0:100:C6S.wav
402,192,11061,1,0,0:0:0:50:A5S.wav
475,192,11418,1,0,0:0:0:100:B5S.wav
256,192,11418,1,0,0:0:0:100:G5S.wav
36,192,11418,1,0,0:0:0:50:G2S.wav
475,192,12132,1,0,0:0:0:100:B5S.wav
329,192,12132,1,0,0:0:0:100:G5S.wav
329,192,12489,1,0,0:0:0:100:G5S.wav
475,192,12668,1,0,0:0:0:100:B5S.wav
109,192,12846,1,0,0:0:0:100:F#5S_Gb5S.wav
256,192,12846,1,0,0:0:0:100:A5S.wav
36,192,12846,1,0,0:0:0:50:F#2S_Gb2S.wav
182,192,13739,1,0,0:0:0:100:A5S.wav
329,192,13918,1,0,0:0:0:100:B5S.wav
182,192,14275,1,0,0:0:0:50:E5S.wav
475,192,14275,1,0,0:0:0:100:C6S.wav
329,192,14275,1,0,0:0:0:100:G5S.wav
36,192,14275,1,0,0:0:0:50:C4S.wav
109,192,14632,1,0,0:0:0:100:C6S.wav
256,192,14632,1,0,0:0:0:50:G4S.wav
109,192,14811,1,0,0:0:0:100:C6S.wav
329,192,14989,1,0,0:0:0:50:C5S.wav
182,192,15168,1,0,0:0:0:100:G6S.wav
402,192,15346,1,0,0:0:0:50:G5S.wav
475,192,15704,1,0,0:0:0:100:F#6S_Gb6S.wav
329,192,15704,1,0,0:0:0:100:A5S.wav
182,192,15704,1,0,0:0:0:50:F#5S_Gb5S.wav
36,192,15704,1,0,0:0:0:50:D4S.wav
109,192,16061,1,0,0:0:0:50:A4S.wav
256,192,16418,1,0,0:0:0:50:D5S.wav
402,192,16596,1,0,0:0:0:100:E6S.wav
402,192,16775,1,0,0:0:0:100:E6S.wav
109,192,16775,1,0,0:0:0:50:C4S.wav
402,192,16954,1,0,0:0:0:100:E6S.wav
329,192,17132,1,0,0:0:0:100:F#5S_Gb5S.wav
475,192,17132,1,0,0:0:0:100:D6S.wav
36,192,17132,1,0,0:0:0:50:B3S.wav
182,192,17132,1,0,0:0:0:50:D5S.wav
36,192,17489,1,0,0:0:0:100:D6S.wav
256,192,17489,1,0,0:0:0:50:F#4S_Gb4S.wav
36,192,17668,1,0,0:0:0:100:D6S.wav
329,192,17846,1,0,0:0:0:50:B4S.wav
109,192,18025,1,0,0:0:0:100:A6S.wav
402,192,18204,1,0,0:0:0:50:F#5S_Gb5S.wav
329,192,18561,1,0,0:0:0:100:G5S.wav
475,192,18561,1,0,0:0:0:100:G6S.wav
36,192,18561,1,0,0:0:0:50:E4S.wav
182,192,18561,1,0,0:0:0:50:E5S.wav
109,192,18918,1,0,0:0:0:50:B4S.wav
182,192,19275,1,0,0:0:0:50:E5S.wav
256,192,19632,1,0,0:0:0:100:A6S.wav
182,192,19811,1,0,0:0:0:100:B6S.wav
475,192,19989,1,0,0:0:0:100:C7S.wav
329,192,19989,1,0,0:0:0:100:G6S.wav
109,192,19989,1,0,0:0:0:50:E6S.wav
36,192,19989,1,0,0:0:0:50:C4S.wav
182,192,20346,1,0,0:0:0:50:G4S.wav
256,192,20704,1,0,0:0:0:50:C5S.wav
329,192,21061,1,0,0:0:0:100:E6S.wav
36,192,21061,1,0,0:0:0:50:C4S.wav
109,192,21061,1,0,0:0:0:50:G4S.wav
402,192,21418,1,0,0:0:0:100:G6S.wav
329,192,21775,1,0,0:0:0:100:E6S.wav
36,192,21775,1,0,0:0:0:50:C4S.wav
109,192,21775,1,0,0:0:0:50:G4S.wav
402,192,22132,1,0,0:0:0:100:G6S.wav
256,192,22132,1,0,0:0:0:50:E6S.wav
182,192,22489,1,0,0:0:0:100:E6S.wav
329,192,22489,1,0,0:0:0:50:C6S.wav
256,192,22846,1,0,0:0:0:100:G6S.wav
475,192,22846,1,0,0:0:0:100:B6S.wav
109,192,22846,1,0,0:0:0:50:E6S.wav
36,192,22846,1,0,0:0:0:50:A3S.wav
475,192,23382,1,0,0:0:0:100:B6S.wav
36,192,23561,1,0,0:0:0:50:E4S.wav
475,192,23739,1,0,0:0:0:100:C7S.wav
402,192,23918,1,0,0:0:0:100:B6S.wav
182,192,23918,1,0,0:0:0:50:G5S.wav
36,192,23918,1,0,0:0:0:50:E5S.wav
329,192,24096,1,0,0:0:0:100:A6S.wav
329,192,24632,1,0,0:0:0:100:G6S.wav
36,192,24632,1,0,0:0:0:50:E4S.wav
475,192,24811,1,0,0:0:0:100:B6S.wav
36,192,24989,1,0,0:0:0:50:E5S.wav
182,192,24989,1,0,0:0:0:50:G5S.wav
329,192,25346,1,0,0:0:0:100:G5S.wav
402,192,25525,1,0,0:0:0:100:A5S.wav
256,192,25704,1,0,0:0:0:100:G5S.wav
475,192,25704,1,0,0:0:0:100:B5S.wav
36,192,25704,1,0,0:0:0:50:D4S.wav
109,192,25704,1,0,0:0:0:50:E5S.wav
182,192,26061,1,0,0:0:0:50:E5S.wav
329,192,26418,1,0,0:0:0:100:G5S.wav
36,192,26418,1,0,0:0:0:50:E4S.wav
475,192,26775,1,0,0:0:0:100:B5S.wav
329,192,26775,1,0,0:0:0:100:G5S.wav
182,192,26775,1,0,0:0:0:50:E5S.wav
329,192,27489,1,0,0:0:0:100:G5S.wav
36,192,27489,1,0,0:0:0:50:E4S.wav
475,192,27846,1,0,0:0:0:100:B5S.wav
329,192,27846,1,0,0:0:0:100:G5S.wav
182,192,27846,1,0,0:0:0:50:E5S.wav
329,192,28561,1,0,0:0:0:100:F#5S_Gb5S.wav
402,192,28561,1,0,0:0:0:100:A5S.wav
109,192,28561,1,0,0:0:0:50:D4S.wav
182,192,28561,1,0,0:0:0:50:A4S.wav
402,192,28918,1,0,0:0:0:100:A5S.wav
329,192,28918,1,0,0:0:0:100:F#5S_Gb5S.wav
109,192,28918,1,0,0:0:0:50:D4S.wav
182,192,28918,1,0,0:0:0:50:A4S.wav
36,192,29275,1,0,0:0:0:50:D3S.wav
182,192,29445,1,0,0:0:0:50:G3S.wav
256,192,29615,1,0,0:0:0:50:A3S.wav
109,192,29786,1,0,0:0:0:50:D4S.wav
256,192,29956,1,0,0:0:0:50:G2S.wav
329,192,30127,1,0,0:0:0:50:A4S.wav
182,192,30297,1,0,0:0:0:50:D5S.wav
329,192,30468,1,0,0:0:0:50:G5S.wav
402,192,30638,1,0,0:0:0:50:A5S.wav
256,192,30809,1,0,0:0:0:50:D6S.wav
402,192,30979,1,0,0:0:0:50:G6S.wav
475,192,31150,1,0,0:0:0:50:A6S.wav
36,192,31320,1,0,0:0:0:100:C6S.wav
329,192,31320,1,0,0:0:0:100:E6S.wav
182,192,31320,1,0,0:0:0:50:C4S.wav
109,192,31320,1,0,0:0:0:50:G5S.wav
329,192,31677,1,0,0:0:0:100:E6S.wav
36,192,31677,1,0,0:0:0:50:C4S.wav
402,192,31855,1,0,0:0:0:100:F#6S_Gb6S.wav
109,192,31855,1,0,0:0:0:50:G4S.wav
475,192,32034,1,0,0:0:0:100:G6S.wav
182,192,32034,1,0,0:0:0:50:C5S.wav
256,192,32212,1,0,0:0:0:50:D5S.wav
329,192,32391,1,0,0:0:0:50:E5S.wav
475,192,32570,1,0,0:0:0:100:B6S.wav
402,192,32748,1,0,0:0:0:100:A6S.wav
36,192,32748,1,0,0:0:0:50:D4S.wav
109,192,32927,1,0,0:0:0:50:A4S.wav
329,192,32927,1,0,0:0:0:100:G6S.wav
402,192,33105,1,0,0:0:0:100:A6S.wav
182,192,33105,1,0,0:0:0:50:E5S.wav
36,192,33284,1,0,0:0:0:50:F#5S_Gb5S.wav
109,192,33462,1,0,0:0:0:50:A5S.wav
475,192,33462,1,0,0:0:0:100:A7S.wav
36,192,33641,1,0,0:0:0:50:F#5S_Gb5S.wav
329,192,33641,1,0,0:0:0:100:F#6S_Gb6S.wav
182,192,33820,1,0,0:0:0:50:D5S.wav
329,192,33820,1,0,0:0:0:100:F#6S_Gb6S.wav
109,192,33998,1,0,0:0:0:50:C5S.wav
402,192,33998,1,0,0:0:0:100:G6S.wav
182,192,34177,1,0,0:0:0:50:B5S.wav
329,192,34177,1,0,0:0:0:100:F#6S_Gb6S.wav
475,192,34177,1,0,0:0:0:100:A6S.wav
36,192,34177,1,0,0:0:0:50:B3S.wav
256,192,34355,1,0,0:0:0:50:F#4S_Gb4S.wav
109,192,34534,1,0,0:0:0:50:B4S.wav
256,192,34712,1,0,0:0:0:50:D#5S_Eb5S.wav
329,192,34891,1,0,0:0:0:100:F#6S_Gb6S.wav
475,192,34891,1,0,0:0:0:100:A6S.wav
182,192,34891,1,0,0:0:0:50:B5S.wav
36,192,34891,1,0,0:0:0:50:F#5S_Gb5S.wav
109,192,35070,1,0,0:0:0:50:G5S.wav
182,192,35248,1,0,0:0:0:50:A5S.wav
475,192,35427,1,0,0:0:0:100:E6S.wav
402,192,35427,1,0,0:0:0:100:B6S.wav
256,192,35427,1,0,0:0:0:50:B5S.wav
329,192,35605,1,0,0:0:0:100:A6S.wav
109,192,35605,1,0,0:0:0:50:E3S.wav
182,192,35784,1,0,0:0:0:50:B3S.wav
256,192,35784,1,0,0:0:0:100:G6S.wav
36,192,35962,1,0,0:0:0:50:E4S.wav
329,192,35962,1,0,0:0:0:100:F#6S_Gb6S.wav
109,192,36141,1,0,0:0:0:50:G4S.wav
402,192,36141,1,0,0:0:0:100:G6S.wav
182,192,36320,1,0,0:0:0:50:B4S.wav
475,192,36320,1,0,0:0:0:100:G7S.wav
109,192,36498,1,0,0:0:0:50:E5S.wav
329,192,36498,1,0,0:0:0:100:E6S.wav
36,192,36677,1,0,0:0:0:50:B4S.wav
329,192,36677,1,0,0:0:0:100:E6S.wav
109,192,36855,1,0,0:0:0:50:G4S.wav
402,192,36855,1,0,0:0:0:100:F#6S_Gb6S.wav
329,192,37034,1,0,0:0:0:100:C6S.wav
182,192,37034,1,0,0:0:0:50:A3S.wav
475,192,37034,1,0,0:0:0:100:G6S.wav
109,192,37212,1,0,0:0:0:50:E4S.wav
182,192,37391,1,0,0:0:0:50:G4S.wav
329,192,37391,1,0,0:0:0:100:C6S.wav
475,192,37391,1,0,0:0:0:100:G6S.wav
36,192,37570,1,0,0:0:0:50:C5S.wav
329,192,37570,1,0,0:0:0:100:C6S.wav
475,192,37570,1,0,0:0:0:100:G6S.wav
109,192,37748,1,0,0:0:0:50:E5S.wav
329,192,37927,1,0,0:0:0:100:C6S.wav
182,192,37927,1,0,0:0:0:50:A5S.wav
475,192,37927,1,0,0:0:0:100:G6S.wav
329,192,38105,1,0,0:0:0:100:C6S.wav
36,192,38105,1,0,0:0:0:50:E5S.wav
475,192,38105,1,0,0:0:0:100:G6S.wav
329,192,38284,1,0,0:0:0:100:C6S.wav
475,192,38284,1,0,0:0:0:100:G6S.wav
109,192,38284,1,0,0:0:0:50:C5S.wav
402,192,38462,1,0,0:0:0:100:D6S.wav
256,192,38462,1,0,0:0:0:100:F#6S_Gb6S.wav
36,192,38462,1,0,0:0:0:50:D3S.wav
182,192,38641,1,0,0:0:0:50:A3S.wav
402,192,38820,1,0,0:0:0:100:D6S.wav
329,192,38820,1,0,0:0:0:100:A5S.wav
109,192,38820,1,0,0:0:0:50:D4S.wav
182,192,38998,1,0,0:0:0:50:F#4S_Gb4S.wav
329,192,39177,1,0,0:0:0:100:A5S.wav
36,192,39177,1,0,0:0:0:50:A4S.wav
402,192,39177,1,0,0:0:0:100:D6S.wav
109,192,39355,1,0,0:0:0:50:D5S.wav
402,192,39534,1,0,0:0:0:100:A6S.wav
36,192,39534,1,0,0:0:0:50:A4S.wav
475,192,39534,1,0,0:0:0:100:C7S.wav
402,192,39712,1,0,0:0:0:100:A6S.wav
475,192,39712,1,0,0:0:0:100:C7S.wav
182,192,39712,1,0,0:0:0:50:F#4S_Gb4S.wav
329,192,39891,1,0,0:0:0:100:D6S.wav
36,192,39891,1,0,0:0:0:50:G3S.wav
402,192,39936,1,0,0:0:0:100:G6S.wav
475,192,39980,1,0,0:0:0:100:C7S.wav
109,192,40070,1,0,0:0:0:50:D4S.wav
329,192,40248,1,0,0:0:0:100:D6S.wav
182,192,40248,1,0,0:0:0:50:G4S.wav
402,192,40293,1,0,0:0:0:100:G6S.wav
475,192,40337,1,0,0:0:0:100:B6S.wav
109,192,40427,1,0,0:0:0:50:A4S.wav
329,192,40605,1,0,0:0:0:100:D6S.wav
36,192,40605,1,0,0:0:0:50:B4S.wav
402,192,40650,1,0,0:0:0:100:G6S.wav
475,192,40695,1,0,0:0:0:100:B6S.wav
109,192,40784,1,0,0:0:0:50:D5S.wav
329,192,40962,1,0,0:0:0:50:G5S.wav
182,192,40962,1,0,0:0:0:100:A6S.wav
109,192,41141,1,0,0:0:0:50:A5S.wav
256,192,41141,1,0,0:0:0:100:B6S.wav
36,192,41141,1,0,0:0:0:100:D6S.wav
329,192,41320,1,0,0:0:0:50:G3S.wav
475,192,41320,1,0,0:0:0:70:G4S.wav
109,192,41409,1,0,0:0:0:70:B4S.wav
256,192,41498,1,0,0:0:0:50:D4S.wav
402,192,41498,1,0,0:0:0:70:D5S.wav
36,192,41587,1,0,0:0:0:70:G5S.wav
182,192,41677,1,0,0:0:0:50:B4S.wav
329,192,41677,1,0,0:0:0:70:B5S.wav
475,192,41766,1,0,0:0:0:70:D6S.wav
256,192,41855,1,0,0:0:0:50:G5S.wav
109,192,41855,1,0,0:0:0:70:G6S.wav
402,192,41945,1,0,0:0:0:70:B6S.wav
182,192,42034,1,0,0:0:0:50:D6S.wav
36,192,42034,1,0,0:0:0:70:D7S.wav
402,192,42123,1,0,0:0:0:70:G7S.wav
109,192,42212,1,0,0:0:0:50:B6S.wav
256,192,42212,1,0,0:0:0:70:B7S.wav
475,192,42302,1,0,0:0:0:70:D8S.wav
182,192,42391,1,0,0:0:0:50:G7S.wav
329,192,42391,1,0,0:0:0:70:G8S.wav
36,192,42569,1,0,0:0:0:50:G4S.wav
109,192,42569,1,0,0:0:0:50:G5S.wav
402,192,42748,1,0,0:0:0:100:E6S.wav
475,192,42748,1,0,0:0:0:100:G6S.wav
182,192,42748,1,0,0:0:0:50:C6S.wav
329,192,42748,1,0,0:0:0:50:A3S.wav
36,192,42927,1,0,0:0:0:50:G3S.wav
329,192,43105,1,0,0:0:0:100:C7S.wav
475,192,43105,1,0,0:0:0:100:G6S.wav
182,192,43105,1,0,0:0:0:50:C4S.wav
329,192,43284,1,0,0:0:0:100:C7S.wav
475,192,43284,1,0,0:0:0:100:G6S.wav
182,192,43284,1,0,0:0:0:50:C4S.wav
329,192,43462,1,0,0:0:0:100:C7S.wav
475,192,43462,1,0,0:0:0:100:G6S.wav
182,192,43462,1,0,0:0:0:50:G4S.wav
109,192,43641,1,0,0:0:0:50:E4S.wav
36,192,43819,1,0,0:0:0:50:C4S.wav
329,192,43998,1,0,0:0:0:100:D6S.wav
182,192,43998,1,0,0:0:0:50:G3S.wav
475,192,44177,1,0,0:0:0:100:C7S.wav
36,192,44177,1,0,0:0:0:50:D3S.wav
402,192,44355,1,0,0:0:0:100:A6S.wav
109,192,44355,1,0,0:0:0:50:A3S.wav
329,192,44534,1,0,0:0:0:100:G6S.wav
182,192,44534,1,0,0:0:0:50:D4S.wav
402,192,44712,1,0,0:0:0:100:A6S.wav
36,192,44712,1,0,0:0:0:50:D4S.wav
475,192,44891,1,0,0:0:0:100:A7S.wav
109,192,44891,1,0,0:0:0:50:A4S.wav
329,192,45069,1,0,0:0:0:100:F#6S_Gb6S.wav
182,192,45069,1,0,0:0:0:50:F#4S_Gb4S.wav
329,192,45248,1,0,0:0:0:100:F#6S_Gb6S.wav
109,192,45248,1,0,0:0:0:50:D4S.wav
402,192,45427,1,0,0:0:0:100:G6S.wav
182,192,45427,1,0,0:0:0:50:A3S.wav
329,192,45605,1,0,0:0:0:50:B5S.wav
109,192,45605,1,0,0:0:0:100:F#6S_Gb6S.wav
475,192,45605,1,0,0:0:0:100:A6S.wav
36,192,45605,1,0,0:0:0:50:B2S.wav
256,192,45784,1,0,0:0:0:50:F#4S_Gb4S.wav
182,192,45962,1,0,0:0:0:50:B4S.wav
256,192,46141,1,0,0:0:0:50:D#5S_Eb5S.wav
329,192,46319,1,0,0:0:0:100:F#6S_Gb6S.wav
109,192,46319,1,0,0:0:0:50:B5S.wav
36,192,46319,1,0,0:0:0:50:F#5S_Gb5S.wav
475,192,46319,1,0,0:0:0:100:A6S.wav
182,192,46498,1,0,0:0:0:50:G5S.wav
256,192,46677,1,0,0:0:0:50:A5S.wav
475,192,46855,1,0,0:0:0:100:B6S.wav
402,192,46855,1,0,0:0:0:100:E6S.wav
109,192,46855,1,0,0:0:0:50:B5S.wav
329,192,47034,1,0,0:0:0:100:A6S.wav
182,192,47034,1,0,0:0:0:50:E3S.wav
402,192,47212,1,0,0:0:0:100:G6S.wav
36,192,47212,1,0,0:0:0:50:B3S.wav
256,192,47391,1,0,0:0:0:100:F#6S_Gb6S.wav
109,192,47391,1,0,0:0:0:50:E4S.wav
402,192,47569,1,0,0:0:0:100:G6S.wav
36,192,47569,1,0,0:0:0:50:G4S.wav
475,192,47748,1,0,0:0:0:100:G7S.wav
182,192,47748,1,0,0:0:0:50:B4S.wav
329,192,47927,1,0,0:0:0:100:E6S.wav
36,192,47927,1,0,0:0:0:50:E5S.wav
329,192,48105,1,0,0:0:0:100:E6S.wav
182,192,48105,1,0,0:0:0:50:B4S.wav
109,192,48284,1,0,0:0:0:50:G4S.wav
402,192,48284,1,0,0:0:0:100:F#6S_Gb6S.wav
329,192,48462,1,0,0:0:0:100:E6S.wav
475,192,48462,1,0,0:0:0:100:G6S.wav
36,192,48462,1,0,0:0:0:50:C3S.wav
182,192,48462,1,0,0:0:0:50:C6S.wav
475,192,48819,1,0,0:0:0:100:G7S.wav
182,192,49177,1,0,0:0:0:50:C4S.wav
329,192,49177,1,0,0:0:0:100:G5S.wav
256,192,49177,1,0,0:0:0:50:G4S.wav
36,192,49177,1,0,0:0:0:50:E4S.wav
475,192,49534,1,0,0:0:0:100:C6S.wav
402,192,49534,1,0,0:0:0:100:E6S.wav
256,192,49891,1,0,0:0:0:50:G4S.wav
36,192,49891,1,0,0:0:0:50:C5S.wav
329,192,49891,1,0,0:0:0:100:G6S.wav
109,192,49891,1,0,0:0:0:50:E4S.wav
475,192,50248,1,0,0:0:0:100:C6S.wav
402,192,50248,1,0,0:0:0:100:E6S.wav
256,192,50605,1,0,0:0:0:50:G4S.wav
109,192,50605,1,0,0:0:0:50:C4S.wav
329,192,50605,1,0,0:0:0:100:G6S.wav
36,192,50605,1,0,0:0:0:50:E4S.wav
402,192,50962,1,0,0:0:0:100:E6S.wav
475,192,50962,1,0,0:0:0:100:C6S.wav
36,192,51319,1,0,0:0:0:50:C4S.wav
109,192,51319,1,0,0:0:0:50:C3S.wav
329,192,51319,1,0,0:0:0:100:G6S.wav
475,192,51319,1,0,0:0:0:100:D7S.wav
256,192,51319,1,0,0:0:0:50:D#6S_Eb6S.wav
475,192,52034,1,0,0:0:0:100:C7S.wav
402,192,52034,1,0,0:0:0:100:D#6S_Eb6S.wav
109,192,52034,1,0,0:0:0:50:C6S.wav
256,192,52034,1,0,0:0:0:50:D#4S_Eb4S.wav
36,192,52034,1,0,0:0:0:50:C4S.wav
475,192,52391,1,0,0:0:0:100:G6S.wav
329,192,52391,1,0,0:0:0:100:D#6S_Eb6S.wav
182,192,52391,1,0,0:0:0:50:C6S.wav
109,192,52748,1,0,0:0:0:50:D#4S_Eb4S.wav
36,192,52748,1,0,0:0:0:50:G4S.wav
475,192,53105,1,0,0:0:0:100:G6S.wav
329,192,53105,1,0,0:0:0:100:D#6S_Eb6S.wav
182,192,53105,1,0,0:0:0:50:C6S.wav
109,192,53462,1,0,0:0:0:50:D#4S_Eb4S.wav
36,192,53462,1,0,0:0:0:50:G4S.wav
109,192,53819,1,0,0:0:0:100:B6S.wav
256,192,53998,1,0,0:0:0:50:D6S.wav
402,192,53998,1,0,0:0:0:100:A6S.wav
475,192,53998,1,0,0:0:0:100:F#6S_Gb6S.wav
36,192,54177,1,0,0:0:0:50:A4S.wav
109,192,54177,1,0,0:0:0:50:A3S.wav
36,192,54534,1,0,0:0:0:50:A4S.wav
109,192,54891,1,0,0:0:0:70:A4S.wav
36,192,54891,1,0,0:0:0:50:A3S.wav
329,192,54980,1,0,0:0:0:70:A5S.wav
182,192,55069,1,0,0:0:0:70:B4S.wav
109,192,55069,1,0,0:0:0:50:B3S.wav
402,192,55159,1,0,0:0:0:70:B5S.wav
182,192,55248,1,0,0:0:0:50:C4S.wav
256,192,55248,1,0,0:0:0:70:C5S.wav
475,192,55337,1,0,0:0:0:70:C6S.wav
329,192,55427,1,0,0:0:0:70:D5S.wav
256,192,55427,1,0,0:0:0:50:D4S.wav
109,192,55516,1,0,0:0:0:70:D6S.wav
402,192,55605,1,0,0:0:0:70:G5S.wav
329,192,55605,1,0,0:0:0:50:G4S.wav
182,192,55694,1,0,0:0:0:70:G6S.wav
475,192,55784,1,0,0:0:0:70:F#5S_Gb5S.wav
402,192,55784,1,0,0:0:0:50:F#4S_Gb4S.wav
256,192,55873,1,0,0:0:0:70:F#6S_Gb6S.wav
36,192,55962,1,0,0:0:0:70:A5S.wav
109,192,55962,1,0,0:0:0:50:A4S.wav
329,192,56052,1,0,0:0:0:70:A6S.wav
109,192,56141,1,0,0:0:0:70:B5S.wav
182,192,56141,1,0,0:0:0:50:B4S.wav
402,192,56230,1,0,0:0:0:70:B6S.wav
182,192,56319,1,0,0:0:0:70:C6S.wav
256,192,56319,1,0,0:0:0:50:C5S.wav
36,192,56409,1,0,0:0:0:70:C7S.wav
256,192,56498,1,0,0:0:0:70:D6S.wav
329,192,56498,1,0,0:0:0:50:D5S.wav
109,192,56587,1,0,0:0:0:70:D6S.wav
402,192,56677,1,0,0:0:0:70:E6S.wav
329,192,56677,1,0,0:0:0:50:E5S.wav
182,192,56766,1,0,0:0:0:70:E7S.wav
402,192,56855,1,0,0:0:0:70:F#6S_Gb6S.wav
475,192,56855,1,0,0:0:0:50:F#5S_Gb5S.wav
256,192,56944,1,0,0:0:0:70:F#7S_Gb7S.wav
475,192,57034,1,0,0:0:0:100:G6S.wav
402,192,57034,1,0,0:0:0:100:D6S.wav
36,192,57034,1,0,0:0:0:50:D2S.wav
109,192,57034,1,0,0:0:0:50:G5S.wav
475,192,57391,1,0,0:0:0:100:G6S.wav
402,192,57391,1,0,0:0:0:100:D6S.wav
36,192,57391,1,0,0:0:0:50:D2S.wav
109,192,57391,1,0,0:0:0:50:G5S.wav
109,192,58105,1,0,0:0:0:50:F#5S_Gb5S.wav
36,192,58105,1,0,0:0:0:50:D2S.wav
402,192,58105,1,0,0:0:0:100:D6S.wav
475,192,58105,1,0,0:0:0:100:F#6S_Gb6S.wav
256,192,58105,1,0,0:0:0:50:D3S.wav
109,192,59177,1,0,0:0:0:50:D5S.wav
256,192,59177,1,0,0:0:0:100:D6S.wav
329,192,59534,1,0,0:0:0:100:G6S.wav
182,192,59534,1,0,0:0:0:50:G5S.wav
256,192,59891,1,0,0:0:0:50:A5S.wav
402,192,59891,1,0,0:0:0:100:A6S.wav
402,192,60248,1,0,0:0:0:100:G6S.wav
36,192,60248,1,0,0:0:0:50:G3S.wav
475,192,60248,1,0,0:0:0:100:C7S.wav
256,192,60248,1,0,0:0:0:50:D6S.wav
329,192,60426,1,0,0:0:0:100:G5S.wav
109,192,60426,1,0,0:0:0:50:D3S.wav
36,192,60605,1,0,0:0:0:50:G3S.wav
256,192,60605,1,0,0:0:0:100:A5S.wav
109,192,60783,1,0,0:0:0:50:B3S.wav
402,192,60783,1,0,0:0:0:100:B5S.wav
329,192,60962,1,0,0:0:0:100:D6S.wav
182,192,60962,1,0,0:0:0:50:D4S.wav
109,192,61140,1,0,0:0:0:50:G4S.wav
182,192,61319,1,0,0:0:0:50:B4S.wav
329,192,61319,1,0,0:0:0:100:D6S.wav
475,192,61319,1,0,0:0:0:100:B6S.wav
36,192,61498,1,0,0:0:0:50:D5S.wav
329,192,61498,1,0,0:0:0:100:D6S.wav
475,192,61498,1,0,0:0:0:100:B6S.wav
109,192,61676,1,0,0:0:0:50:G5S.wav
329,192,61855,1,0,0:0:0:100:G6S.wav
36,192,61855,1,0,0:0:0:50:D5S.wav
402,192,62033,1,0,0:0:0:100:D6S.wav
182,192,62033,1,0,0:0:0:50:B4S.wav
36,192,62212,1,0,0:0:0:50:G4S.wav
475,192,62212,1,0,0:0:0:100:B5S.wav
329,192,62390,1,0,0:0:0:70:D5S.wav
109,192,62390,1,0,0:0:0:50:D4S.wav
182,192,62569,1,0,0:0:0:50:G3S.wav
475,192,62748,1,0,0:0:0:100:D6S.wav
109,192,62748,1,0,0:0:0:50:G4S.wav
329,192,62748,1,0,0:0:0:100:G6S.wav
36,192,62926,1,0,0:0:0:50:D4S.wav
182,192,63105,1,0,0:0:0:50:B3S.wav
402,192,63105,1,0,0:0:0:100:A6S.wav
475,192,63105,1,0,0:0:0:100:C6S.wav
36,192,63283,1,0,0:0:0:50:F#3S_Gb3S.wav
182,192,63462,1,0,0:0:0:50:B3S.wav
402,192,63462,1,0,0:0:0:100:A6S.wav
475,192,63462,1,0,0:0:0:100:C6S.wav
182,192,63640,1,0,0:0:0:50:B3S.wav
475,192,63640,1,0,0:0:0:100:C6S.wav
402,192,63640,1,0,0:0:0:100:A6S.wav
109,192,63819,1,0,0:0:0:50:F#4S_Gb4S.wav
36,192,63998,1,0,0:0:0:50:B3S.wav
402,192,63998,1,0,0:0:0:100:D6S.wav
329,192,63998,1,0,0:0:0:100:B6S.wav
182,192,64176,1,0,0:0:0:50:D#4S_Eb4S.wav
36,192,64355,1,0,0:0:0:50:F#4S_Gb4S.wav
402,192,64355,1,0,0:0:0:100:D6S.wav
329,192,64355,1,0,0:0:0:100:B6S.wav
109,192,64533,1,0,0:0:0:50:B4S.wav
329,192,64712,1,0,0:0:0:100:B5S.wav
182,192,64712,1,0,0:0:0:50:B3S.wav
36,192,64890,1,0,0:0:0:50:D#4S_Eb4S.wav
402,192,64890,1,0,0:0:0:100:B6S.wav
329,192,65069,1,0,0:0:0:100:B5S.wav
109,192,65069,1,0,0:0:0:50:F#4S_Gb4S.wav
182,192,65248,1,0,0:0:0:50:B4S.wav
475,192,65248,1,0,0:0:0:100:B7S.wav
36,192,65426,1,0,0:0:0:50:B3S.wav
475,192,65605,1,0,0:0:0:100:B7S.wav
182,192,65605,1,0,0:0:0:50:D#4S_Eb4S.wav
109,192,65783,1,0,0:0:0:50:F#4S_Gb4S.wav
329,192,65783,1,0,0:0:0:100:G6S.wav
36,192,65962,1,0,0:0:0:50:E3S.wav
475,192,65962,1,0,0:0:0:100:A6S.wav
256,192,65962,1,0,0:0:0:100:C7S.wav
182,192,66140,1,0,0:0:0:50:B3S.wav
329,192,66319,1,0,0:0:0:50:E4S.wav
256,192,66498,1,0,0:0:0:50:E4S.wav
475,192,66498,1,0,0:0:0:100:A6S.wav
36,192,66498,1,0,0:0:0:100:C7S.wav
329,192,66676,1,0,0:0:0:50:B4S.wav
402,192,66855,1,0,0:0:0:50:G4S.wav
475,192,67033,1,0,0:0:0:50:E5S.wav
36,192,67033,1,0,0:0:0:100:D6S.wav
182,192,67033,1,0,0:0:0:100:B6S.wav
475,192,67212,1,0,0:0:0:50:E5S.wav
36,192,67212,1,0,0:0:0:100:D6S.wav
182,192,67212,1,0,0:0:0:100:B6S.wav
256,192,67390,1,0,0:0:0:50:E4S.wav
329,192,67569,1,0,0:0:0:50:B4S.wav
475,192,67748,1,0,0:0:0:100:B7S.wav
182,192,67748,1,0,0:0:0:50:G4S.wav
109,192,67926,1,0,0:0:0:50:E4S.wav
475,192,68105,1,0,0:0:0:100:B7S.wav
36,192,68105,1,0,0:0:0:50:B3S.wav
109,192,68283,1,0,0:0:0:50:E3S.wav
402,192,68462,1,0,0:0:0:100:D6S.wav
329,192,68462,1,0,0:0:0:100:G6S.wav
182,192,68462,1,0,0:0:0:50:E4S.wav
109,192,68640,1,0,0:0:0:50:B3S.wav
36,192,68819,1,0,0:0:0:50:D3S.wav
475,192,68819,1,0,0:0:0:100:C6S.wav
256,192,68819,1,0,0:0:0:100:A6S.wav
109,192,68998,1,0,0:0:0:50:A3S.wav
182,192,69176,1,0,0:0:0:50:D4S.wav
329,192,69176,1,0,0:0:0:100:A6S.wav
475,192,69176,1,0,0:0:0:100:C6S.wav
182,192,69355,1,0,0:0:0:50:D4S.wav
475,192,69355,1,0,0:0:0:100:C6S.wav
329,192,69355,1,0,0:0:0:100:A6S.wav
109,192,69533,1,0,0:0:0:50:A4S.wav
402,192,69712,1,0,0:0:0:100:D6S.wav
36,192,69712,1,0,0:0:0:50:F#4S_Gb4S.wav
329,192,69712,1,0,0:0:0:100:B6S.wav
182,192,69890,1,0,0:0:0:50:D4S.wav
329,192,70069,1,0,0:0:0:100:B6S.wav
109,192,70069,1,0,0:0:0:50:A3S.wav
402,192,70069,1,0,0:0:0:100:D6S.wav
256,192,70248,1,0,0:0:0:50:G3S.wav
182,192,70426,1,0,0:0:0:50:D3S.wav
329,192,70605,1,0,0:0:0:50:G3S.wav
256,192,70783,1,0,0:0:0:50:B3S.wav
402,192,70962,1,0,0:0:0:100:D6S.wav
475,192,70962,1,0,0:0:0:100:G6S.wav
36,192,70962,1,0,0:0:0:50:D4S.wav
329,192,71140,1,0,0:0:0:50:G4S.wav
256,192,71319,1,0,0:0:0:100:G6S.wav
475,192,71319,1,0,0:0:0:100:D6S.wav
36,192,71319,1,0,0:0:0:50:B4S.wav
36,192,71676,1,0,0:0:0:100:D6S.wav
475,192,71676,1,0,0:0:0:50:C4S.wav
109,192,71721,1,0,0:0:0:100:G6S.wav
182,192,71765,1,0,0:0:0:100:D7S.wav
402,192,71855,1,0,0:0:0:50:G4S.wav
329,192,72033,1,0,0:0:0:50:C4S.wav
182,192,72033,1,0,0:0:0:100:C7S.wav
182,192,72212,1,0,0:0:0:100:C7S.wav
402,192,72212,1,0,0:0:0:50:D4S.wav
256,192,72390,1,0,0:0:0:100:B6S.wav
36,192,72390,1,0,0:0:0:50:D6S.wav
475,192,72390,1,0,0:0:0:50:E4S.wav
109,192,72748,1,0,0:0:0:50:C4S.wav
402,192,72748,1,0,0:0:0:100:C7S.wav
182,192,73105,1,0,0:0:0:50:D4S.wav
329,192,73105,1,0,0:0:0:100:D6S.wav
402,192,73149,1,0,0:0:0:100:F#6S_Gb6S.wav
475,192,73194,1,0,0:0:0:100:D7S.wav
36,192,73283,1,0,0:0:0:50:A4S.wav
256,192,73462,1,0,0:0:0:50:D5S.wav
475,192,73640,1,0,0:0:0:50:E5S.wav
182,192,73819,1,0,0:0:0:100:D7S.wav
36,192,73819,1,0,0:0:0:50:F#5S_Gb5S.wav
256,192,73864,1,0,0:0:0:70:F#7S_Gb7S.wav
329,192,73908,1,0,0:0:0:70:D8S.wav
402,192,74176,1,0,0:0:0:100:D7S.wav
109,192,74176,1,0,0:0:0:50:D4S.wav
256,192,74176,1,0,0:0:0:50:D6S.wav
109,192,74355,1,0,0:0:0:50:D4S.wav
402,192,74355,1,0,0:0:0:100:D7S.wav
256,192,74355,1,0,0:0:0:50:D6S.wav
182,192,74533,1,0,0:0:0:50:D6S.wav
475,192,74533,1,0,0:0:0:100:D7S.wav
329,192,74533,1,0,0:0:0:100:F#6S_Gb6S.wav
36,192,74533,1,0,0:0:0:50:B4S.wav
182,192,74890,1,0,0:0:0:50:E5S.wav
475,192,74890,1,0,0:0:0:100:E6S.wav
329,192,75069,1,0,0:0:0:100:D6S.wav
36,192,75069,1,0,0:0:0:50:D5S.wav
402,192,75248,1,0,0:0:0:50:F#5S_Gb5S.wav
475,192,75426,1,0,0:0:0:100:D6S.wav
109,192,75426,1,0,0:0:0:50:F#5S_Gb5S.wav
256,192,75426,1,0,0:0:0:100:F#6S_Gb6S.wav
36,192,75605,1,0,0:0:0:50:D5S.wav
329,192,75783,1,0,0:0:0:100:G6S.wav
475,192,75783,1,0,0:0:0:100:E6S.wav
182,192,75783,1,0,0:0:0:50:G5S.wav
182,192,75962,1,0,0:0:0:50:G5S.wav
36,192,75962,1,0,0:0:0:50:G4S.wav
109,192,76140,1,0,0:0:0:100:E6S.wav
256,192,76140,1,0,0:0:0:50:E5S.wav
329,192,76319,1,0,0:0:0:50:B6S.wav
182,192,76319,1,0,0:0:0:100:B5S.wav
256,192,76498,1,0,0:0:0:100:G7S.wav
402,192,76498,1,0,0:0:0:50:G6S.wav
36,192,76676,1,0,0:0:0:50:B4S.wav
329,192,76676,1,0,0:0:0:100:E5S.wav
475,192,76676,1,0,0:0:0:50:E8S.wav
109,192,76676,1,0,0:0:0:50:G4S.wav
182,192,76765,1,0,0:0:0:50:G8S.wav
329,192,77033,1,0,0:0:0:100:E6S.wav
182,192,77033,1,0,0:0:0:100:E5S.wav
36,192,77033,1,0,0:0:0:50:E4S.wav
329,192,77212,1,0,0:0:0:100:E6S.wav
182,192,77212,1,0,0:0:0:100:E5S.wav
36,192,77212,1,0,0:0:0:50:E4S.wav
256,192,77390,1,0,0:0:0:50:C6S.wav
402,192,77390,1,0,0:0:0:100:B6S.wav
109,192,77390,1,0,0:0:0:50:A3S.wav
475,192,77390,1,0,0:0:0:100:E6S.wav
36,192,77569,1,0,0:0:0:50:E4S.wav
475,192,77748,1,0,0:0:0:100:A6S.wav
329,192,77748,1,0,0:0:0:100:E6S.wav
182,192,77748,1,0,0:0:0:50:A4S.wav
109,192,77926,1,0,0:0:0:50:C5S.wav
475,192,77926,1,0,0:0:0:100:A6S.wav
329,192,77926,1,0,0:0:0:100:E6S.wav
256,192,78105,1,0,0:0:0:50:E5S.wav
182,192,78283,1,0,0:0:0:50:A5S.wav
109,192,78462,1,0,0:0:0:50:E5S.wav
36,192,78640,1,0,0:0:0:50:C5S.wav
256,192,78640,1,0,0:0:0:100:E6S.wav
109,192,78819,1,0,0:0:0:50:D3S.wav
329,192,78819,1,0,0:0:0:100:D6S.wav
475,192,78819,1,0,0:0:0:100:G6S.wav
182,192,78998,1,0,0:0:0:50:A3S.wav
329,192,78998,1,0,0:0:0:100:D6S.wav
475,192,78998,1,0,0:0:0:100:G6S.wav
402,192,79176,1,0,0:0:0:100:D6S.wav
36,192,79176,1,0,0:0:0:50:D4S.wav
256,192,79176,1,0,0:0:0:100:F#6S_Gb6S.wav
109,192,79355,1,0,0:0:0:50:F#4S_Gb4S.wav
402,192,79355,1,0,0:0:0:100:D6S.wav
256,192,79355,1,0,0:0:0:100:F#6S_Gb6S.wav
329,192,79533,1,0,0:0:0:100:D6S.wav
182,192,79533,1,0,0:0:0:50:A5S.wav
36,192,79533,1,0,0:0:0:50:A4S.wav
475,192,79533,1,0,0:0:0:100:E6S.wav
256,192,79890,1,0,0:0:0:50:D6S.wav
109,192,79890,1,0,0:0:0:50:F#4S_Gb4S.wav
402,192,79890,1,0,0:0:0:100:F#6S_Gb6S.wav
182,192,80248,1,0,0:0:0:50:D6S.wav
36,192,80248,1,0,0:0:0:70:G4S.wav
475,192,80248,1,0,0:0:0:100:G6S.wav
329,192,80248,1,0,0:0:0:100:B5S.wav
109,192,80367,1,0,0:0:0:70:B4S.wav
182,192,80486,1,0,0:0:0:70:D5S.wav
109,192,80605,1,0,0:0:0:70:G5S.wav
182,192,80724,1,0,0:0:0:70:B5S.wav
256,192,80843,1,0,0:0:0:70:D6S.wav
329,192,80962,1,0,0:0:0:50:D5S.wav
182,192,80962,1,0,0:0:0:70:G6S.wav
36,192,80962,1,0,0:0:0:50:B4S.wav
256,192,81081,1,0,0:0:0:70:B6S.wav
329,192,81200,1,0,0:0:0:70:D7S.wav
256,192,81319,1,0,0:0:0:70:G7S.wav
329,192,81438,1,0,0:0:0:70:B7S.wav
402,192,81557,1,0,0:0:0:70:D8S.wav
329,192,81676,1,0,0:0:0:50:D5S.wav
182,192,81676,1,0,0:0:0:50:B4S.wav
475,192,81676,1,0,0:0:0:70:G8S.wav
36,192,81676,1,0,0:0:0:50:G5S.wav
402,192,82445,1,0,0:0:0:30:E6H2.wav
402,192,82829,1,0,0:0:0:30:E6H2.wav
36,192,83214,1,0,0:0:0:70:C#5S_Db5S.wav
329,192,83214,1,0,0:0:0:30:C7H2.wav
475,192,83630,1,0,0:0:0:30:C#7H_Db7H2.wav
109,192,83630,1,0,0:0:0:70:G#5S_Ab5S.wav
475,192,83839,1,0,0:0:0:30:C#7H_Db7H2.wav
182,192,84047,1,0,0:0:0:70:C#6S_Db6S.wav
256,192,84464,1,0,0:0:0:70:D#6S_Eb6S.wav
109,192,84880,1,0,0:0:0:70:F6S.wav
182,192,85297,1,0,0:0:0:70:G#6S_Ab6S.wav
256,192,85714,1,0,0:0:0:70:C#7S_Db7S.wav
329,192,86130,1,0,0:0:0:70:D#7S_Eb7S.wav
402,192,86547,1,0,0:0:0:70:G#7S_Ab7S.wav
36,192,86547,1,0,0:0:0:30:D#4S_Eb4S.wav
36,192,87429,1,0,0:0:0:30:D#5S_Eb5S.wav
329,192,87762,1,0,0:0:0:70:D#7S_Eb7S.wav
182,192,87762,1,0,0:0:0:50:D#6S_Eb6S.wav
329,192,88095,1,0,0:0:0:70:D#7S_Eb7S.wav
182,192,88095,1,0,0:0:0:50:D#6S_Eb6S.wav
109,192,88429,1,0,0:0:0:50:A#6S_Bb6S.wav
402,192,88429,1,0,0:0:0:70:A#7S_Bb7S.wav
109,192,89095,1,0,0:0:0:50:A#6S_Bb6S.wav
402,192,89095,1,0,0:0:0:70:A#7S_Bb7S.wav
182,192,89429,1,0,0:0:0:50:G#6S_Ab6S.wav
475,192,89429,1,0,0:0:0:70:G#7S_Ab7S.wav
182,192,90519,1,0,0:0:0:50:G6S.wav
402,192,90519,1,0,0:0:0:70:G7S.wav
36,192,91719,1,0,0:0:0:50:G#5S_Ab5S.wav
182,192,91719,1,0,0:0:0:70:C6S.wav
329,192,91719,1,0,0:0:0:70:G#6S_Ab6S.wav
402,192,91819,1,0,0:0:0:70:C7S.wav
475,192,91919,1,0,0:0:0:70:G#7S_Ab7S.wav
