osu file format v14

[General]
AudioFilename: audio.mp3
AudioLeadIn: 0
PreviewTime: 53482
Countdown: 0
SampleSet: Soft
StackLeniency: 0.7
Mode: 3
LetterboxInBreaks: 0
SpecialStyle: 0
WidescreenStoryboard: 0

[Editor]
DistanceSpacing: 1.5
BeatDivisor: 4
GridSize: 8
TimelineZoom: 1.7

[Metadata]
Title:Orange (Anime Ver.)
TitleUnicode:オレンジ(アニメVer.)
Artist:7!!
ArtistUnicode:7!!
Creator:Alsty-
Version:Easy
Source:四月は君の嘘
Tags:shigatsu wa Kimi no Uso Your Lie in April Ending ED2 TV Size Orenji Seven Oops
BeatmapID:1117875
BeatmapSetID:526239

[Difficulty]
HPDrainRate:7
CircleSize:7
OverallDifficulty:7
ApproachRate:5
SliderMultiplier:1.4
SliderTickRate:1

[Events]
//Background and Video events
0,0,"629538.jpg",0,0
//Break Periods
//Storyboard Layer 0 (Background)
//Storyboard Layer 1 (Fail)
//Storyboard Layer 2 (Pass)
//Storyboard Layer 3 (Foreground)
//Storyboard Sound Samples

[TimingPoints]
459,697.674418604651,4,2,1,20,1,0
53482,-100,4,2,1,40,0,0
56272,-100,4,2,1,40,0,1
84179,750,4,2,1,40,1,0
89429,750,4,2,1,20,1,0

[HitObjects]
329,192,459,5,0,0:0:0:0:
182,192,459,128,0,3249:0:0:0:0:
475,192,1156,1,0,0:0:0:0:
36,192,3249,128,0,4296:0:0:0:0:
329,192,3249,1,0,0:0:0:0:
475,192,3947,1,0,0:0:0:0:
109,192,4296,1,0,0:0:0:0:
329,192,4993,1,0,0:0:0:0:
475,192,5342,1,0,0:0:0:0:
182,192,5691,1,0,0:0:0:0:
36,192,6040,1,0,0:0:0:0:
256,192,6040,128,0,6738:0:0:0:0:
402,192,6738,1,0,0:0:0:0:
109,192,7784,1,0,0:0:0:0:
182,192,8133,1,0,0:0:0:0:
329,192,8133,128,0,8831:0:0:0:0:
475,192,8831,128,0,10226:0:0:0:0:
36,192,8831,1,0,0:0:0:0:
109,192,9528,1,0,0:0:0:0:
329,192,10226,128,0,11621:0:0:0:0:
182,192,10226,1,0,0:0:0:0:
36,192,11621,128,0,13017:0:0:0:0:
475,192,11621,1,0,0:0:0:0:
182,192,12319,1,0,0:0:0:0:
256,192,13017,1,0,0:0:0:0:
402,192,13017,128,0,14412:0:0:0:0:
36,192,14063,1,0,0:0:0:0:
109,192,14412,1,0,0:0:0:0:
475,192,14412,128,0,15807:0:0:0:0:
182,192,15110,1,0,0:0:0:0:
36,192,15807,128,0,16854:0:0:0:0:
256,192,15807,1,0,0:0:0:0:
182,192,16854,128,0,17203:0:0:0:0:
475,192,17203,1,0,0:0:0:0:
109,192,17552,1,0,0:0:0:0:
256,192,17900,1,0,0:0:0:0:
402,192,18249,1,0,0:0:0:0:
475,192,18249,128,0,18947:0:0:0:0:
36,192,18947,1,0,0:0:0:0:
109,192,19296,1,0,0:0:0:0:
402,192,19645,1,0,0:0:0:0:
329,192,19993,128,0,20691:0:0:0:0:
36,192,20691,1,0,0:0:0:0:
475,192,21040,128,0,21738:0:0:0:0:
182,192,22086,1,0,0:0:0:0:
475,192,22784,128,0,23482:0:0:0:0:
36,192,23482,128,0,23831:0:0:0:0:
182,192,23482,1,0,0:0:0:0:
475,192,23831,128,0,24528:0:0:0:0:
109,192,24528,1,0,0:0:0:0:
402,192,24877,1,0,0:0:0:0:
36,192,25575,128,0,26272:0:0:0:0:
109,192,25575,128,0,26272:0:0:0:0:
475,192,26272,1,0,0:0:0:0:
402,192,26621,1,0,0:0:0:0:
329,192,26970,1,0,0:0:0:0:
256,192,27319,1,0,0:0:0:0:
182,192,27668,128,0,28365:0:0:0:0:
475,192,28365,128,0,29063:0:0:0:0:
109,192,28714,1,0,0:0:0:0:
36,192,29063,1,0,0:0:0:0:
402,192,29412,1,0,0:0:0:0:
109,192,29761,1,0,0:0:0:0:
256,192,29761,128,0,30458:0:0:0:0:
475,192,30458,1,0,0:0:0:0:
329,192,30807,1,0,0:0:0:0:
36,192,31156,128,0,31505:0:0:0:0:
182,192,31505,1,0,0:0:0:0:
475,192,31854,128,0,32552:0:0:0:0:
109,192,32552,128,0,32900:0:0:0:0:
256,192,32900,1,0,0:0:0:0:
329,192,33249,1,0,0:0:0:0:
402,192,33598,1,0,0:0:0:0:
182,192,33947,128,0,34645:0:0:0:0:
475,192,33947,1,0,0:0:0:0:
36,192,34645,1,0,0:0:0:0:
256,192,34993,1,0,0:0:0:0:
402,192,35342,1,0,0:0:0:0:
475,192,35342,128,0,35865:0:0:0:0:
36,192,35865,1,0,0:0:0:0:
182,192,36214,1,0,0:0:0:0:
329,192,36389,1,0,0:0:0:0:
109,192,36738,128,0,37086:0:0:0:0:
256,192,37086,128,0,37435:0:0:0:0:
402,192,37435,128,0,37784:0:0:0:0:
36,192,37784,128,0,38133:0:0:0:0:
475,192,38133,128,0,38482:0:0:0:0:
402,192,38482,128,0,38831:0:0:0:0:
256,192,38831,128,0,39179:0:0:0:0:
109,192,39179,128,0,39528:0:0:0:0:
475,192,39528,128,0,40226:0:0:0:0:
36,192,39528,1,0,0:0:0:0:
182,192,40226,1,0,0:0:0:0:
329,192,40575,1,0,0:0:0:0:
36,192,40924,128,0,41447:0:0:0:0:
109,192,40924,1,0,0:0:0:0:
256,192,41447,1,0,0:0:0:0:
475,192,41796,1,0,0:0:0:0:
109,192,42145,1,0,0:0:0:0:
256,192,42319,128,0,43714:0:0:0:0:
36,192,43017,1,0,0:0:0:0:
475,192,43714,128,0,45110:0:0:0:0:
182,192,44063,1,0,0:0:0:0:
109,192,44412,1,0,0:0:0:0:
36,192,44761,1,0,0:0:0:0:
402,192,45110,128,0,45458:0:0:0:0:
109,192,45458,1,0,0:0:0:0:
36,192,45807,128,0,46331:0:0:0:0:
182,192,46331,128,0,46854:0:0:0:0:
329,192,46854,128,0,47203:0:0:0:0:
475,192,47203,128,0,47552:0:0:0:0:
256,192,47552,1,0,0:0:0:0:
36,192,47900,128,0,48598:0:0:0:0:
182,192,47900,1,0,0:0:0:0:
256,192,48598,128,0,49121:0:0:0:0:
475,192,49121,128,0,49645:0:0:0:0:
329,192,49645,1,0,0:0:0:0:
36,192,49993,128,0,50691:0:0:0:0:
402,192,50691,128,0,53482:0:0:0:0:
109,192,51389,128,0,53482:0:0:0:0:
182,192,53482,1,0,0:0:0:50:kick.wav
329,192,53482,1,0,0:0:0:0:
182,192,53831,1,0,0:0:0:50:kick.wav
329,192,53831,1,0,0:0:0:0:
36,192,54528,1,0,0:0:0:50:kick.wav
475,192,54528,128,0,56272:0:0:0:0:
402,192,54528,1,0,0:0:0:50:crash.wav
329,192,55226,1,0,0:0:0:0:
182,192,55226,1,0,0:0:0:50:cymbol.wav
36,192,55575,1,0,0:0:0:50:kick.wav
109,192,55924,1,0,0:0:0:50:kick.wav
329,192,56272,1,0,0:0:0:50:kick.wav
402,192,56272,128,0,59063:0:0:0:0:
256,192,56272,1,0,0:0:0:50:crash.wav
36,192,56970,1,0,0:0:0:0:
182,192,56970,1,0,0:0:0:50:cymbol.wav
109,192,57668,1,0,0:0:0:0:
256,192,58017,1,0,0:0:0:50:kick.wav
182,192,58365,1,0,0:0:0:50:cymbol.wav
329,192,58365,1,0,0:0:0:0:
36,192,59063,128,0,60458:0:0:0:50:kick.wav
182,192,59761,1,0,0:0:0:50:cymbol.wav
329,192,59761,1,0,0:0:0:0:
475,192,60458,128,0,61854:0:0:0:0:
109,192,60807,1,0,0:0:0:50:kick.wav
329,192,61156,1,0,0:0:0:0:
182,192,61156,1,0,0:0:0:50:cymbol.wav
256,192,61854,128,0,63249:0:0:0:0:
36,192,61854,1,0,0:0:0:50:kick.wav
402,192,62552,1,0,0:0:0:0:
109,192,62552,1,0,0:0:0:50:cymbol.wav
475,192,63249,128,0,63947:0:0:0:0:
36,192,63598,1,0,0:0:0:50:kick.wav
329,192,63947,1,0,0:0:0:0:
182,192,63947,1,0,0:0:0:50:cymbol.wav
109,192,64296,1,0,0:0:0:0:
475,192,64645,128,0,64993:0:0:0:50:kick.wav
36,192,64993,128,0,65342:0:0:0:50:kick.wav
402,192,65342,1,0,0:0:0:0:
329,192,65342,1,0,0:0:0:50:cymbol.wav
109,192,65691,128,0,66738:0:0:0:0:
256,192,66389,1,0,0:0:0:50:kick.wav
402,192,66738,1,0,0:0:0:50:kick.wav
329,192,67086,1,0,0:0:0:50:kick.wav
36,192,67435,1,0,0:0:0:50:kick.wav
475,192,67435,128,0,68831:0:0:0:50:crash.wav
109,192,67784,1,0,0:0:0:0:
329,192,68133,1,0,0:0:0:0:
182,192,68133,1,0,0:0:0:50:cymbol.wav
256,192,68831,128,0,70226:0:0:0:0:
36,192,69179,1,0,0:0:0:50:kick.wav
329,192,69528,1,0,0:0:0:50:cymbol.wav
475,192,69528,1,0,0:0:0:0:
36,192,70226,128,0,71621:0:0:0:0:
109,192,70226,1,0,0:0:0:50:kick.wav
329,192,70924,1,0,0:0:0:0:
182,192,70924,1,0,0:0:0:50:cymbol.wav
475,192,71621,128,0,73017:0:0:0:0:
329,192,71970,1,0,0:0:0:50:kick.wav
256,192,72319,1,0,0:0:0:50:cymbol.wav
109,192,72319,1,0,0:0:0:0:
182,192,73017,128,0,74412:0:0:0:0:
36,192,73017,1,0,0:0:0:50:kick.wav
402,192,73714,1,0,0:0:0:0:
329,192,73714,1,0,0:0:0:50:cymbol.wav
475,192,74412,128,0,75807:0:0:0:0:
36,192,74761,1,0,0:0:0:50:kick.wav
109,192,75110,1,0,0:0:0:50:cymbol.wav
256,192,75110,1,0,0:0:0:0:
329,192,75807,128,0,77203:0:0:0:0:
182,192,75807,1,0,0:0:0:50:kick.wav
36,192,76505,1,0,0:0:0:50:cymbol.wav
109,192,76505,1,0,0:0:0:0:
182,192,77203,128,0,78598:0:0:0:0:
256,192,77552,1,0,0:0:0:50:kick.wav
402,192,77900,1,0,0:0:0:50:cymbol.wav
475,192,77900,1,0,0:0:0:0:
36,192,78598,128,0,79993:0:0:0:0:
329,192,78598,1,0,0:0:0:50:kick.wav
475,192,79296,1,0,0:0:0:0:
402,192,79296,1,0,0:0:0:50:cymbol.wav
329,192,79993,1,0,0:0:0:0:
256,192,80342,1,0,0:0:0:50:kick.wav
109,192,80691,1,0,0:0:0:50:cymbol.wav
402,192,80691,1,0,0:0:0:0:
256,192,81040,1,0,0:0:0:50:kick.wav
36,192,81389,1,0,0:0:0:50:kick.wav
475,192,81389,1,0,0:0:0:50:cymbol.wav
36,192,82086,1,0,0:0:0:50:kick.wav
475,192,82086,1,0,0:0:0:50:crash.wav
256,192,82086,128,0,84179:0:0:0:0:
36,192,84179,128,0,89429:0:0:0:0:
402,192,84616,1,0,0:0:0:0:
256,192,86679,128,0,87179:0:0:0:0:
475,192,87179,1,0,0:0:0:0:
