osu file format v14

[General]
AudioFilename: audio.mp3
AudioLeadIn: 0
PreviewTime: 62264
Countdown: 1
SampleSet: Normal
StackLeniency: 0.7
Mode: 0
LetterboxInBreaks: 0
WidescreenStoryboard: 0

[Editor]
DistanceSpacing: 1
BeatDivisor: 4
GridSize: 16
TimelineZoom: 1

[Metadata]
Title:Lovers
TitleUnicode:Lovers
Artist:7!!
ArtistUnicode:7!!
Creator:campa97
Version:
Source:
Tags:opening naruto 09 7!! lovers
BeatmapID:1129159
BeatmapSetID:532981

[Difficulty]
HPDrainRate:6
CircleSize:4
OverallDifficulty:6
ApproachRate:9
SliderMultiplier:1.9
SliderTickRate:1

[Events]
//Background and Video events
0,0,"anime-girl-guitar-hair-3840x2160.jpg",0,0
//Break Periods
//Storyboard Layer 0 (Background)
//Storyboard Layer 1 (Fail)
//Storyboard Layer 2 (Pass)
//Storyboard Layer 3 (Foreground)
//Storyboard Sound Samples

[TimingPoints]
-300,365.853658536585,4,1,0,70,1,0
62626,-100,4,1,0,80,0,1
83114,-100,4,1,0,70,0,0

[HitObjects]
128,96,1163,5,0,0:0:0:0:
192,192,1346,1,0,0:0:0:0:
128,288,1529,1,0,0:0:0:0:
384,96,1712,1,0,0:0:0:0:
320,192,1895,1,0,0:0:0:0:
384,288,2078,1,0,0:0:0:0:
256,96,2260,5,0,0:0:0:0:
256,192,2443,1,0,0:0:0:0:
256,288,2626,2,0,L|320:256,1,47.5
256,288,3175,2,0,L|192:256,1,47.5
256,192,3724,1,0,0:0:0:0:
240,144,3815,1,0,0:0:0:0:
208,112,3907,1,0,0:0:0:0:
160,96,3998,1,0,0:0:0:0:
112,96,4090,6,0,B|112:160|112:176|112:176|64:176|112:224|96:272,1,190
160,336,4639,1,0,0:0:0:0:
352,336,4821,1,0,0:0:0:0:
256,336,5004,1,0,0:0:0:0:
256,336,5187,1,0,0:0:0:0:
256,336,5370,2,0,P|192:288|192:256,1,95
256,336,5736,2,0,P|320:288|320:256,1,95
256,160,6102,2,0,L|256:256,2,95,0|0|0,0:0|0:3|0:0,0:3:0:0:
256,64,6651,1,0,0:0:0:0:
304,72,6742,1,0,0:0:0:0:
344,104,6834,1,0,0:0:0:0:
352,152,6925,1,0,0:0:0:0:
352,200,7017,6,0,L|352:296,1,95
160,184,7382,2,0,L|160:88,1,95
248,288,7748,2,0,L|152:288,1,95
264,96,8114,2,0,L|360:96,1,95
192,320,8480,2,0,L|96:224,1,95
384,256,8846,2,0,L|288:351,1,95
320,64,9212,2,0,L|416:160,1,95
128,128,9578,2,0,L|192:64,4,47.5
128,320,10309,5,0,0:0:0:0:
192,256,10492,1,0,0:0:0:0:
128,192,10675,1,0,0:0:0:0:
64,256,10858,1,0,0:0:0:0:
192,256,11041,1,0,0:0:0:0:
256,192,11224,1,0,0:0:0:0:
256,192,11590,1,0,0:0:0:0:
256,192,11956,2,0,P|304:144|304:96,1,95
208,112,12321,2,0,P|160:160|160:208,2,95
256,192,12870,12,0,15431,0:0:0:0:
256,192,15797,6,0,B|192:224|192:224|192:224|192:224|160:192|160:192|128:224|128:224|80:224,1,190
256,336,16529,1,0,0:0:0:0:
256,48,16712,1,0,0:0:0:0:
256,192,16895,1,0,0:0:0:0:
256,192,17078,6,0,B|320:224|320:224|352:192|352:192|384:224|384:224|432:224,1,190
416,128,17626,1,0,0:0:0:0:
416,320,17809,1,0,0:0:0:0:
320,224,17992,1,0,0:0:0:0:
320,32,18175,1,0,0:0:0:0:
224,128,18358,1,0,0:0:0:0:
224,320,18541,1,0,0:0:0:0:
128,224,18724,6,0,L|224:224,1,95
304,272,19090,2,0,P|320:224|300:176,1,95
160,60,19639,2,0,B|192:112|128:112|168:160,1,95
256,304,20004,1,0,0:0:0:0:
176,96,20187,1,0,0:0:0:0:
368,224,20370,1,0,0:0:0:0:
144,224,20553,1,0,0:0:0:0:
336,96,20736,1,0,0:0:0:0:
256,192,21102,1,0,0:0:0:0:
256,192,21285,2,0,P|192:192|144:144,1,95
224,112,21651,6,0,P|288:112|336:160,1,95
352,208,22017,2,0,P|400:144|384:112,1,95
256,32,22565,1,0,0:0:0:0:
256,32,22748,1,0,0:0:0:0:
256,32,22931,1,0,0:0:0:0:
256,192,23114,5,0,0:0:0:0:
256,288,23297,1,0,0:0:0:0:
256,192,23480,2,0,P|256:160|224:112,1,83.125
96,64,24029,1,0,0:0:0:0:
96,64,24212,1,0,0:0:0:0:
96,112,24303,1,0,0:0:0:0:
96,160,24395,1,0,0:0:0:0:
96,208,24486,1,0,0:0:0:0:
96,256,24578,6,0,L|176:320,1,95
384,316,24943,2,0,L|304:252,1,95
308,152,25309,2,0,L|388:216,1,95
384,112,25675,2,0,L|304:48,1,95
199,135,26041,1,0,0:0:0:0:
199,248,26224,1,0,0:0:0:0:
312,248,26407,1,0,0:0:0:0:
312,135,26590,1,0,0:0:0:0:
96,192,26956,5,0,0:0:0:0:
256,352,27139,1,0,0:0:0:0:
416,192,27321,1,0,0:0:0:0:
256,32,27504,1,0,0:0:0:0:
256,32,27870,1,0,0:0:0:0:
256,32,28236,2,0,L|256:144,1,95
160,96,28602,2,0,L|160:192,1,95
64,160,28968,6,0,L|64:256,1,95
448,256,29334,2,0,L|448:161,1,95
352,192,29699,2,0,L|352:97,1,95
256,64,30065,1,0,0:0:0:0:
224,95,30156,1,0,0:0:0:0:
208,143,30248,1,0,0:0:0:0:
224,192,30339,1,0,0:0:0:0:
255,224,30431,1,0,0:0:0:0:
432,144,30797,6,0,B|368:128|336:240|304:128|240:144,1,190
64,144,31529,1,0,0:0:0:0:
64,240,31712,1,0,0:0:0:0:
144,192,31895,1,0,0:0:0:0:
144,288,32078,2,0,P|160:288|224:208,1,95
272,80,32626,1,0,0:0:0:0:
272,80,32718,1,0,0:0:0:0:
272,80,32809,2,0,P|288:48|368:48,1,95
432,64,33175,6,0,P|416:96|335:96,1,95
256,272,33541,1,0,0:0:0:0:
256,272,33724,1,0,0:0:0:0:
256,272,33907,1,0,0:0:0:0:
80,192,34273,1,0,0:0:0:0:
80,192,34456,1,0,0:0:0:0:
432,192,34821,5,0,0:0:0:0:
288,304,35004,1,0,0:0:0:0:
304,192,35187,1,0,0:0:0:0:
160,304,35370,1,0,0:0:0:0:
160,96,35736,1,0,0:0:0:0:
160,96,35919,1,0,0:0:0:0:
192,128,36010,1,0,0:0:0:0:
224,160,36102,1,0,0:0:0:0:
256,192,36193,1,0,0:0:0:0:
288,224,36285,1,0,0:0:0:0:
384,64,36651,6,0,L|304:144,1,95
128,320,37017,2,0,L|208:240,1,95
256,192,37382,1,0,0:0:0:0:
128,64,37565,2,0,L|208:144,1,95
384,320,37931,2,0,L|304:240,1,95
256,192,38297,1,0,0:0:0:0:
256,192,38480,2,0,P|224:128|192:96,1,95
80,112,38846,1,0,0:0:0:0:
80,160,38937,1,0,0:0:0:0:
80,208,39029,1,0,0:0:0:0:
80,256,39120,1,0,0:0:0:0:
80,304,39212,2,0,P|112:336|176:336,1,95
160,240,39578,6,0,P|206:245|239:277,1,95
256,368,39943,2,0,P|304:336|320:304,1,95
320,208,40309,2,0,P|288:160|256:144,1,95
224,240,40675,2,0,L|144:320,1,95
128,208,41041,2,0,L|208:128,1,95
160,48,41407,2,0,L|80:127,1,95
96,288,41773,1,0,0:0:0:0:
128,256,41864,1,0,0:0:0:0:
160,224,41956,1,0,0:0:0:0:
192,192,42047,1,0,0:0:0:0:
224,160,42139,1,0,0:0:0:0:
416,192,42504,6,0,P|400:240|336:272,1,95
96,191,42870,2,0,P|112:143|176:112,1,95
304,192,43236,2,0,P|288:240|224:272,1,95
208,192,43602,2,0,P|224:143|288:112,2,95
208,192,44151,1,0,0:0:0:0:
320,320,44517,1,0,0:0:0:0:
328,147,44699,1,0,0:0:0:0:
163,246,44882,1,0,0:0:0:0:
80,304,45065,6,0,P|48:272|64:192,1,95
96,144,45431,2,0,P|128:176|112:256,1,95
132,223,45980,1,0,0:0:0:0:
132,223,46163,1,0,0:0:0:0:
132,223,46346,1,0,0:0:0:0:
192,304,46529,6,0,P|256:304|288:272,1,95
320,192,46895,2,0,P|256:192|224:224,1,95
233,209,47443,1,0,0:0:0:0:
144,272,47626,2,0,L|96:272,1,47.5
64,192,47809,2,0,L|112:192,1,47.5
144,112,47992,2,0,L|96:112,1,47.5
64,32,48175,2,0,L|160:32,1,95
256,48,48541,6,0,L|256:144,1,95
336,112,48907,2,0,P|320:176|272:208,1,95
176,112,49273,2,0,P|192:176|240:208,1,95
128,336,49639,2,0,P|191:319|224:271,1,95
384,336,50004,2,0,P|320:320|287:272,1,95
256,224,50370,2,0,L|256:128,1,95
256,129,50736,1,0,0:0:0:0:
256,129,50919,1,0,0:0:0:0:
32,192,51285,6,0,L|112:272,1,95
480,192,51651,2,0,L|400:112,1,95
192,192,52017,2,0,L|272:272,1,95
320,192,52382,2,0,L|240:112,1,95
320,320,52748,2,0,L|399:239,1,95
192,64,53114,2,0,L|112:144,1,95
96,272,53480,1,0,0:0:0:0:
144,288,53571,1,0,0:0:0:0:
192,304,53663,1,0,0:0:0:0:
240,320,53754,1,0,0:0:0:0:
288,336,53846,6,0,P|336:336|384:288,1,95
304,256,54212,2,0,L|256:144,1,95
208,240,54578,2,0,L|160:128,1,95
112,224,54943,2,0,L|64:112,1,95
256,48,55492,1,0,0:0:0:0:
256,144,55675,1,0,0:0:0:0:
256,240,55858,1,0,0:0:0:0:
256,336,56041,2,0,L|352:336,1,95
256,336,56407,2,0,L|160:336,2,95
352,336,56956,6,0,L|352:240,1,95
352,144,57321,1,0,0:0:0:0:
160,144,57687,1,0,0:0:0:0:
96,240,57870,1,0,0:0:0:0:
224,240,58053,1,0,0:0:0:0:
160,336,58236,2,0,L|160:240,1,95
160,241,58602,1,0,0:0:0:0:
160,241,58785,1,0,0:0:0:0:
256,272,59151,5,0,0:0:0:0:
256,192,59334,1,0,0:0:0:0:
256,112,59517,1,0,0:0:0:0:
256,32,59699,1,0,0:0:0:0:
96,192,59882,1,0,0:0:0:0:
256,352,60065,1,0,0:0:0:0:
416,192,60248,1,0,0:0:0:0:
208,144,60431,1,0,0:0:0:0:
208,240,60614,1,0,0:0:0:0:
304,240,60797,1,0,0:0:0:0:
304,144,60980,1,0,0:0:0:0:
144,304,61163,6,0,L|96:256,1,47.5
144,304,61712,2,0,L|96:256,1,47.5
336,192,62260,5,0,0:0:0:0:
304,160,62352,1,0,0:0:0:0:
256,144,62443,1,0,0:0:0:0:
208,160,62535,1,0,0:0:0:0:
176,192,62626,2,0,P|128:192|96:144,1,95
144,272,62992,2,0,L|144:320,1,47.5
224,352,63175,2,0,L|224:304,1,47.5,0|0,0:1|0:1,0:1:0:0:
304,272,63358,2,0,L|304:320,1,47.5
368,352,63541,2,0,P|400:320|400:256,2,95
368,128,64090,2,0,P|400:160|400:224,1,95
320,192,64456,2,0,P|288:160|288:96,1,95
282,112,64821,1,0,0:0:0:0:
282,112,65004,1,0,0:0:0:0:
128,192,65187,5,0,0:0:0:0:
144,240,65279,1,0,0:0:0:0:
176,272,65370,1,0,0:0:0:0:
224,288,65462,1,0,0:0:0:0:
272,288,65553,2,0,P|304:288|352:224,1,95
272,192,65919,2,0,L|224:96,1,95
272,16,66285,2,0,L|320:112,1,95
176,176,66651,2,0,L|128:80,1,95
64,144,67017,5,0,0:0:0:0:
64,192,67108,1,0,0:0:0:0:
64,240,67199,1,0,0:0:0:0:
64,288,67290,1,0,0:0:0:0:
80,336,67381,1,0,0:0:0:0:
112,368,67472,1,0,0:0:0:0:
160,384,67564,1,0,0:0:0:0:
208,368,67655,1,0,0:0:0:0:
256,352,67747,1,0,0:0:0:0:
304,368,67838,1,0,0:0:0:0:
352,384,67930,1,0,0:0:0:0:
400,368,68021,1,0,0:0:0:0:
432,336,68113,5,0,0:0:0:0:
448,288,68204,1,0,0:0:0:0:
448,240,68296,1,0,0:0:0:0:
448,192,68387,1,0,0:0:0:0:
448,144,68480,1,0,0:0:0:0:
352,144,68663,2,0,L|352:240,1,95
160,240,69029,2,0,L|160:144,1,95
256,32,69395,2,0,L|330:91,1,95
256,352,69760,6,0,B|304:288|208:224|256:160,1,190
256,64,70492,2,0,L|160:64,1,95
256,64,70858,2,0,L|352:64,2,95
160,64,71407,5,0,0:0:0:0:
160,160,71590,1,0,0:0:0:0:
80,112,71773,1,0,0:0:0:0:
80,112,71864,1,0,0:0:0:0:
80,112,71956,1,0,0:0:0:0:
160,160,72139,1,0,0:0:0:0:
160,64,72322,1,0,0:0:0:0:
240,112,72505,1,0,0:0:0:0:
240,112,72596,1,0,0:0:0:0:
240,112,72688,1,0,0:0:0:0:
336,112,72870,6,0,P|400:144|448:144,1,95
448,256,73236,1,0,0:0:0:0:
416,288,73328,1,0,0:0:0:0:
384,320,73419,1,0,0:0:0:0:
352,288,73510,1,0,0:0:0:0:
320,256,73602,1,0,0:0:0:0:
288,224,73693,1,0,0:0:0:0:
256,192,73785,1,0,0:0:0:0:
224,224,73876,1,0,0:0:0:0:
192,256,73968,5,0,0:0:0:0:
160,288,74059,1,0,0:0:0:0:
128,320,74151,1,0,0:0:0:0:
96,288,74242,1,0,0:0:0:0:
64,256,74334,2,0,P|32:176|64:80,1,190
256,192,75065,1,0,0:0:0:0:
256,192,75248,1,0,0:0:0:0:
256,192,75431,1,0,0:0:0:0:
256,192,75614,1,0,0:0:0:0:
480,192,75980,5,0,0:0:0:0:
432,112,76163,1,0,0:0:0:0:
352,48,76346,1,0,0:0:0:0:
256,32,76529,1,0,0:0:0:0:
160,48,76712,1,0,0:0:0:0:
80,112,76895,1,0,0:0:0:0:
32,192,77078,1,0,0:0:0:0:
128,192,77260,6,0,L|208:116,1,95
304,128,77626,2,0,L|384:204,1,95
256,368,78175,2,0,L|256:272,1,95
256,16,78541,2,0,L|256:112,1,95
408,280,78907,2,0,L|325:231,1,95
103,104,79273,2,0,L|186:152,1,95
408,104,79639,2,0,L|325:151,1,95
103,280,80004,2,0,L|186:232,1,95
256,192,80370,2,0,L|256:96,1,95
256,97,80736,1,0,0:0:0:0:
96,192,81102,1,0,0:0:0:0:
96,192,81285,1,0,0:0:0:0:
96,192,81468,1,0,0:0:0:0:
256,48,81651,5,0,0:0:0:0:
416,192,81834,1,0,0:0:0:0:
256,336,82017,1,0,0:0:0:0:
256,240,82199,2,0,B|256:192|224:176|224:176|272:128|224:32,1,190
144,96,82748,1,0,0:0:0:0:
112,128,82840,1,0,0:0:0:0:
96,176,82931,1,0,0:0:0:0:
112,224,83023,1,0,0:0:0:0:
144,256,83114,1,0,0:0:0:0:
