osu file format v14

[General]
AudioFilename: audio.ogg
AudioLeadIn: 0
PreviewTime: 61589
Countdown: 0
SampleSet: Soft
StackLeniency: 0.7
Mode: 3
LetterboxInBreaks: 0
SpecialStyle: 0
WidescreenStoryboard: 1

[Editor]
Bookmarks: 3418,15126,18052,23906,32687,35613,44394,47321,61955,73662,76589
DistanceSpacing: 1.4
BeatDivisor: 4
GridSize: 4
TimelineZoom: 0.9999999

[Metadata]
Title:Lovers (TV Size)
TitleUnicode:ラヴァーズ (TV Size)
Artist:7!!
ArtistUnicode:7!!
Creator:keksikosu
Version:Easy
Source:NARUTO-ナルト-疾風伝
Tags:ラヴァーズ naruto uzumaki uchiha sasuke sakura shippuuden shipuuden shippuden shipuden rock jrock j-rock j-pop jpop pop op opening 9 seven oops anime japanese female vocal GREATEST HITS!!!!! ESCL-3659 albionshallah randelman4ik katagiri k_a_t_a_g_i_r_i
BeatmapID:4024041
BeatmapSetID:1945020

[Difficulty]
HPDrainRate:6.5
CircleSize:4
OverallDifficulty:6.5
ApproachRate:5
SliderMultiplier:1.4
SliderTickRate:1

[Events]
//Background and Video events
Video,-130,"lover.mp4"
0,0,"BG.jpg",0,0
//Break Periods
//Storyboard Layer 0 (Background)
//Storyboard Layer 1 (Fail)
//Storyboard Layer 2 (Pass)
//Storyboard Layer 3 (Foreground)
//Storyboard Layer 4 (Overlay)
//Storyboard Sound Samples
Sample,3784,0,"Hat Open2.wav",30
Sample,4150,0,"Hat Open2.wav",30
Sample,4516,0,"Hat Open2.wav",30
Sample,4882,0,"Hat Open2.wav",30
Sample,5248,0,"Hat Open2.wav",30
Sample,5613,0,"Hat Open2.wav",30
Sample,5979,0,"Hat Open2.wav",30
Sample,6345,0,"Hat Open2.wav",30
Sample,6711,0,"Hat Open2.wav",30
Sample,7077,0,"Hat Open2.wav",30
Sample,7443,0,"Hat Open2.wav",30
Sample,7809,0,"Hat Open2.wav",30
Sample,8174,0,"Hat Open2.wav",30
Sample,8540,0,"Hat Open2.wav",30
Sample,8906,0,"Hat Open2.wav",30
Sample,9638,0,"Hat Open2.wav",30
Sample,10004,0,"Hat Open2.wav",30
Sample,10370,0,"Hat Open2.wav",30
Sample,10735,0,"Hat Open2.wav",30
Sample,11101,0,"Hat Open2.wav",30
Sample,11467,0,"Hat Open2.wav",30
Sample,11833,0,"Hat Open2.wav",30
Sample,12199,0,"Hat Open2.wav",30
Sample,12565,0,"Hat Open2.wav",30
Sample,12931,0,"Hat Open2.wav",30
Sample,18418,0,"Hat Open2.wav",30
Sample,19150,0,"Hat Open2.wav",30
Sample,19699,0,"Hat Open2.wav",30
Sample,20613,0,"Hat Open2.wav",30
Sample,21345,0,"Hat Open2.wav",30
Sample,22077,0,"Hat Open2.wav",30
Sample,22626,0,"Hat Open2.wav",30
Sample,24272,0,"Hat Open2.wav",30
Sample,24638,0,"Hat Open2.wav",30
Sample,25004,0,"Hat Open2.wav",30
Sample,25370,0,"Hat Open2.wav",30
Sample,25735,0,"Hat Open2.wav",30
Sample,26101,0,"Hat Open2.wav",30
Sample,26467,0,"Hat Open2.wav",30
Sample,26833,0,"Hat Open2.wav",30
Sample,27199,0,"Hat Open2.wav",30
Sample,27565,0,"Hat Open2.wav",30
Sample,27931,0,"Hat Open2.wav",30
Sample,28296,0,"Hat Open2.wav",30
Sample,28662,0,"Hat Open2.wav",30
Sample,29028,0,"Hat Open2.wav",30
Sample,29394,0,"Hat Open2.wav",30
Sample,29760,0,"Hat Open2.wav",30
Sample,30126,0,"Hat Open2.wav",30
Sample,30491,0,"Hat Open2.wav",30
Sample,30857,0,"Hat Open2.wav",30
Sample,31223,0,"Hat Open2.wav",30
Sample,31589,0,"Hat Open2.wav",30
Sample,31955,0,"Hat Open2.wav",30
Sample,32321,0,"Hat Open2.wav",30
Sample,33052,0,"Hat Open2.wav",30
Sample,33418,0,"Hat Open2.wav",30
Sample,33784,0,"Hat Open2.wav",30
Sample,34333,0,"Hat Open2.wav",30
Sample,35979,0,"Hat Open2.wav",30
Sample,36345,0,"Hat Open2.wav",30
Sample,36711,0,"Hat Open2.wav",30
Sample,37077,0,"Hat Open2.wav",30
Sample,37443,0,"Hat Open2.wav",30
Sample,37809,0,"Hat Open2.wav",30
Sample,38174,0,"Hat Open2.wav",30
Sample,38540,0,"Hat Open2.wav",30
Sample,38906,0,"Hat Open2.wav",30
Sample,39272,0,"Hat Open2.wav",30
Sample,39638,0,"Hat Open2.wav",30
Sample,40004,0,"Hat Open2.wav",30
Sample,40370,0,"Hat Open2.wav",30
Sample,40735,0,"Hat Open2.wav",30
Sample,41833,0,"Hat Open2.wav",30
Sample,42199,0,"Hat Open2.wav",30
Sample,42565,0,"Hat Open2.wav",30
Sample,42931,0,"Hat Open2.wav",30
Sample,43296,0,"Hat Open2.wav",30
Sample,43662,0,"Hat Open2.wav",30
Sample,44028,0,"Hat Open2.wav",30
Sample,44760,0,"Hat Open2.wav",30
Sample,45126,0,"Hat Open2.wav",30
Sample,45491,0,"Hat Open2.wav",30
Sample,46040,0,"Hat Open2.wav",30
Sample,46955,0,"Hat Open2.wav",30
Sample,47687,0,"Hat Open2.wav",30
Sample,48052,0,"Hat Open2.wav",30
Sample,49150,0,"Hat Open2.wav",30
Sample,49516,0,"Hat Open2.wav",30
Sample,49882,0,"Hat Open2.wav",30
Sample,50248,0,"Hat Open2.wav",30
Sample,50613,0,"Hat Open2.wav",30
Sample,50979,0,"Hat Open2.wav",30
Sample,52077,0,"Hat Open2.wav",30
Sample,52443,0,"Hat Open2.wav",30
Sample,52809,0,"Hat Open2.wav",30
Sample,53540,0,"Hat Open2.wav",30
Sample,53906,0,"Hat Open2.wav",30
Sample,54272,0,"Hat Open2.wav",30
Sample,55004,0,"Hat Open2.wav",30
Sample,55370,0,"Hat Open2.wav",30
Sample,55735,0,"Hat Open2.wav",30
Sample,56467,0,"Hat Open2.wav",30
Sample,56833,0,"Hat Open2.wav",30
Sample,57199,0,"Hat Open2.wav",30
Sample,57748,0,"Hat Open2.wav",30
Sample,58662,0,"Hat Open2.wav",30
Sample,62321,0,"Hat Open2.wav",30
Sample,62687,0,"Hat Open2.wav",30
Sample,63052,0,"Hat Open2.wav",30
Sample,63784,0,"Hat Open2.wav",30
Sample,64150,0,"Hat Open2.wav",30
Sample,64516,0,"Hat Open2.wav",30
Sample,64882,0,"Hat Open2.wav",30
Sample,65248,0,"Hat Open2.wav",30
Sample,65613,0,"Hat Open2.wav",30
Sample,65979,0,"Hat Open2.wav",30
Sample,66711,0,"Hat Open2.wav",30
Sample,67077,0,"Hat Open2.wav",30
Sample,67443,0,"Hat Open2.wav",30
Sample,67809,0,"Hat Open2.wav",30
Sample,68174,0,"Hat Open2.wav",30
Sample,68540,0,"Hat Open2.wav",30
Sample,68906,0,"Hat Open2.wav",30
Sample,69638,0,"Hat Open2.wav",30
Sample,70004,0,"Hat Open2.wav",30
Sample,70370,0,"Hat Open2.wav",30
Sample,70735,0,"Hat Open2.wav",30
Sample,71101,0,"Hat Open2.wav",30
Sample,71467,0,"Hat Open2.wav",30
Sample,71833,0,"Hat Open2.wav",30
Sample,72199,0,"Hat Open2.wav",30
Sample,72565,0,"Hat Open2.wav",30
Sample,72931,0,"Hat Open2.wav",30
Sample,74028,0,"Hat Open2.wav",30
Sample,74394,0,"Hat Open2.wav",30
Sample,74760,0,"Hat Open2.wav",30
Sample,75491,0,"Hat Open2.wav",30
Sample,75857,0,"Hat Open2.wav",30
Sample,76223,0,"Hat Open2.wav",30
Sample,76955,0,"Hat Open2.wav",30
Sample,77687,0,"Hat Open2.wav",30
Sample,78235,0,"Hat Open2.wav",30
Sample,79150,0,"Hat Open2.wav",30
Sample,79882,0,"Hat Open2.wav",30
Sample,80613,0,"Hat Open2.wav",30
Sample,81162,0,"Hat Open2.wav",30
Sample,82809,0,"Hat Open2.wav",30
Sample,83540,0,"Hat Open2.wav",30
Sample,84089,0,"Hat Open2.wav",30
Sample,85004,0,"Hat Open2.wav",30
Sample,85735,0,"Hat Open2.wav",30
Sample,86467,0,"Hat Open2.wav",30
Sample,87016,0,"Hat Open2.wav",30

[TimingPoints]
492,365.853658536585,4,2,1,40,1,0
61955,-100,4,2,1,40,0,1
76589,-100,4,2,1,40,0,0

[HitObjects]
192,192,492,5,8,0:0:0:0:
192,192,1040,1,8,0:0:0:0:
448,192,1589,1,8,0:0:0:0:
320,192,1772,1,2,0:0:0:0:
64,192,1955,1,2,0:0:0:0:
192,192,1955,1,8,0:0:0:0:
320,192,2504,1,2,0:0:0:0:
448,192,2504,1,8,0:0:0:0:
64,192,3052,1,0,0:0:0:0:
320,192,3418,128,2,3784:0:0:0:0:
448,192,3418,1,4,0:0:0:0:
192,192,3784,1,2,0:0:0:0:
64,192,4150,1,2,0:0:0:0:
448,192,4516,1,2,0:0:0:0:
320,192,4882,1,2,0:0:0:0:
192,192,5248,128,2,5613:0:0:0:0:
64,192,5613,1,2,0:0:0:0:
320,192,5979,1,2,0:0:0:0:
448,192,6345,1,2,0:0:0:0:
192,192,6711,1,2,0:0:0:0:
320,192,7077,1,2,0:0:0:0:
64,192,7443,1,2,0:0:0:0:
192,192,7809,128,2,8174:0:0:0:0:
320,192,8174,128,2,8540:0:0:0:0:
448,192,8540,128,2,8906:0:0:0:0:
64,192,8906,1,2,0:0:0:0:
192,192,9272,128,2,9638:0:0:0:0:
448,192,9272,1,4,0:0:0:0:
64,192,9638,1,2,0:0:0:0:
320,192,10004,1,2,0:0:0:0:
192,192,10370,1,2,0:0:0:0:
448,192,10735,1,2,0:0:0:0:
320,192,11101,1,2,0:0:0:0:
64,192,11467,1,2,0:0:0:0:
192,192,11833,1,2,0:0:0:0:
320,192,12199,128,2,13296:0:0:0:0:
64,192,12565,1,2,0:0:0:0:
64,192,12931,1,2,0:0:0:0:
448,192,13296,1,8,0:0:0:0:
64,192,13662,128,10,14394:0:0:0:0:
320,192,14028,1,8,0:0:0:0:
320,192,14394,1,8,0:0:0:0:
192,192,14577,1,8,0:0:0:0:
320,192,14760,1,8,0:0:0:0:
192,192,14943,1,8,0:0:0:0:
448,192,15126,128,10,15491:0:0:0:0:
192,192,15491,128,0,15857:0:0:0:0:
64,192,15857,1,0,0:0:0:0:
320,192,16040,1,10,0:0:0:0:
192,192,16223,1,10,0:0:0:0:
448,192,16406,1,10,0:0:0:0:
192,192,17504,1,2,0:0:0:0:
320,192,17687,1,8,0:0:0:0:
64,192,18052,128,2,18418:0:0:0:0:
192,192,18052,1,4,0:0:0:0:
448,192,18418,1,8,0:0:0:0:
320,192,18601,128,2,18967:0:0:0:0:
64,192,18967,1,2,0:0:0:0:
192,192,19150,128,8,19516:0:0:0:0:
448,192,19516,1,6,0:0:0:0:
320,192,19699,1,2,0:0:0:0:
64,192,19882,1,8,0:0:0:0:
448,192,20065,128,6,20431:0:0:0:0:
192,192,20431,1,2,0:0:0:0:
320,192,20613,1,8,0:0:0:0:
64,192,20796,1,8,0:0:0:0:
448,192,20979,1,6,0:0:0:0:
192,192,21345,1,8,0:0:0:0:
64,192,21528,128,6,21894:0:0:0:0:
320,192,21894,1,2,0:0:0:0:
192,192,22077,1,8,0:0:0:0:
448,192,22443,1,6,0:0:0:0:
64,192,22626,1,2,0:0:0:0:
192,192,22809,1,8,0:0:0:0:
320,192,22991,128,6,23357:0:0:0:0:
64,192,23357,1,2,0:0:0:0:
448,192,23540,128,8,23906:0:0:0:0:
64,192,23906,1,6,0:0:0:0:
320,192,23906,1,0,0:0:0:30:tom2.wav
64,192,24089,1,0,0:0:0:30:tom2.wav
448,192,24272,1,8,0:0:0:0:
192,192,24638,1,2,0:0:0:0:
320,192,24821,1,2,0:0:0:0:
64,192,25004,1,8,0:0:0:0:
448,192,25370,1,2,0:0:0:0:
192,192,25552,1,2,0:0:0:0:
64,192,25735,1,8,0:0:0:0:
320,192,26101,1,2,0:0:0:0:
192,192,26284,1,2,0:0:0:0:
448,192,26467,1,8,0:0:0:0:
320,192,26833,1,2,0:0:0:0:
320,192,27016,1,2,0:0:0:0:
64,192,27199,1,8,0:0:0:0:
192,192,27565,1,2,0:0:0:0:
448,192,27748,1,2,0:0:0:0:
64,192,27931,1,8,0:0:0:0:
320,192,28296,1,2,0:0:0:0:
448,192,28479,1,2,0:0:0:0:
192,192,28662,1,8,0:0:0:0:
320,192,29028,1,2,0:0:0:0:
64,192,29211,1,2,0:0:0:0:
448,192,29394,128,8,29760:0:0:0:0:
192,192,29760,1,2,0:0:0:0:
192,192,29943,1,2,0:0:0:0:
320,192,30126,1,8,0:0:0:0:
64,192,30491,1,2,0:0:0:0:
448,192,30674,1,2,0:0:0:0:
192,192,30857,1,8,0:0:0:0:
320,192,31223,1,2,0:0:0:0:
64,192,31406,1,2,0:0:0:0:
448,192,31589,1,8,0:0:0:0:
192,192,31955,1,2,0:0:0:0:
320,192,32138,1,2,0:0:0:0:
64,192,32321,1,8,0:0:0:0:
320,192,32687,1,4,0:0:0:0:
448,192,32687,128,2,33052:0:0:0:0:
64,192,33052,1,8,0:0:0:0:
320,192,33418,1,2,0:0:0:0:
192,192,33601,1,2,0:0:0:0:
448,192,33784,1,8,0:0:0:0:
64,192,34150,1,6,0:0:0:0:
192,192,34333,1,2,0:0:0:0:
448,192,34516,1,8,0:0:0:0:
192,192,34699,128,2,35065:0:0:0:0:
320,192,34699,1,4,0:0:0:0:
64,192,35065,1,2,0:0:0:0:
448,192,35248,1,8,0:0:0:0:
320,192,35431,1,8,0:0:0:0:
64,192,35613,128,2,35979:0:0:0:0:
192,192,35613,1,4,0:0:0:0:
448,192,35979,1,8,0:0:0:0:
192,192,36345,1,2,0:0:0:0:
320,192,36528,1,2,0:0:0:0:
64,192,36711,1,8,0:0:0:0:
448,192,37077,1,2,0:0:0:0:
192,192,37260,1,2,0:0:0:0:
320,192,37443,1,8,0:0:0:0:
64,192,37809,1,2,0:0:0:0:
448,192,37991,1,2,0:0:0:0:
192,192,38174,1,8,0:0:0:0:
320,192,38540,1,2,0:0:0:0:
320,192,38723,1,2,0:0:0:0:
64,192,38906,1,8,0:0:0:0:
448,192,39272,1,2,0:0:0:0:
192,192,39455,1,2,0:0:0:0:
64,192,39638,1,8,0:0:0:0:
320,192,40004,1,2,0:0:0:0:
192,192,40187,1,2,0:0:0:0:
448,192,40370,1,8,0:0:0:0:
64,192,40735,1,2,0:0:0:0:
320,192,40918,1,2,0:0:0:0:
448,192,41101,128,8,41467:0:0:0:0:
64,192,41467,1,2,0:0:0:0:
192,192,41467,1,4,0:0:0:0:
192,192,41650,1,2,0:0:0:0:
448,192,41833,1,8,0:0:0:0:
64,192,42199,1,2,0:0:0:0:
320,192,42382,1,2,0:0:0:0:
192,192,42565,1,8,0:0:0:0:
448,192,42931,1,2,0:0:0:0:
64,192,43113,1,2,0:0:0:0:
320,192,43296,1,8,0:0:0:0:
192,192,43662,1,2,0:0:0:0:
448,192,43845,1,2,0:0:0:0:
64,192,44028,1,8,0:0:0:0:
320,192,44394,128,2,44760:0:0:0:0:
448,192,44394,1,4,0:0:0:0:
192,192,44760,1,8,0:0:0:0:
64,192,45126,1,2,0:0:0:0:
320,192,45309,1,2,0:0:0:0:
192,192,45491,1,8,0:0:0:0:
320,192,45857,1,6,0:0:0:0:
448,192,46040,1,2,0:0:0:0:
192,192,46223,1,8,0:0:0:0:
64,192,46406,128,2,46772:0:0:0:0:
320,192,46406,1,4,0:0:0:0:
448,192,46772,1,2,0:0:0:0:
192,192,46955,1,8,0:0:0:0:
64,192,47138,1,8,0:0:0:0:
320,192,47321,1,2,0:0:0:0:
448,192,47321,128,4,47687:0:0:0:0:
192,192,47687,1,8,0:0:0:0:
320,192,48052,1,2,0:0:0:0:
64,192,48235,1,2,0:0:0:0:
448,192,48418,1,8,0:0:0:0:
64,192,48601,1,2,0:0:0:0:
192,192,48601,128,4,48967:0:0:0:0:
320,192,48967,1,2,0:0:0:0:
448,192,49150,1,8,0:0:0:0:
192,192,49516,1,2,0:0:0:0:
320,192,49699,1,2,0:0:0:0:
64,192,49882,128,8,50248:0:0:0:0:
448,192,50248,1,2,0:0:0:0:
448,192,50431,1,2,0:0:0:0:
192,192,50613,1,8,0:0:0:0:
320,192,50979,1,2,0:0:0:0:
64,192,51162,1,2,0:0:0:0:
192,192,51345,1,8,0:0:0:0:
320,192,51528,1,4,0:0:0:0:
448,192,51528,128,2,51894:0:0:0:0:
64,192,51894,1,2,0:0:0:0:
192,192,52077,1,8,0:0:0:0:
448,192,52443,1,2,0:0:0:0:
192,192,52626,1,2,0:0:0:0:
320,192,52809,128,8,53174:0:0:0:0:
64,192,53174,1,2,0:0:0:0:
192,192,53174,1,4,0:0:0:0:
64,192,53357,1,2,0:0:0:0:
448,192,53540,1,8,0:0:0:0:
320,192,53906,1,2,0:0:0:0:
192,192,54089,1,2,0:0:0:0:
448,192,54272,1,8,0:0:0:0:
64,192,54455,128,2,54821:0:0:0:0:
320,192,54455,1,4,0:0:0:0:
192,192,54821,1,2,0:0:0:0:
448,192,55004,1,8,0:0:0:0:
64,192,55370,1,2,0:0:0:0:
320,192,55552,1,2,0:0:0:0:
192,192,55735,1,8,0:0:0:0:
64,192,56101,1,2,0:0:0:0:
448,192,56101,128,4,56467:0:0:0:0:
320,192,56467,1,8,0:0:0:0:
192,192,56833,1,2,0:0:0:0:
448,192,57016,1,2,0:0:0:0:
64,192,57199,1,8,0:0:0:0:
448,192,57565,1,6,0:0:0:0:
320,192,57748,1,2,0:0:0:0:
64,192,57931,1,8,0:0:0:0:
192,192,58113,128,2,58479:0:0:0:0:
448,192,58113,1,4,0:0:0:0:
320,192,58479,1,2,0:0:0:0:
64,192,58662,1,8,0:0:0:0:
448,192,59028,1,10,0:0:0:0:
448,192,59577,1,10,0:0:0:0:
64,192,60126,1,10,0:0:0:0:
192,192,60309,1,2,0:0:0:0:
320,192,60491,1,2,0:0:0:0:
448,192,60491,1,8,0:0:0:0:
64,192,61040,1,8,0:0:0:0:
192,192,61040,1,2,0:0:0:0:
448,192,61589,1,0,0:0:0:0:
64,192,61955,1,2,0:0:0:0:
192,192,61955,128,4,62321:0:0:0:0:
320,192,62321,1,8,0:0:0:0:
448,192,62687,1,2,0:0:0:0:
192,192,62870,1,2,0:0:0:0:
320,192,63052,1,8,0:0:0:0:
64,192,63235,1,2,0:0:0:0:
448,192,63601,1,2,0:0:0:0:
320,192,63784,128,8,64150:0:0:0:0:
192,192,64150,1,2,0:0:0:0:
448,192,64333,1,2,0:0:0:0:
64,192,64516,1,8,0:0:0:0:
192,192,64882,1,2,0:0:0:0:
448,192,65065,1,2,0:0:0:0:
320,192,65248,1,8,0:0:0:0:
64,192,65613,1,2,0:0:0:0:
448,192,65796,1,2,0:0:0:0:
192,192,65979,1,8,0:0:0:0:
64,192,66162,128,2,66528:0:0:0:0:
320,192,66528,1,2,0:0:0:0:
448,192,66711,1,8,0:0:0:0:
192,192,67077,1,2,0:0:0:0:
64,192,67260,1,2,0:0:0:0:
320,192,67443,1,8,0:0:0:0:
192,192,67809,1,2,0:0:0:0:
448,192,67991,1,2,0:0:0:0:
64,192,68174,1,8,0:0:0:0:
320,192,68540,1,2,0:0:0:0:
192,192,68723,1,2,0:0:0:0:
448,192,68906,1,8,0:0:0:0:
64,192,69089,1,2,0:0:0:0:
320,192,69455,1,2,0:0:0:0:
448,192,69638,1,8,0:0:0:0:
192,192,70004,1,2,0:0:0:0:
320,192,70187,1,2,0:0:0:0:
64,192,70370,1,8,0:0:0:0:
448,192,70735,1,2,0:0:0:0:
192,192,70918,1,2,0:0:0:0:
64,192,71101,1,8,0:0:0:0:
320,192,71467,1,2,0:0:0:0:
448,192,71650,1,2,0:0:0:0:
192,192,71833,1,8,0:0:0:0:
320,192,72199,1,2,0:0:0:0:
64,192,72382,1,2,0:0:0:0:
192,192,72565,1,8,0:0:0:0:
448,192,72931,1,2,0:0:0:0:
64,192,73113,1,2,0:0:0:0:
320,192,73296,1,8,0:0:0:0:
192,192,73479,1,8,0:0:0:0:
64,192,73662,128,2,74028:0:0:0:0:
448,192,73662,1,4,0:0:0:0:
320,192,74028,128,8,74394:0:0:0:0:
192,192,74394,1,2,0:0:0:0:
448,192,74577,1,2,0:0:0:0:
64,192,74760,1,8,0:0:0:0:
320,192,74943,1,2,0:0:0:0:
448,192,74943,128,0,75309:0:0:0:0:
192,192,75309,1,2,0:0:0:0:
64,192,75491,128,8,75857:0:0:0:0:
320,192,75857,128,2,76223:0:0:0:0:
64,192,76223,1,8,0:0:0:0:
192,192,76406,1,8,0:0:0:0:
320,192,76589,1,2,0:0:0:0:
448,192,76589,128,4,76955:0:0:0:0:
64,192,76955,1,8,0:0:0:0:
192,192,77138,128,2,77504:0:0:0:0:
448,192,77504,1,2,0:0:0:0:
320,192,77687,128,8,78052:0:0:0:0:
64,192,78052,1,6,0:0:0:0:
192,192,78235,1,2,0:0:0:0:
448,192,78418,1,8,0:0:0:0:
64,192,78601,128,6,78967:0:0:0:0:
320,192,78967,1,2,0:0:0:0:
192,192,79150,1,8,0:0:0:0:
448,192,79333,1,8,0:0:0:0:
192,192,79516,128,6,79882:0:0:0:0:
448,192,79882,128,8,80248:0:0:0:0:
64,192,80248,1,0,0:0:0:30:Hat Open2.wav
192,192,80431,1,2,0:0:0:0:
320,192,80613,1,8,0:0:0:0:
64,192,80796,128,0,81162:0:0:0:0:
448,192,81162,1,2,0:0:0:0:
320,192,81345,128,8,81711:0:0:0:0:
192,192,81711,1,0,0:0:0:0:
64,192,81894,1,2,0:0:0:0:
448,192,82077,1,8,0:0:0:0:
320,192,82260,1,8,0:0:0:0:
64,192,82443,128,2,82809:0:0:0:0:
192,192,82443,1,4,0:0:0:0:
320,192,82809,1,8,0:0:0:0:
448,192,82991,128,2,83357:0:0:0:0:
64,192,83357,1,2,0:0:0:0:
192,192,83540,128,8,83906:0:0:0:0:
320,192,83906,1,6,0:0:0:0:
448,192,84089,1,2,0:0:0:0:
64,192,84272,1,8,0:0:0:0:
320,192,84455,128,6,84821:0:0:0:0:
192,192,84821,1,2,0:0:0:0:
64,192,85004,1,8,0:0:0:0:
448,192,85187,1,8,0:0:0:0:
64,192,85370,128,6,85735:0:0:0:0:
192,192,85735,1,8,0:0:0:0:
448,192,85918,128,6,86284:0:0:0:0:
320,192,86284,1,2,0:0:0:0:
192,192,86467,1,8,0:0:0:0:
64,192,86833,1,6,0:0:0:0:
448,192,87016,1,2,0:0:0:0:
320,192,87199,1,8,0:0:0:0:
192,192,87382,128,6,87748:0:0:0:0:
448,192,87748,1,2,0:0:0:0:
64,192,87931,1,8,0:0:0:0:
192,192,88113,1,8,0:0:0:0:
320,192,88296,1,2,0:0:0:0:
448,192,88296,128,4,89028:0:0:0:0:
