osu file format v14

[General]
AudioFilename: audio.mp3
AudioLeadIn: 0
PreviewTime: 61448
Countdown: 0
SampleSet: Soft
StackLeniency: 0.7
Mode: 0
LetterboxInBreaks: 0
WidescreenStoryboard: 0

[Editor]
DistanceSpacing: 1
BeatDivisor: 4
GridSize: 4
TimelineZoom: 1.2

[Metadata]
Title:Lovers (TV Size)
TitleUnicode:ラヴァーズ (TV Size)
Artist:7!!
ArtistUnicode:7!!
Creator:Hantrik
Version:Sorrow
Source:NARUTO-ナルト-疾風伝
Tags:shippuden opening op 9 anime female vocalist japanese rock jrock j-rock seven oops アニップス Anipus
BeatmapID:2492890
BeatmapSetID:1196675

[Difficulty]
HPDrainRate:5
CircleSize:3.8
OverallDifficulty:8
ApproachRate:9
SliderMultiplier:1.75
SliderTickRate:1

[Events]
//Background and Video events
0,0,"BG.jpg",0,0
//Break Periods
//Storyboard Layer 0 (Background)
//Storyboard Layer 1 (Fail)
//Storyboard Layer 2 (Pass)
//Storyboard Layer 3 (Foreground)
//Storyboard Layer 4 (Overlay)
//Storyboard Sound Samples

[TimingPoints]
-977,365.853658536585,4,2,1,35,1,0
486,-125,4,2,1,35,0,0
1949,-125,4,2,1,55,0,0
3413,-111.111111111111,4,2,1,40,0,0
13657,-111.111111111111,4,2,1,50,0,0
17681,-500,4,2,1,50,0,0
18047,-100,4,2,1,45,0,0
23901,-125,4,2,1,40,0,0
32681,-111.111111111111,4,2,1,45,0,0
35608,-125,4,2,1,40,0,0
44388,-111.111111111111,4,2,1,45,0,0
47315,-125,4,2,1,40,0,0
59022,-125,4,2,1,45,0,0
60486,-125,4,2,1,55,0,0
61949,-100,4,2,1,70,0,1
88291,-100,4,2,1,75,0,0

[Colours]
Combo1 : 247,222,172
Combo2 : 197,105,241
Combo3 : 199,183,240
Combo4 : 236,164,83
SliderBorder : 222,247,255

[HitObjects]
370,119,486,5,8,0:0:0:0:
415,314,669,1,0,1:0:0:0:
398,102,852,1,0,1:0:0:0:
290,278,1035,2,0,L|208:251,1,70,8|0,0:0|1:0,0:0:0:0:
107,303,1401,1,0,1:0:0:0:
260,126,1583,2,0,L|193:147,1,70,8|0,0:0|1:0,0:0:0:0:
46,66,1949,6,0,L|70:76,1,17.5,14|8,0:0|0:0,0:0:0:0:
378,213,2498,2,0,L|353:221,1,17.5,14|8,0:0|0:0,0:0:0:0:
84,310,3413,6,0,B|80:253|80:253|55:218|55:218|51:160,1,157.499995193482,6|0,1:2|1:0,0:0:0:0:
132,53,3962,1,2,0:0:0:0:
241,124,4144,2,0,L|317:101,1,78.7499975967408,2|2,1:2|0:0,0:0:0:0:
157,29,4510,1,2,1:2:0:0:
157,210,4693,6,0,P|130:169|130:138,1,78.7499975967408,2|2,0:0|1:2,0:0:0:0:
127,29,5059,1,2,0:0:0:0:
11,148,5242,2,0,L|30:242,1,78.7499975967408,0|0,1:0|0:0,0:0:0:0:
176,299,5608,2,0,L|190:212,1,78.7499975967408,0|0,1:0|0:0,0:0:0:0:
140,113,5974,1,2,1:2:0:0:
267,144,6157,5,2,0:0:0:0:
267,144,6248,1,2,0:0:0:0:
267,144,6340,2,0,B|314:147|329:108|336:109|338:71|401:76,1,157.499995193482,2|2,1:2|1:2,0:0:0:0:
233,30,6888,1,2,0:0:0:0:
126,176,7071,1,2,1:2:0:0:
253,50,7254,1,2,0:0:0:0:
99,52,7437,1,2,1:2:0:0:
219,139,7620,1,2,0:0:0:0:
22,160,7803,6,0,P|46:104|150:111,1,157.499995193482,0|0,1:2|1:0,0:0:0:0:
207,213,8352,1,0,0:0:0:0:
105,311,8535,2,0,L|77:216,1,78.7499975967408,0|0,1:0|0:0,0:0:0:0:
142,126,8901,1,2,1:2:0:0:
142,126,8992,1,2,0:0:0:0:
142,126,9083,1,2,0:0:0:0:
233,238,9266,6,0,B|284:233|284:233|314:198|314:198|379:191,1,157.499995193482,2|2,1:2|1:2,0:0:0:0:
481,272,9815,1,2,0:0:0:0:
396,364,9998,2,0,L|295:340,1,78.7499975967408,2|0,1:2|0:0,0:0:0:0:
405,209,10364,1,2,1:2:0:0:
493,375,10547,6,0,P|502:317|479:285,1,78.7499975967408,2|0,0:0|1:2,0:0:0:0:
371,198,10913,2,0,P|354:237|366:278,1,78.7499975967408,2|0,0:0|1:0,0:0:0:0:
500,115,11279,1,2,0:0:0:0:
330,39,11462,1,2,1:2:0:0:
483,93,11644,1,2,0:0:0:0:
315,145,11827,1,2,1:2:0:0:
433,10,12010,1,2,0:0:0:0:
508,192,12193,6,0,P|470:123|382:143,1,157.499995193482,2|0,1:2|1:0,0:0:0:0:
330,251,12742,1,0,0:0:0:0:
208,181,12925,2,0,L|193:90,1,78.7499975967408,0|0,1:0|0:0,0:0:0:0:
291,15,13291,1,8,0:0:0:0:
291,15,13657,5,2,1:2:0:0:
343,178,13840,1,8,0:0:0:0:
433,38,14022,5,8,0:0:0:0:
211,83,14205,1,8,0:0:0:0:
374,201,14388,5,8,0:0:0:0:
321,0,14571,1,8,0:0:0:0:
269,247,14754,5,8,0:0:0:0:
421,72,14937,1,8,0:0:0:0:
490,320,15120,5,2,1:2:0:0:
121,348,16035,5,10,0:0:0:0:
50,153,16218,1,10,0:0:0:0:
154,355,16401,1,10,0:0:0:0:
339,46,17498,5,2,1:2:0:0:
296,262,17681,2,0,L|287:234,1,26.25,10|0,0:0|0:0,0:0:0:0:
270,209,18047,6,0,L|171:187,1,87.5,6|0,1:2|0:0,0:0:0:0:
38,229,18413,1,8,0:0:0:0:
77,62,18596,2,0,L|176:40,1,87.5,2|0,1:2|0:0,0:0:0:0:
368,116,18962,1,2,1:2:0:0:
261,9,19144,1,8,0:0:0:0:
231,167,19327,1,2,0:0:0:0:
442,73,19510,6,0,P|406:35|352:33,1,87.5,2|2,1:2|1:2,0:0:0:0:
207,85,19876,1,10,0:0:0:0:
324,202,20059,2,0,L|294:17,1,175,2|2,1:2|1:2,0:0:0:0:
185,176,20608,1,10,0:0:0:0:
87,71,20791,1,10,0:0:0:0:
10,190,20974,6,0,L|27:285,1,87.5,2|2,1:2|0:0,0:0:0:0:
122,357,21340,1,10,0:0:0:0:
212,270,21522,2,0,L|221:180,1,87.5,2|0,1:2|0:0,0:0:0:0:
131,70,21888,1,2,1:2:0:0:
270,15,22071,1,8,0:0:0:0:
118,96,22254,1,2,0:0:0:0:
292,140,22437,6,0,L|388:100,1,87.5,2|2,1:2|1:2,0:0:0:0:
512,155,22803,1,10,0:0:0:0:
399,291,22986,2,0,B|369:242|400:210|386:196|416:168|389:115,1,175,2|0,1:2|1:0,0:0:0:0:
273,23,23535,1,8,0:0:0:0:
264,26,23626,1,8,0:0:0:0:
256,29,23718,1,8,0:0:0:0:
248,32,23809,1,8,0:0:0:0:
240,35,23901,6,0,P|220:69|234:117,1,70,2|2,1:2|1:2,0:0:0:0:
278,187,24266,1,10,0:0:0:0:
278,187,24449,1,2,0:0:0:0:
220,272,24632,2,0,L|141:248,1,70,2|0,1:2|1:0,0:0:0:0:
64,308,24998,1,10,0:0:0:0:
0,232,25181,6,0,B|-8:192|-19:161|-19:161|3:137|14:103,1,140,2|2,0:0|1:2,0:0:0:0:
109,51,25730,1,10,0:0:0:0:
212,90,25913,2,0,L|202:3,1,70,2|0,0:0|1:0,0:0:0:0:
145,175,26279,1,2,1:2:0:0:
252,230,26462,2,0,L|262:143,1,70,10|2,0:0|0:0,0:0:0:0:
199,331,26827,6,0,P|242:350|280:344,1,70,6|0,1:2|1:0,0:0:0:0:
406,227,27193,2,0,P|371:228|340:244,1,70,10|0,0:0|0:0,0:0:0:0:
462,324,27559,1,2,1:2:0:0:
462,324,27742,1,2,1:2:0:0:
504,217,27925,2,0,L|512:140,1,70,8|2,0:0|0:0,0:0:0:0:
441,77,28291,5,0,1:2:0:0:
441,77,28474,1,0,1:0:0:0:
361,158,28657,2,0,P|314:147|287:119,1,70,8|0,0:0|0:0,0:0:0:0:
271,40,29022,1,0,1:0:0:0:
271,40,29205,1,0,1:0:0:0:
173,102,29388,2,0,L|190:175,1,70,8|0,0:0|0:0,0:0:0:0:
76,41,29755,5,0,1:2:0:0:
76,41,29937,1,0,1:0:0:0:
165,196,30120,2,0,P|115:185|93:144,1,70,10|0,0:0|0:0,0:0:0:0:
277,46,30486,2,0,P|292:93|268:133,1,70,2|0,1:2|1:0,0:0:0:0:
175,88,30852,1,10,0:0:0:0:
247,211,31035,6,0,L|340:188,1,70,2|0,0:0|1:0,0:0:0:0:
410,248,31401,1,2,1:2:0:0:
482,159,31583,2,0,B|494:109|494:109|480:69|480:69|497:16,1,140,10|0,0:0|1:0,0:0:0:0:
361,88,32132,1,2,1:2:0:0:
286,16,32315,2,0,L|214:30,1,70,10|2,0:0|0:0,0:0:0:0:
30,56,32681,6,0,P|93:48|107:128,1,157.499995193482,6|10,1:2|0:0,0:0:0:0:
32,244,33230,1,2,0:0:0:0:
119,360,33413,2,0,L|204:339,1,78.7499975967408,0|2,1:2|1:2,0:0:0:0:
332,363,33779,1,10,0:0:0:0:
332,363,34144,5,2,1:2:0:0:
420,230,34327,1,2,1:2:0:0:
268,249,34510,1,10,0:0:0:0:
465,330,34693,2,0,B|475:295|489:264|489:264|466:227|448:180,1,157.499995193482,6|2,1:2|1:2,0:0:0:0:
421,90,35242,1,10,0:0:0:0:
412,93,35333,1,8,0:0:0:0:
404,96,35425,1,8,0:0:0:0:
396,99,35516,1,8,0:0:0:0:
388,102,35608,6,0,L|306:81,1,70,6|0,1:2|0:0,0:0:0:0:
235,146,35974,1,10,0:0:0:0:
235,146,36157,1,2,0:0:0:0:
297,221,36340,2,0,L|281:296,1,70,2|0,1:2|1:0,0:0:0:0:
201,353,36705,1,10,0:0:0:0:
102,337,36888,6,0,P|65:293|111:217,1,140,2|2,0:0|1:2,0:0:0:0:
189,210,37437,1,10,0:0:0:0:
244,124,37620,2,0,L|320:103,1,70,2|0,0:0|1:0,0:0:0:0:
398,169,37986,1,0,1:0:0:0:
345,262,38169,2,0,L|269:241,1,70,8|0,0:0|0:0,0:0:0:0:
425,325,38535,6,0,P|448:280|437:241,1,70,4|0,1:2|1:0,0:0:0:0:
403,175,38901,1,10,0:0:0:0:
403,175,39083,1,2,0:0:0:0:
462,88,39266,2,0,L|376:60,1,70,2|0,1:2|1:0,0:0:0:0:
297,125,39632,2,0,L|311:193,1,70,10|0,0:0|0:0,0:0:0:0:
276,288,39998,6,0,P|230:261|194:261,1,70,2|0,1:2|1:0,0:0:0:0:
138,325,40364,1,8,0:0:0:0:
44,287,40547,2,0,L|28:212,1,70,2|0,0:0|1:0,0:0:0:0:
85,131,40913,1,0,1:0:0:0:
172,184,41096,1,8,0:0:0:0:
181,181,41187,1,8,0:0:0:0:
189,178,41279,1,8,0:0:0:0:
197,175,41370,1,8,0:0:0:0:
205,172,41462,6,0,L|212:90,1,70,6|0,1:2|1:0,0:0:0:0:
318,41,41827,2,0,L|330:113,1,70,8|0,0:0|0:0,0:0:0:0:
393,190,42193,1,0,1:0:0:0:
472,122,42376,2,0,P|425:96|397:96,1,70,0|8,1:0|0:0,0:0:0:0:
316,133,42742,1,2,0:0:0:0:
295,225,42925,6,0,L|313:304,1,70,0|0,1:2|1:0,0:0:0:0:
383,348,43291,1,8,0:0:0:0:
446,280,43474,2,0,L|457:207,1,70,2|0,0:0|1:0,0:0:0:0:
472,122,43840,1,0,1:0:0:0:
339,52,44022,1,8,0:0:0:0:
463,23,44205,1,2,0:0:0:0:
335,146,44388,6,0,B|277:146|279:109|266:113|256:70|200:78,1,157.499995193482,6|10,1:2|0:0,0:0:0:0:
118,165,44937,1,0,0:0:0:0:
12,74,45120,2,0,L|2:154,1,78.7499975967408,2|2,1:2|1:2,0:0:0:0:
48,272,45486,1,10,0:0:0:0:
48,272,45852,5,2,1:2:0:0:
210,345,46035,1,2,1:2:0:0:
49,384,46218,1,10,0:0:0:0:
165,237,46401,2,0,L|259:203,1,78.7499975967408,6|0,1:2|0:0,0:0:0:0:
344,285,46766,1,2,1:2:0:0:
395,160,46949,1,10,0:0:0:0:
485,291,47132,5,10,0:0:0:0:
485,291,47224,1,10,0:0:0:0:
485,291,47315,2,0,L|504:148,1,140,4|10,1:2|0:0,0:0:0:0:
419,67,47864,1,2,0:0:0:0:
314,122,48047,2,0,L|234:91,1,70,2|0,1:2|1:0,0:0:0:0:
159,31,48413,1,10,0:0:0:0:
68,93,48596,6,0,B|45:140|68:162|75:163|85:194|67:231,1,140,6|2,1:2|1:2,0:0:0:0:
14,312,49144,1,10,0:0:0:0:
89,369,49327,2,0,L|158:339,1,70,2|0,0:0|1:0,0:0:0:0:
215,265,49693,1,2,1:2:0:0:
290,345,49876,2,0,P|313:315|316:271,1,70,10|0,0:0|0:0,0:0:0:0:
281,184,50242,6,0,L|204:162,1,70,2|0,1:2|1:0,0:0:0:0:
115,211,50608,1,10,0:0:0:0:
115,211,50791,1,2,0:0:0:0:
19,171,50974,2,0,L|3:96,1,70,2|2,1:2|1:2,0:0:0:0:
69,31,51340,1,8,0:0:0:0:
140,96,51522,6,0,B|173:92|213:99|213:99|224:63|254:35,1,140,6|0,1:2|1:0,0:0:0:0:
356,36,52071,1,10,0:0:0:0:
356,36,52254,1,2,0:0:0:0:
428,104,52437,2,0,L|414:178,1,70,2|0,1:2|1:0,0:0:0:0:
317,255,52803,2,0,L|303:186,1,70,10|2,0:0|0:0,0:0:0:0:
251,102,53169,6,0,P|204:89|180:97,1,70,2|0,1:2|1:0,0:0:0:0:
113,170,53535,1,10,0:0:0:0:
113,170,53718,1,2,0:0:0:0:
162,258,53901,2,0,P|196:263|228:250,1,70,2|2,1:2|1:2,0:0:0:0:
303,186,54266,1,8,0:0:0:0:
398,228,54449,6,0,L|416:372,1,140,6|2,1:2|1:2,0:0:0:0:
309,306,54998,1,10,0:0:0:0:
231,373,55181,2,0,L|149:352,1,70,0|2,0:0|1:2,0:0:0:0:
55,355,55547,1,2,1:2:0:0:
119,278,55730,2,0,P|120:241|100:209,1,70,10|2,0:0|0:0,0:0:0:0:
8,117,56096,6,0,P|52:134|113:62,1,140,6|8,1:2|0:0,0:0:0:0:
206,29,56644,2,0,P|216:75|241:96,1,70,2|0,0:0|1:0,0:0:0:0:
333,104,57010,1,2,1:2:0:0:
287,193,57193,2,0,L|305:273,1,70,10|2,0:0|0:0,0:0:0:0:
241,333,57559,5,2,1:2:0:0:
65,262,57742,1,2,1:2:0:0:
202,196,57925,1,10,0:0:0:0:
122,354,58108,2,0,L|109:202,1,140,6|2,1:2|1:2,0:0:0:0:
241,109,58657,2,0,L|235:178,1,70,10|2,0:0|0:0,0:0:0:0:
116,43,59022,5,10,0:0:0:0:
328,5,59205,1,0,1:0:0:0:
95,69,59388,1,0,1:0:0:0:
337,128,59571,2,0,L|428:103,1,70,10|0,0:0|1:0,0:0:0:0:
147,192,59937,1,0,1:0:0:0:
342,301,60120,2,0,L|416:318,1,70,10|0,0:0|1:0,0:0:0:0:
163,384,60486,6,0,L|157:355,1,17.5,12|8,0:0|0:0,0:0:0:0:
476,113,61035,2,0,L|472:130,1,17.5,12|8,0:0|0:0,0:0:0:0:
81,352,61949,6,0,B|54:307|68:263|77:267|92:232|62:183,1,175,6|8,1:2|0:0,0:0:0:0:
12,45,62498,1,2,0:0:0:0:
12,45,62590,1,8,0:0:0:0:
12,45,62681,2,0,P|49:18|99:24,1,87.5,2|2,1:2|1:2,0:0:0:0:
172,128,63047,1,10,0:0:0:0:
270,16,63230,6,0,L|290:110,1,87.5,2|0,1:2|0:0,0:0:0:0:
392,184,63596,1,2,1:2:0:0:
494,105,63779,2,0,L|512:19,1,87.5,8|0,0:0|0:0,0:0:0:0:
291,6,64144,2,0,L|309:91,1,87.5,0|0,1:0|1:0,0:0:0:0:
407,171,64510,1,10,0:0:0:0:
305,278,64693,5,2,0:0:0:0:
305,278,64785,1,2,0:0:0:0:
305,278,64876,2,0,B|241:285|235:234|218:240|209:199|149:208,1,175,2|10,1:2|0:0,0:0:0:0:
0,147,65425,1,2,0:0:0:0:
97,317,65608,1,2,1:2:0:0:
169,111,65791,1,2,1:2:0:0:
76,295,65974,1,10,0:0:0:0:
114,38,66157,6,0,P|165:14|258:95,1,175,2|0,1:2|1:0,0:0:0:0:
375,163,66705,2,0,L|461:132,1,87.5,8|0,0:0|0:0,0:0:0:0:
357,321,67071,2,0,L|271:290,1,87.5,0|0,1:0|1:0,0:0:0:0:
141,333,67437,1,10,0:0:0:0:
141,333,67529,1,2,0:0:0:0:
141,333,67620,1,2,0:0:0:0:
28,258,67803,6,0,B|43:193|43:193|26:149|26:149|44:76,1,175,2|10,1:2|0:0,0:0:0:0:
166,22,68352,1,2,0:0:0:0:
264,129,68535,2,0,L|372:100,1,87.5,2|0,1:2|1:0,0:0:0:0:
153,46,68901,1,10,0:0:0:0:
66,213,69083,6,0,P|53:154|81:116,1,87.5,2|0,1:2|0:0,0:0:0:0:
252,48,69449,2,0,P|265:88|251:129,1,87.5,2|8,1:2|0:0,0:0:0:0:
47,37,69815,1,2,0:0:0:0:
280,16,69998,1,2,1:2:0:0:
29,66,70181,1,2,1:2:0:0:
220,222,70364,1,10,0:0:0:0:
165,6,70547,1,2,0:0:0:0:
102,221,70730,6,0,P|129:137|229:130,1,175,2|8,1:2|0:0,0:0:0:0:
334,206,71279,1,0,0:0:0:0:
449,105,71462,2,0,L|468:205,1,87.5,0|0,1:0|1:0,0:0:0:0:
288,309,71827,2,0,L|304:223,1,87.5,8|0,0:0|0:0,0:0:0:0:
283,65,72193,6,0,B|236:51|204:29|204:29|174:69|126:83,1,175,2|8,1:2|0:0,0:0:0:0:
74,214,72742,1,0,0:0:0:0:
7,81,72925,2,0,P|50:55|92:72,1,87.5,0|0,1:0|1:0,0:0:0:0:
186,169,73291,1,8,0:0:0:0:
206,162,73382,1,8,0:0:0:0:
227,155,73474,1,8,0:0:0:0:
248,149,73565,1,8,0:0:0:0:
272,140,73657,6,0,B|292:234,1,87.5,2|0,1:2|0:0,0:0:0:0:
69,321,74022,2,0,B|87:235,1,87.5,10|0,0:0|0:0,0:0:0:0:
88,98,74388,1,2,1:2:0:0:
199,246,74571,1,2,1:2:0:0:
236,46,74754,1,10,0:0:0:0:
321,218,74937,6,0,B|303:132,1,87.5,2|0,1:2|0:0,0:0:0:0:
119,7,75303,5,2,1:2:0:0:
356,51,75486,1,10,0:0:0:0:
75,130,75669,5,2,0:0:0:0:
378,28,75852,1,2,1:2:0:0:
86,29,76035,5,2,1:2:0:0:
311,149,76218,1,10,0:0:0:0:
331,156,76309,1,8,0:0:0:0:
352,163,76401,1,10,0:0:0:0:
373,169,76492,1,8,0:0:0:0:
397,178,76583,6,0,P|418:215|413:264,1,87.5,6|0,1:2|0:0,0:0:0:0:
315,309,76949,1,10,0:0:0:0:
200,239,77132,2,0,L|163:56,1,175,2|2,1:2|1:2,0:0:0:0:
40,34,77681,1,8,0:0:0:0:
40,34,77864,1,2,0:0:0:0:
12,168,78047,6,0,P|64:162|92:125,1,87.5,2|2,1:2|1:2,0:0:0:0:
167,33,78413,1,10,0:0:0:0:
263,137,78596,2,0,B|324:140|347:96|336:95|350:51|424:54,1,175,2|2,1:2|1:2,0:0:0:0:
510,150,79144,1,10,0:0:0:0:
510,150,79327,1,8,0:0:0:0:
400,283,79510,6,0,P|376:232|380:185,1,87.5,2|0,1:2|0:0,0:0:0:0:
512,51,79876,2,0,P|509:94|487:132,1,87.5,10|0,0:0|1:0,0:0:0:0:
396,17,80242,1,2,0:0:0:0:
259,157,80425,1,2,1:2:0:0:
421,31,80608,1,10,0:0:0:0:
203,18,80791,6,0,L|114:49,1,87.5,2|0,0:0|1:2,0:0:0:0:
404,275,81157,5,2,1:2:0:0:
312,58,81340,1,10,0:0:0:0:
243,289,81522,5,2,1:2:0:0:
337,37,81705,1,2,0:0:0:0:
431,299,81888,5,2,1:2:0:0:
438,35,82071,1,10,0:0:0:0:
443,55,82163,1,8,0:0:0:0:
449,76,82254,1,10,0:0:0:0:
453,98,82346,1,8,0:0:0:0:
460,122,82437,6,0,P|417:138|360:118,1,87.5,6|0,1:2|0:0,0:0:0:0:
276,47,82803,1,10,0:0:0:0:
178,141,82986,2,0,L|214:326,1,175,2|2,1:2|1:2,0:0:0:0:
322,368,83535,1,8,0:0:0:0:
322,368,83718,1,2,0:0:0:0:
404,286,83901,6,0,L|415:193,1,87.5,2|2,1:2|1:2,0:0:0:0:
495,115,84266,1,10,0:0:0:0:
404,32,84449,2,0,P|350:12|279:103,1,175,2|2,1:2|1:2,0:0:0:0:
319,206,84998,1,10,0:0:0:0:
319,206,85181,1,8,0:0:0:0:
242,303,85364,6,0,L|142:279,1,87.5,2|0,1:2|0:0,0:0:0:0:
54,212,85730,1,10,0:0:0:0:
80,99,85913,2,0,P|134:79|205:170,1,175,2|2,1:2|1:2,0:0:0:0:
155,267,86462,1,8,0:0:0:0:
155,267,86644,1,2,0:0:0:0:
257,347,86827,6,0,L|280:257,1,87.5,2|2,1:2|1:2,0:0:0:0:
369,166,87193,1,10,0:0:0:0:
276,74,87376,2,0,B|211:86|211:86|186:132|186:132|127:146,1,175,2|0,1:2|1:2,0:0:0:0:
42,252,87925,1,8,0:0:0:0:
47,273,88016,1,8,0:0:0:0:
53,294,88108,1,8,0:0:0:0:
59,315,88199,1,8,0:0:0:0:
64,336,88291,1,6,1:2:0:0:
