osu file format v14

[General]
AudioFilename: audio.mp3
AudioLeadIn: 0
PreviewTime: 61448
Countdown: 0
SampleSet: Soft
StackLeniency: 0.7
Mode: 0
LetterboxInBreaks: 0
WidescreenStoryboard: 0

[Editor]
DistanceSpacing: 1
BeatDivisor: 4
GridSize: 4
TimelineZoom: 0.9000001

[Metadata]
Title:Lovers (TV Size)
TitleUnicode:ラヴァーズ (TV Size)
Artist:7!!
ArtistUnicode:7!!
Creator:Hantrik
Version:Normal
Source:NARUTO-ナルト-疾風伝
Tags:shippuden opening op 9 anime female vocalist japanese rock jrock j-rock seven oops アニップス Anipus
BeatmapID:2492889
BeatmapSetID:1196675

[Difficulty]
HPDrainRate:3
CircleSize:3.2
OverallDifficulty:4
ApproachRate:5.5
SliderMultiplier:1.2
SliderTickRate:1

[Events]
//Background and Video events
0,0,"BG.jpg",0,0
//Break Periods
//Storyboard Layer 0 (Background)
//Storyboard Layer 1 (Fail)
//Storyboard Layer 2 (Pass)
//Storyboard Layer 3 (Foreground)
//Storyboard Layer 4 (Overlay)
//Storyboard Sound Samples

[TimingPoints]
-977,365.853658536585,4,2,1,35,1,0
486,-100,4,2,1,35,0,0
1949,-100,4,2,1,55,0,0
3413,-100,4,2,1,40,0,0
13657,-100,4,2,1,50,0,0
18047,-100,4,2,1,45,0,0
23901,-100,4,2,1,40,0,0
32681,-100,4,2,1,45,0,0
35608,-100,4,2,1,40,0,0
44388,-100,4,2,1,45,0,0
47315,-100,4,2,1,40,0,0
59022,-100,4,2,1,45,0,0
60486,-100,4,2,1,55,0,0
61949,-100,4,2,1,70,0,1
88291,-100,4,2,1,75,0,0

[Colours]
Combo1 : 247,222,172
Combo2 : 197,105,241
Combo3 : 199,183,240
Combo4 : 236,164,83
SliderBorder : 222,247,255

[HitObjects]
412,60,486,6,0,L|438:195,1,120,8|0,0:0|1:0,0:0:0:0:
481,216,1035,2,0,L|455:351,1,120,8|0,0:0|1:0,0:0:0:0:
409,369,1583,2,0,L|344:346,1,60,8|0,0:0|1:0,0:0:0:0:
292,350,1949,5,14,0:0:0:0:
327,173,2498,1,14,0:0:0:0:
56,42,3413,6,0,L|75:169,1,120,6|0,1:2|1:0,0:0:0:0:
114,212,3962,1,2,0:0:0:0:
114,212,4144,2,0,L|108:283,1,60,2|2,1:2|0:0,0:0:0:0:
76,323,4510,1,2,1:2:0:0:
76,323,4693,2,0,P|106:300|187:337,1,120,2|2,0:0|0:0,0:0:0:0:
206,375,5242,1,0,1:0:0:0:
325,370,5608,1,0,1:0:0:0:
380,263,5974,2,0,L|373:198,1,60,2|2,1:2|0:0,0:0:0:0:
414,158,6340,6,0,P|372:174|305:123,1,120,2|2,1:2|1:2,0:0:0:0:
286,89,6888,1,2,0:0:0:0:
286,89,7071,2,0,L|153:65,1,120,2|2,1:2|1:2,0:0:0:0:
53,106,7803,2,0,B|39:138|20:159|20:159|36:180|50:224,1,120,0|0,1:2|1:0,0:0:0:0:
142,281,8535,1,0,1:0:0:0:
237,208,8901,2,0,L|316:176,1,60,2|2,1:2|0:0,0:0:0:0:
349,204,9266,6,0,B|364:231|383:248|383:248|370:277|368:325,1,120,2|2,1:2|1:2,0:0:0:0:
330,357,9815,1,2,0:0:0:0:
330,357,9998,1,2,1:2:0:0:
231,304,10364,1,2,1:2:0:0:
231,304,10547,2,0,L|109:340,1,120,2|2,0:0|0:0,0:0:0:0:
57,329,11096,1,0,1:0:0:0:
117,225,11462,1,2,1:2:0:0:
24,149,11827,2,0,L|13:83,1,60,2|2,1:2|0:0,0:0:0:0:
43,37,12193,6,0,P|92:82|142:54,1,120,2|0,1:2|1:0,0:0:0:0:
246,20,12925,2,0,P|259:75|315:86,1,120,0|8,1:0|0:0,0:0:0:0:
417,23,13657,5,2,1:2:0:0:
506,102,14022,1,8,0:0:0:0:
403,163,14388,2,0,L|387:234,1,60,8|8,0:0|0:0,0:0:0:0:
335,247,14754,2,0,L|347:305,1,60,8|8,0:0|0:0,0:0:0:0:
392,346,15120,5,2,1:2:0:0:
177,135,16035,6,0,L|168:202,1,60,10|10,0:0|0:0,0:0:0:0:
141,248,16401,1,10,0:0:0:0:
485,136,17498,5,2,1:2:0:0:
485,136,17681,2,0,L|425:125,1,60,10|2,0:0|0:0,0:0:0:0:
383,81,18047,6,0,L|266:105,1,120,6|8,1:2|0:0,0:0:0:0:
207,121,18596,2,0,B|221:139|241:151|241:151|230:179|228:228,1,120,2|2,1:2|1:2,0:0:0:0:
197,275,19144,1,8,0:0:0:0:
109,193,19510,2,0,L|44:208,1,60,2|2,1:2|1:2,0:0:0:0:
8,249,19876,1,10,0:0:0:0:
8,249,20059,2,0,B|14:222|27:207|27:207|28:174|3:128,1,120,2|2,1:2|1:2,0:0:0:0:
28,80,20608,1,10,0:0:0:0:
146,103,20974,6,0,L|288:68,1,120,2|10,1:2|0:0,0:0:0:0:
322,75,21522,2,0,B|314:101|304:117|304:117|322:144|336:189,1,120,2|2,1:2|1:2,0:0:0:0:
351,243,22071,1,8,0:0:0:0:
274,335,22437,2,0,P|242:313|212:309,1,60,2|2,1:2|1:2,0:0:0:0:
165,314,22803,1,10,0:0:0:0:
165,314,22986,2,0,P|107:353|54:360,1,120,2|0,1:2|1:0,0:0:0:0:
16,316,23535,2,0,P|-1:279|-1:255,1,60,8|8,0:0|0:0,0:0:0:0:
27,207,23901,5,2,1:2:0:0:
123,136,24266,2,0,P|130:108|116:76,1,60,10|2,0:0|0:0,0:0:0:0:
89,27,24632,1,2,1:2:0:0:
210,6,24998,1,10,0:0:0:0:
210,6,25181,2,0,L|232:126,1,120,2|2,0:0|1:2,0:0:0:0:
280,168,25730,1,10,0:0:0:0:
280,168,25913,2,0,L|266:297,1,120,2|2,0:0|1:2,0:0:0:0:
299,338,26462,1,10,0:0:0:0:
369,241,26827,6,0,B|384:263|400:281|400:281|393:306|392:362,2,120,6|10|2,1:2|0:0|1:2,0:0:0:0:
270,170,27925,2,0,P|230:172|208:155,1,60,8|2,0:0|0:0,0:0:0:0:
183,110,28291,1,0,1:2:0:0:
62,112,28657,2,0,L|44:233,1,120,8|0,0:0|1:0,0:0:0:0:
98,338,29388,1,8,0:0:0:0:
196,268,29754,5,0,1:2:0:0:
290,342,30120,1,10,0:0:0:0:
391,278,30486,2,0,L|411:131,1,120,2|10,1:2|0:0,0:0:0:0:
426,103,31035,2,0,P|386:122|308:100,1,120,2|2,0:0|1:2,0:0:0:0:
281,55,31583,1,10,0:0:0:0:
165,89,31949,1,0,1:0:0:0:
165,89,32132,2,0,P|126:69|95:67,1,60,2|10,1:2|0:0,0:0:0:0:
47,169,32681,6,0,P|98:162|139:219,1,120,6|10,1:2|0:0,0:0:0:0:
143,275,33230,1,2,0:0:0:0:
143,275,33413,2,0,P|180:305|208:313,1,60,0|2,1:2|1:2,0:0:0:0:
247,286,33779,1,10,0:0:0:0:
345,353,34144,2,0,P|354:308|366:282,1,60,2|2,1:2|1:2,0:0:0:0:
406,257,34510,1,10,0:0:0:0:
406,257,34693,2,0,P|352:245|325:180,1,120,6|2,1:2|1:2,0:0:0:0:
353,137,35242,2,0,P|352:96|337:74,1,60,10|8,0:0|0:0,0:0:0:0:
298,39,35608,5,6,1:2:0:0:
178,45,35974,1,10,0:0:0:0:
200,163,36340,2,0,L|262:141,1,60,2|0,1:2|1:0,0:0:0:0:
317,154,36705,1,10,0:0:0:0:
317,154,36888,2,0,L|336:275,1,120,2|2,0:0|1:2,0:0:0:0:
308,326,37437,1,10,0:0:0:0:
308,326,37620,2,0,P|274:308|244:304,1,60,2|0,0:0|1:0,0:0:0:0:
144,355,38169,1,8,0:0:0:0:
42,291,38535,5,4,1:2:0:0:
64,173,38901,2,0,P|104:192|124:189,1,60,10|2,0:0|0:0,0:0:0:0:
171,162,39266,2,0,P|219:146|299:175,1,120,2|10,1:2|0:0,0:0:0:0:
388,221,39998,2,0,P|397:174|390:154,1,60,2|0,1:2|1:0,0:0:0:0:
364,110,40364,1,8,0:0:0:0:
483,122,40730,2,0,P|494:171|491:196,1,60,0|0,1:0|1:0,0:0:0:0:
469,235,41096,2,0,P|458:284|461:309,1,60,8|8,0:0|0:0,0:0:0:0:
427,345,41462,6,0,P|465:321|488:322,2,60,6|0|8,1:2|1:0|0:0,0:0:0:0:
306,345,42193,2,0,L|285:220,1,120,0|8,1:0|0:0,0:0:0:0:
303,171,42742,1,2,0:0:0:0:
303,171,42925,2,0,B|336:167|354:141|354:141|372:168|414:168,1,120,0|8,1:2|0:0,0:0:0:0:
452,204,43474,2,0,L|433:338,1,120,2|0,0:0|1:0,0:0:0:0:
384,354,44022,1,8,0:0:0:0:
294,274,44388,5,6,1:2:0:0:
174,281,44754,2,0,P|137:232|144:165,1,120,10|2,0:0|1:2,0:0:0:0:
172,127,45303,1,2,1:2:0:0:
172,127,45486,1,10,0:0:0:0:
278,184,45852,2,0,P|298:146|296:117,1,60,2|2,1:2|1:2,0:0:0:0:
301,73,46218,1,10,0:0:0:0:
301,73,46401,2,0,P|345:97|417:75,1,120,6|2,1:2|1:2,0:0:0:0:
459,46,46949,2,0,P|486:88|491:113,1,60,10|10,0:0|0:0,0:0:0:0:
481,157,47315,5,4,1:2:0:0:
409,253,47681,2,0,P|369:232|342:227,1,60,10|2,0:0|0:0,0:0:0:0:
296,244,48047,1,2,1:2:0:0:
185,211,48413,1,10,0:0:0:0:
185,211,48596,2,0,L|164:86,1,120,6|2,1:2|1:2,0:0:0:0:
195,41,49144,2,0,P|230:57|262:54,1,60,10|2,0:0|0:0,0:0:0:0:
298,19,49510,2,0,P|333:3|365:6,2,60,0|2|10,1:0|1:2|0:0,0:0:0:0:
400,81,50242,5,2,1:2:0:0:
328,177,50608,2,0,L|343:244,1,60,10|2,0:0|0:0,0:0:0:0:
317,291,50974,2,0,P|263:261|197:285,1,120,2|8,1:2|0:0,0:0:0:0:
159,308,51522,2,0,P|116:287|109:203,1,120,6|0,1:2|1:0,0:0:0:0:
138,173,52071,2,0,P|141:136|120:107,1,60,10|2,0:0|0:0,0:0:0:0:
77,87,52437,1,2,1:2:0:0:
169,10,52803,1,10,0:0:0:0:
237,108,53169,5,2,1:2:0:0:
356,106,53535,2,0,L|373:173,1,60,10|2,0:0|0:0,0:0:0:0:
340,216,53901,2,0,L|224:249,1,120,2|8,1:2|0:0,0:0:0:0:
177,285,54449,1,6,1:2:0:0:
86,363,54815,2,0,P|65:331|71:291,1,60,2|10,1:2|0:0,0:0:0:0:
78,251,55181,2,0,L|56:114,1,120,2|2,0:0|1:2,0:0:0:0:
94,83,55730,1,10,0:0:0:0:
208,48,56096,6,0,P|265:39|309:106,1,120,6|8,1:2|0:0,0:0:0:0:
321,138,56644,1,2,0:0:0:0:
377,248,57010,1,2,1:2:0:0:
377,248,57193,2,0,P|341:234|313:238,1,60,10|2,0:0|0:0,0:0:0:0:
278,279,57559,2,0,P|235:296|202:288,1,60,2|2,1:2|1:2,0:0:0:0:
170,276,57925,1,10,0:0:0:0:
170,276,58108,1,6,1:2:0:0:
174,157,58474,1,2,1:2:0:0:
174,157,58657,2,0,P|202:139|239:141,1,60,10|2,0:0|0:0,0:0:0:0:
280,108,59022,6,0,L|292:38,2,60,10|0|0,0:0|1:0|1:0,0:0:0:0:
327,145,59571,2,0,L|337:204,2,60,10|0|0,0:0|1:0|1:0,0:0:0:0:
369,101,60120,1,10,0:0:0:0:
483,137,60486,5,12,0:0:0:0:
374,280,61035,1,12,0:0:0:0:
260,116,61949,6,0,P|220:82|144:101,1,120,6|8,1:2|0:0,0:0:0:0:
111,130,62498,1,2,0:0:0:0:
111,130,62681,2,0,P|67:134|44:125,1,60,2|2,1:2|1:2,0:0:0:0:
6,90,63047,1,10,0:0:0:0:
6,90,63230,2,0,L|8:216,1,120,2|2,1:2|1:2,0:0:0:0:
37,262,63779,1,8,0:0:0:0:
129,337,64144,1,0,1:0:0:0:
216,255,64510,2,0,P|255:243|279:248,1,60,10|2,0:0|0:0,0:0:0:0:
322,281,64876,6,0,P|363:304|431:271,1,120,2|10,1:2|0:0,0:0:0:0:
444,220,65425,1,2,0:0:0:0:
444,220,65608,2,0,L|447:94,1,120,2|10,1:2|0:0,0:0:0:0:
412,50,66157,2,0,B|378:46|357:24|357:24|338:48|305:60,1,120,2|0,1:2|1:0,0:0:0:0:
269,100,66705,1,8,0:0:0:0:
178,20,67071,1,0,1:0:0:0:
61,48,67437,2,0,P|44:79|51:118,1,60,10|2,0:0|0:0,0:0:0:0:
70,157,67803,6,0,L|56:289,1,120,2|10,1:2|0:0,0:0:0:0:
42,337,68352,1,2,0:0:0:0:
42,337,68535,2,0,B|90:302|90:302|147:325,1,120,2|10,1:2|0:0,0:0:0:0:
191,363,69083,2,0,L|326:329,1,120,2|2,1:2|1:2,0:0:0:0:
366,343,69632,1,8,0:0:0:0:
404,229,69998,1,2,1:2:0:0:
301,165,70364,2,0,L|310:105,1,60,10|2,0:0|0:0,0:0:0:0:
335,50,70730,6,0,P|285:5|225:31,1,120,2|8,1:2|0:0,0:0:0:0:
151,99,71462,2,0,L|18:71,1,120,0|8,1:0|0:0,0:0:0:0:
7,191,72193,2,0,P|55:174|82:182,1,60,2|0,1:2|1:0,0:0:0:0:
116,203,72559,1,8,0:0:0:0:
203,285,72925,2,0,P|251:302|278:294,1,60,0|0,1:0|1:0,0:0:0:0:
303,260,73291,2,0,P|354:243|381:251,1,60,8|8,0:0|0:0,0:0:0:0:
412,271,73657,5,2,1:2:0:0:
494,184,74022,2,0,L|479:116,1,60,10|0,0:0|0:0,0:0:0:0:
440,89,74388,2,0,L|452:30,2,60,2|2|10,1:2|1:2|0:0,0:0:0:0:
399,133,74937,1,2,1:2:0:0:
332,40,75303,1,2,1:2:0:0:
332,40,75486,2,0,P|303:49|272:68,1,60,10|2,0:0|0:0,0:0:0:0:
230,100,75852,1,2,1:2:0:0:
230,100,76035,2,0,L|219:41,2,60,2|10|10,1:2|0:0|0:0,0:0:0:0:
211,157,76583,5,6,1:2:0:0:
289,257,76949,1,10,0:0:0:0:
289,257,77132,2,0,B|353:277|353:277|409:236,1,120,2|2,1:2|1:2,0:0:0:0:
416,189,77681,2,0,P|417:143|431:119,1,60,8|2,0:0|0:0,0:0:0:0:
472,96,78047,2,0,P|471:50|457:26,1,60,2|2,1:2|1:2,0:0:0:0:
422,4,78413,1,10,0:0:0:0:
422,4,78596,2,0,L|294:30,1,120,2|2,1:2|1:2,0:0:0:0:
258,66,79144,1,10,0:0:0:0:
230,182,79510,5,2,1:2:0:0:
138,259,79876,2,0,P|116:217|113:190,1,60,10|0,0:0|1:0,0:0:0:0:
65,168,80242,2,0,L|-5:189,2,60,2|2|10,0:0|1:2|0:0,0:0:0:0:
102,120,80791,1,2,0:0:0:0:
207,187,81157,1,2,1:2:0:0:
207,187,81340,2,0,L|274:172,1,60,10|2,0:0|1:2,0:0:0:0:
315,139,81705,1,2,0:0:0:0:
315,139,81888,2,0,L|439:162,1,120,2|10,1:2|0:0,0:0:0:0:
477,202,82437,5,6,1:2:0:0:
440,319,82803,1,10,0:0:0:0:
440,319,82986,2,0,P|398:287|316:290,1,120,2|2,1:2|1:2,0:0:0:0:
281,316,83535,2,0,P|243:333|205:325,1,60,8|2,0:0|0:0,0:0:0:0:
179,292,83901,1,2,1:2:0:0:
236,189,84266,1,10,0:0:0:0:
236,189,84449,2,0,P|184:164|120:189,1,120,2|2,1:2|1:2,0:0:0:0:
95,233,84998,2,0,P|58:252|32:242,1,60,10|8,0:0|0:0,0:0:0:0:
6,199,85364,5,2,1:2:0:0:
30,84,85730,1,10,0:0:0:0:
30,84,85913,2,0,B|61:75|79:52|79:52|104:74|142:78,1,120,2|2,1:2|1:2,0:0:0:0:
187,102,86462,1,8,0:0:0:0:
292,44,86827,2,0,L|376:58,1,60,2|2,1:2|1:2,0:0:0:0:
408,85,87193,1,10,0:0:0:0:
408,85,87376,2,0,B|394:106|379:121|379:121|394:154|395:205,1,120,2|0,1:2|1:2,0:0:0:0:
424,245,87925,2,0,L|410:310,1,60,8|8,0:0|0:0,0:0:0:0:
370,347,88291,5,6,1:2:0:0:
