osu file format v14

[General]
AudioFilename: audio.mp3
AudioLeadIn: 0
PreviewTime: 61448
Countdown: 0
SampleSet: Soft
StackLeniency: 0.7
Mode: 0
LetterboxInBreaks: 0
WidescreenStoryboard: 0

[Editor]
DistanceSpacing: 1.4
BeatDivisor: 4
GridSize: 4
TimelineZoom: 1.2

[Metadata]
Title:Lovers (TV Size)
TitleUnicode:ラヴァーズ (TV Size)
Artist:7!!
ArtistUnicode:7!!
Creator:Hantrik
Version:Hard
Source:NARUTO-ナルト-疾風伝
Tags:shippuden opening op 9 anime female vocalist japanese rock jrock j-rock seven oops アニップス Anipus
BeatmapID:2492888
BeatmapSetID:1196675

[Difficulty]
HPDrainRate:4
CircleSize:3.5
OverallDifficulty:6
ApproachRate:7.5
SliderMultiplier:1.2
SliderTickRate:1

[Events]
//Background and Video events
0,0,"BG.jpg",0,0
//Break Periods
//Storyboard Layer 0 (Background)
//Storyboard Layer 1 (Fail)
//Storyboard Layer 2 (Pass)
//Storyboard Layer 3 (Foreground)
//Storyboard Layer 4 (Overlay)
//Storyboard Sound Samples

[TimingPoints]
-977,365.853658536585,4,2,1,35,1,0
486,-100,4,2,1,35,0,0
1949,-100,4,2,1,55,0,0
3413,-90.9090909090909,4,2,1,40,0,0
13657,-83.3333333333333,4,2,1,50,0,0
18047,-90.9090909090909,4,2,1,45,0,0
23901,-111.111111111111,4,2,1,40,0,0
32681,-100,4,2,1,45,0,0
35608,-111.111111111111,4,2,1,40,0,0
44388,-100,4,2,1,45,0,0
47315,-111.111111111111,4,2,1,40,0,0
59022,-100,4,2,1,45,0,0
60486,-100,4,2,1,55,0,0
61949,-83.3333333333333,4,2,1,70,0,1
88291,-100,4,2,1,75,0,0

[Colours]
Combo1 : 247,222,172
Combo2 : 197,105,241
Combo3 : 199,183,240
Combo4 : 236,164,83
SliderBorder : 222,247,255

[HitObjects]
48,133,486,6,0,L|59:194,2,60,8|0|0,0:0|1:0|1:0,0:0:0:0:
121,80,1035,2,0,L|131:20,2,60,8|0|0,0:0|1:0|1:0,0:0:0:0:
166,157,1583,2,0,L|242:138,1,60,8|0,0:0|1:0,0:0:0:0:
302,188,1949,5,14,0:0:0:0:
399,59,2498,5,14,0:0:0:0:
446,274,3413,6,0,B|401:263|401:263|373:229|373:229|319:215,1,132.00000402832,6|0,1:2|1:0,0:0:0:0:
257,260,3962,1,2,0:0:0:0:
178,226,4144,2,0,L|167:154,1,66.0000020141602,2|2,1:2|0:0,0:0:0:0:
92,118,4510,1,2,1:2:0:0:
18,162,4693,6,0,L|12:235,1,66.0000020141602,2|2,0:0|1:2,0:0:0:0:
72,290,5059,1,2,0:0:0:0:
145,245,5242,2,0,P|198:249|243:324,1,132.00000402832,0|0,1:0|1:0,0:0:0:0:
353,177,5974,1,2,1:2:0:0:
353,177,6157,1,2,0:0:0:0:
306,104,6340,6,0,L|237:91,1,66.0000020141602,2|0,1:2|0:0,0:0:0:0:
168,135,6705,1,2,1:2:0:0:
168,135,6888,1,2,0:0:0:0:
198,215,7071,2,0,L|269:203,1,66.0000020141602,2|2,1:2|0:0,0:0:0:0:
335,260,7437,1,2,1:2:0:0:
335,260,7620,1,2,0:0:0:0:
412,297,7803,6,0,B|430:259|418:232|411:232|388:210|410:163,1,132.00000402832,0|0,1:2|1:0,0:0:0:0:
471,113,8352,1,0,0:0:0:0:
425,42,8535,2,0,L|359:34,1,66.0000020141602,0|0,1:0|0:0,0:0:0:0:
296,92,8901,2,0,L|264:100,2,33.0000010070801,2|2|2,1:2|0:0|0:0,0:0:0:0:
209,43,9266,6,0,P|167:57|172:136,1,132.00000402832,2|2,1:2|1:2,0:0:0:0:
238,185,9815,1,2,0:0:0:0:
191,256,9998,2,0,L|175:324,1,66.0000020141602,2|0,1:2|0:0,0:0:0:0:
101,363,10364,1,2,1:2:0:0:
31,312,10547,6,0,L|15:247,1,66.0000020141602,2|0,0:0|1:2,0:0:0:0:
69,180,10913,2,0,P|106:195|141:174,1,66.0000020141602,2|0,0:0|1:0,0:0:0:0:
188,124,11279,1,2,0:0:0:0:
188,124,11462,2,0,L|260:106,1,66.0000020141602,2|2,1:2|0:0,0:0:0:0:
314,167,11827,2,0,L|378:183,1,66.0000020141602,2|2,1:2|0:0,0:0:0:0:
460,156,12193,6,0,L|479:293,1,132.00000402832,2|0,1:2|1:0,0:0:0:0:
316,346,12925,2,0,L|334:215,1,132.00000402832,0|8,1:0|0:0,0:0:0:0:
220,65,13657,6,0,L|289:48,2,71.9999978027344,2|8|8,1:2|0:0|0:0,0:0:0:0:
147,123,14205,1,8,0:0:0:0:
147,123,14388,2,0,L|78:106,2,71.9999978027344,8|8|8,0:0|0:0|0:0,0:0:0:0:
202,198,14937,1,8,0:0:0:0:
283,152,15120,5,2,1:2:0:0:
428,331,16035,6,0,L|441:256,1,71.9999978027344,10|10,0:0|0:0,0:0:0:0:
412,162,16401,1,10,0:0:0:0:
46,52,17498,5,2,1:2:0:0:
121,118,17681,2,0,L|108:199,1,71.9999978027344,10|2,0:0|0:0,0:0:0:0:
50,261,18047,6,0,P|112:220|168:262,1,132.00000402832,6|8,1:2|0:0,0:0:0:0:
198,326,18596,2,0,L|330:299,1,132.00000402832,2|2,1:2|1:2,0:0:0:0:
413,346,19144,1,8,0:0:0:0:
413,346,19327,1,2,0:0:0:0:
476,279,19510,6,0,L|483:204,1,66.0000020141602,2|2,1:2|1:2,0:0:0:0:
427,137,19876,1,10,0:0:0:0:
352,191,20059,2,0,P|315:198|257:128,1,132.00000402832,2|2,1:2|1:2,0:0:0:0:
288,47,20608,1,10,0:0:0:0:
288,47,20791,1,10,0:0:0:0:
203,8,20974,6,0,L|129:34,1,66.0000020141602,2|2,1:2|0:0,0:0:0:0:
93,110,21340,1,10,0:0:0:0:
12,65,21522,2,0,B|4:115|4:115|18:146|18:146|11:207,1,132.00000402832,2|2,1:2|1:2,0:0:0:0:
91,251,22071,1,8,0:0:0:0:
91,251,22254,1,2,0:0:0:0:
172,207,22437,6,0,L|244:194,1,66.0000020141602,2|2,1:2|1:2,0:0:0:0:
297,265,22803,1,10,0:0:0:0:
241,338,22986,2,0,P|176:360|123:313,1,132.00000402832,2|0,1:2|1:0,0:0:0:0:
64,258,23535,2,0,L|67:211,3,33.0000010070801,8|8|8|8,0:0|0:0|0:0|0:0,0:0:0:0:
36,200,23901,6,0,L|24:131,1,53.9999983520508,2|2,1:2|1:2,0:0:0:0:
64,81,24266,2,0,P|88:66|116:66,1,53.9999983520508,10|2,0:0|0:0,0:0:0:0:
166,119,24632,2,0,P|211:147|265:145,1,107.999996704102,2|10,1:2|0:0,0:0:0:0:
344,150,25181,1,2,0:0:0:0:
344,150,25364,6,0,L|360:268,1,107.999996704102,0|10,1:0|0:0,0:0:0:0:
289,300,25913,2,0,L|230:284,1,53.9999983520508,2|0,0:0|1:0,0:0:0:0:
159,280,26279,1,2,1:2:0:0:
159,280,26462,2,0,L|145:333,1,53.9999983520508,10|2,0:0|0:0,0:0:0:0:
64,341,26827,6,0,L|47:276,1,53.9999983520508,6|0,1:2|1:0,0:0:0:0:
3,222,27193,2,0,L|20:162,1,53.9999983520508,10|0,0:0|0:0,0:0:0:0:
77,114,27559,2,0,B|117:114|117:114|141:136|141:136|182:135,1,107.999996704102,2|8,1:2|0:0,0:0:0:0:
250,179,28108,1,2,0:0:0:0:
250,179,28291,6,0,L|311:167,1,53.9999983520508,0|0,1:2|1:0,0:0:0:0:
350,102,28657,2,0,L|411:114,1,53.9999983520508,8|0,0:0|0:0,0:0:0:0:
469,158,29022,2,0,P|472:210|437:250,1,107.999996704102,0|8,1:0|0:0,0:0:0:0:
356,243,29571,1,0,0:0:0:0:
314,313,29754,5,0,1:2:0:0:
314,313,29937,1,0,1:0:0:0:
236,288,30120,2,0,P|226:252|241:223,1,53.9999983520508,10|0,0:0|0:0,0:0:0:0:
279,171,30486,2,0,P|273:135|257:116,1,53.9999983520508,2|0,1:2|1:0,0:0:0:0:
206,70,30852,5,10,0:0:0:0:
206,70,31035,2,0,L|145:54,1,53.9999983520508,2|0,0:0|1:0,0:0:0:0:
84,25,31401,1,2,1:2:0:0:
84,25,31583,2,0,P|29:41|17:107,1,107.999996704102,10|0,0:0|1:0,0:0:0:0:
52,155,32132,1,2,1:2:0:0:
19,229,32315,2,0,L|35:288,1,53.9999983520508,10|2,0:0|0:0,0:0:0:0:
105,335,32681,6,0,B|148:335|161:302|150:298|166:268|213:266,1,120,6|10,1:2|0:0,0:0:0:0:
282,303,33230,1,2,0:0:0:0:
354,249,33413,2,0,L|368:182,1,60,0|2,1:2|1:2,0:0:0:0:
324,116,33779,1,10,0:0:0:0:
479,195,34144,6,0,L|492:267,2,60,2|2|10,1:2|1:2|0:0,0:0:0:0:
511,110,34693,1,6,1:2:0:0:
348,31,35059,1,2,1:2:0:0:
280,90,35242,2,0,L|272:52,3,30,10|8|8|8,0:0|0:0|0:0|0:0,0:0:0:0:
240,37,35608,6,0,P|209:19|179:19,1,53.9999983520508,6|0,1:2|0:0,0:0:0:0:
142,82,35974,2,0,P|111:100|81:100,1,53.9999983520508,10|2,0:0|0:0,0:0:0:0:
15,79,36340,2,0,L|6:210,1,107.999996704102,2|10,1:2|0:0,0:0:0:0:
64,251,36888,1,2,0:0:0:0:
64,251,37071,6,0,P|97:230|177:252,1,107.999996704102,0|10,1:2|0:0,0:0:0:0:
219,297,37620,2,0,L|275:286,1,53.9999983520508,2|0,0:0|1:0,0:0:0:0:
343,244,37986,1,0,1:0:0:0:
343,244,38169,2,0,L|395:254,1,53.9999983520508,8|0,0:0|0:0,0:0:0:0:
480,243,38535,5,4,1:2:0:0:
480,243,38718,1,0,1:0:0:0:
434,175,38901,2,0,P|417:135|421:110,1,53.9999983520508,10|2,0:0|0:0,0:0:0:0:
458,55,39266,2,0,P|422:81|352:65,1,107.999996704102,2|10,1:2|0:0,0:0:0:0:
314,6,39815,1,0,0:0:0:0:
249,54,39998,6,0,L|256:107,1,53.9999983520508,2|0,1:2|1:0,0:0:0:0:
316,162,40364,2,0,L|309:215,1,53.9999983520508,8|2,0:0|0:0,0:0:0:0:
259,280,40730,2,0,P|225:265|204:265,1,53.9999983520508,0|0,1:0|1:0,0:0:0:0:
132,294,41096,2,0,L|140:328,3,26.9999991760254,8|8|8|8,0:0|0:0|0:0|0:0,0:0:0:0:
116,354,41462,6,0,P|85:372|55:372,1,53.9999983520508,6|0,1:2|1:0,0:0:0:0:
18,308,41827,2,0,L|12:247,1,53.9999983520508,8|0,0:0|0:0,0:0:0:0:
73,200,42193,1,0,1:0:0:0:
73,200,42376,2,0,L|79:81,1,107.999996704102,0|2,1:0|0:0,0:0:0:0:
141,40,42925,6,0,L|204:32,1,53.9999983520508,0|0,1:2|1:0,0:0:0:0:
253,97,43291,1,8,0:0:0:0:
253,97,43474,2,0,L|306:103,1,53.9999983520508,2|0,0:0|1:0,0:0:0:0:
377,60,43840,1,0,1:0:0:0:
377,60,44022,2,0,P|391:96|391:126,1,53.9999983520508,8|2,0:0|0:0,0:0:0:0:
353,193,44388,6,0,B|343:215|337:240|337:240|356:259|370:308,1,120,6|10,1:2|0:0,0:0:0:0:
461,304,44937,1,0,0:0:0:0:
497,221,45120,2,0,L|487:140,1,60,2|2,1:2|1:2,0:0:0:0:
435,88,45486,1,10,0:0:0:0:
256,111,45852,6,0,L|241:46,2,60,2|2|10,1:2|1:2|0:0,0:0:0:0:
327,166,46401,1,6,1:2:0:0:
265,334,46766,1,2,1:2:0:0:
208,264,46949,1,10,0:0:0:0:
151,334,47132,5,10,0:0:0:0:
151,334,47224,1,10,0:0:0:0:
151,334,47315,2,0,L|88:314,1,53.9999983520508,4|0,1:2|0:0,0:0:0:0:
25,351,47681,2,0,P|17:306|25:278,1,53.9999983520508,10|2,0:0|0:0,0:0:0:0:
69,234,48047,2,0,P|59:182|34:128,1,107.999996704102,2|10,1:2|0:0,0:0:0:0:
76,61,48596,6,0,P|113:79|195:84,1,107.999996704102,6|2,1:2|1:2,0:0:0:0:
248,45,49144,1,10,0:0:0:0:
248,45,49327,2,0,P|284:35|315:33,1,53.9999983520508,2|0,0:0|1:0,0:0:0:0:
380,66,49693,1,2,1:2:0:0:
380,66,49876,2,0,P|371:103|370:126,1,53.9999983520508,10|0,0:0|0:0,0:0:0:0:
312,176,50242,6,0,P|271:164|248:167,1,53.9999983520508,2|0,1:2|1:0,0:0:0:0:
187,201,50608,1,10,0:0:0:0:
187,201,50791,1,2,0:0:0:0:
148,272,50974,2,0,L|165:330,1,53.9999983520508,2|2,1:2|1:2,0:0:0:0:
235,361,51340,1,8,0:0:0:0:
294,306,51522,6,0,B|314:304|333:299|333:299|343:284|356:274|356:274|377:273|400:266,1,107.999996704102,6|0,1:2|1:0,0:0:0:0:
461,307,52071,1,10,0:0:0:0:
461,307,52254,1,2,0:0:0:0:
503,237,52437,2,0,L|510:181,1,53.9999983520508,2|0,1:2|1:0,0:0:0:0:
428,187,52803,2,0,L|421:131,1,53.9999983520508,10|2,0:0|0:0,0:0:0:0:
474,71,53169,5,2,1:2:0:0:
474,71,53352,1,0,1:0:0:0:
406,26,53535,2,0,L|348:40,1,53.9999983520508,10|2,0:0|0:0,0:0:0:0:
293,93,53901,2,0,L|240:80,1,53.9999983520508,2|2,1:2|1:2,0:0:0:0:
176,31,54266,1,8,0:0:0:0:
113,81,54449,6,0,L|134:205,1,107.999996704102,6|2,1:2|1:2,0:0:0:0:
80,251,54998,1,10,0:0:0:0:
6,216,55181,2,0,L|13:153,1,53.9999983520508,2|2,0:0|1:2,0:0:0:0:
59,96,55547,1,2,1:2:0:0:
59,96,55730,2,0,P|99:119|117:119,1,53.9999983520508,10|2,0:0|0:0,0:0:0:0:
180,86,56096,6,0,P|221:75|282:106,1,107.999996704102,6|8,1:2|0:0,0:0:0:0:
313,174,56644,1,2,0:0:0:0:
313,174,56827,2,0,L|299:234,1,53.9999983520508,0|2,1:0|1:2,0:0:0:0:
224,255,57193,2,0,L|236:307,1,53.9999983520508,10|2,0:0|0:0,0:0:0:0:
309,342,57559,6,0,L|372:327,1,53.9999983520508,2|2,1:2|1:2,0:0:0:0:
436,360,57925,1,10,0:0:0:0:
481,293,58108,2,0,L|503:181,1,107.999996704102,6|2,1:2|1:2,0:0:0:0:
460,116,58657,2,0,L|404:103,1,53.9999983520508,10|2,0:0|0:0,0:0:0:0:
324,138,59022,6,0,L|312:67,2,60,10|0|0,0:0|1:0|1:0,0:0:0:0:
375,212,59571,2,0,L|364:271,2,60,10|0|0,0:0|1:0|1:0,0:0:0:0:
284,218,60120,2,0,L|223:192,1,60,10|0,0:0|1:0,0:0:0:0:
140,216,60486,5,12,0:0:0:0:
207,44,61035,5,12,0:0:0:0:
29,87,61949,6,0,B|5:137|25:157|33:157|47:198|29:243,1,143.999995605469,6|8,1:2|0:0,0:0:0:0:
75,318,62498,1,2,0:0:0:0:
159,263,62681,2,0,L|237:282,1,71.9999978027344,2|2,1:2|1:2,0:0:0:0:
300,352,63047,1,10,0:0:0:0:
391,309,63230,6,0,P|404:277|394:241,1,71.9999978027344,2|0,1:2|0:0,0:0:0:0:
323,170,63596,1,2,1:2:0:0:
240,227,63779,2,0,L|98:202,1,143.999995605469,8|0,0:0|1:0,0:0:0:0:
15,260,64327,1,0,1:0:0:0:
55,352,64510,1,10,0:0:0:0:
163,359,64693,5,2,0:0:0:0:
163,359,64785,1,2,0:0:0:0:
163,359,64876,2,0,P|170:316|157:286,1,71.9999978027344,2|0,1:2|1:0,0:0:0:0:
116,204,65242,1,10,0:0:0:0:
116,204,65425,1,2,0:0:0:0:
180,126,65608,2,0,L|256:100,1,71.9999978027344,2|2,1:2|1:2,0:0:0:0:
318,29,65974,1,10,0:0:0:0:
404,80,66157,6,0,B|385:107|367:121|367:121|386:154|395:216,1,143.999995605469,2|0,1:2|1:0,0:0:0:0:
390,305,66705,2,0,L|319:287,1,71.9999978027344,8|0,0:0|0:0,0:0:0:0:
264,202,67071,2,0,L|194:219,1,71.9999978027344,0|0,1:0|1:0,0:0:0:0:
146,311,67437,1,10,0:0:0:0:
146,311,67529,1,2,0:0:0:0:
146,311,67620,1,2,0:0:0:0:
56,264,67803,6,0,B|53:215|53:215|24:178|24:178|20:130,1,143.999995605469,2|10,1:2|0:0,0:0:0:0:
74,44,68352,1,2,0:0:0:0:
161,94,68535,2,0,L|234:67,1,71.9999978027344,2|0,1:2|1:0,0:0:0:0:
313,124,68901,1,10,0:0:0:0:
396,68,69083,6,0,P|425:109|411:205,1,143.999995605469,2|2,1:2|1:2,0:0:0:0:
340,266,69632,2,0,P|325:311|335:346,1,71.9999978027344,8|2,0:0|0:0,0:0:0:0:
425,366,69998,2,0,P|428:330|414:297,1,71.9999978027344,2|2,1:2|1:2,0:0:0:0:
401,201,70364,1,10,0:0:0:0:
401,201,70547,1,2,0:0:0:0:
321,139,70730,6,0,L|237:121,1,71.9999978027344,2|0,1:2|1:0,0:0:0:0:
232,223,71096,2,0,L|150:239,1,71.9999978027344,8|0,0:0|0:0,0:0:0:0:
95,313,71462,2,0,P|68:273|62:239,1,71.9999978027344,0|0,1:0|1:0,0:0:0:0:
102,159,71827,1,8,0:0:0:0:
102,159,72010,1,0,0:0:0:0:
20,99,72193,6,0,P|64:62|151:78,1,143.999995605469,2|8,1:2|0:0,0:0:0:0:
205,154,72742,1,0,0:0:0:0:
288,97,72925,2,0,L|367:85,1,71.9999978027344,0|0,1:0|1:0,0:0:0:0:
446,137,73291,1,8,0:0:0:0:
445,144,73382,1,8,0:0:0:0:
443,151,73474,1,8,0:0:0:0:
442,158,73565,1,8,0:0:0:0:
441,165,73657,6,0,L|459:248,1,71.9999978027344,2|0,1:2|0:0,0:0:0:0:
413,326,74022,2,0,P|370:284|282:295,1,143.999995605469,10|2,0:0|1:2,0:0:0:0:
230,371,74571,1,2,1:2:0:0:
230,371,74754,1,10,0:0:0:0:
133,340,74937,6,0,L|114:261,1,71.9999978027344,2|0,1:2|0:0,0:0:0:0:
201,213,75303,1,2,1:2:0:0:
201,213,75486,1,10,0:0:0:0:
292,267,75669,1,2,0:0:0:0:
292,267,75852,1,2,1:2:0:0:
364,196,76035,1,2,1:2:0:0:
317,106,76218,2,0,L|306:63,3,35.9999989013672,10|8|10|8,0:0|0:0|0:0|0:0,0:0:0:0:
271,37,76583,6,0,P|233:45|196:79,1,71.9999978027344,6|0,1:2|0:0,0:0:0:0:
173,160,76949,1,10,0:0:0:0:
79,121,77132,2,0,B|56:166|72:202|86:192|94:229|76:274,1,143.999995605469,2|2,1:2|1:2,0:0:0:0:
53,360,77681,1,8,0:0:0:0:
53,360,77864,1,2,0:0:0:0:
153,370,78047,6,0,P|163:325|158:287,1,71.9999978027344,2|2,1:2|1:2,0:0:0:0:
76,244,78413,1,10,0:0:0:0:
118,152,78596,2,0,L|272:123,1,143.999995605469,2|2,1:2|1:2,0:0:0:0:
355,169,79144,1,10,0:0:0:0:
355,169,79327,1,8,0:0:0:0:
316,262,79510,6,0,P|280:226|271:190,1,71.9999978027344,2|0,1:2|0:0,0:0:0:0:
187,261,79876,2,0,P|170:165|195:99,1,143.999995605469,10|2,0:0|0:0,0:0:0:0:
267,65,80425,1,2,1:2:0:0:
267,65,80608,1,10,0:0:0:0:
178,16,80791,6,0,L|96:34,1,71.9999978027344,2|0,0:0|1:2,0:0:0:0:
60,122,81157,1,2,1:2:0:0:
60,122,81340,1,10,0:0:0:0:
143,186,81522,1,2,1:2:0:0:
143,186,81705,1,2,0:0:0:0:
88,271,81888,1,2,1:2:0:0:
161,339,82071,2,0,L|199:331,3,35.9999989013672,10|8|10|8,0:0|0:0|0:0|0:0,0:0:0:0:
245,341,82437,6,0,P|275:317|292:271,1,71.9999978027344,6|0,1:2|0:0,0:0:0:0:
295,186,82803,1,10,0:0:0:0:
221,117,82986,2,0,P|153:133|90:196,1,143.999995605469,2|2,1:2|1:2,0:0:0:0:
90,285,83535,1,8,0:0:0:0:
90,285,83718,1,2,0:0:0:0:
174,342,83901,6,0,P|190:295|183:248,1,71.9999978027344,2|2,1:2|1:2,0:0:0:0:
157,177,84266,1,10,0:0:0:0:
194,83,84449,2,0,L|345:48,1,143.999995605469,2|2,1:2|1:2,0:0:0:0:
432,90,84998,1,10,0:0:0:0:
432,90,85181,1,8,0:0:0:0:
386,178,85364,6,0,L|401:252,1,71.9999978027344,2|0,1:2|0:0,0:0:0:0:
343,333,85730,1,10,0:0:0:0:
343,333,85913,2,0,P|295:347|230:265,1,143.999995605469,2|2,1:2|1:2,0:0:0:0:
234,188,86462,2,0,L|210:111,1,71.9999978027344,8|2,0:0|0:0,0:0:0:0:
139,49,86827,6,0,P|100:51|73:74,1,71.9999978027344,2|2,1:2|1:2,0:0:0:0:
36,167,87193,1,10,0:0:0:0:
36,167,87376,2,0,L|68:310,1,143.999995605469,2|0,1:2|1:2,0:0:0:0:
155,356,87925,1,8,0:0:0:0:
160,351,88016,1,8,0:0:0:0:
166,347,88108,1,8,0:0:0:0:
172,342,88199,1,8,0:0:0:0:
177,338,88291,1,6,1:2:0:0:
