osu file format v14

[General]
AudioFilename: audio.mp3
AudioLeadIn: 0
PreviewTime: 37004
Countdown: 0
SampleSet: Normal
StackLeniency: 0.7
Mode: 1
LetterboxInBreaks: 0
WidescreenStoryboard: 0

[Editor]
DistanceSpacing: 1
BeatDivisor: 8
GridSize: 32
TimelineZoom: 3.1

[Metadata]
Title:The Real Big Chungus
TitleUnicode:The Real Big Chungus
Artist:6pcmeal
ArtistUnicode:6pcmeal
Creator:maxie
Version:Wholesome Chungus Oni
Source:
Tags:english novelty mashup The Fat Wascally Wabbits chunguscore eminem the real slim shady liku the law the_law looney tunes bugs bunny meme hiphop hip hop hip-hop
BeatmapID:4162072
BeatmapSetID:2001564

[Difficulty]
HPDrainRate:7
CircleSize:5
OverallDifficulty:6
ApproachRate:5
SliderMultiplier:1.4
SliderTickRate:1

[Events]
//Background and Video events
0,0,"The Fat Wascally Wabbits - CHUNGUSCORE - Big_Mile.png",0,60
//Break Periods
//Storyboard Layer 0 (Background)
//Storyboard Layer 1 (Fail)
//Storyboard Layer 2 (Pass)
//Storyboard Layer 3 (Foreground)
//Storyboard Layer 4 (Overlay)
//Storyboard Sound Samples

[TimingPoints]
265,574.162679425837,4,1,0,60,1,0
265,-50,4,1,0,60,0,0
37011,-50,4,1,0,60,0,1
55384,-50,4,1,0,60,0,0
59977,-50,4,1,0,50,0,0
63422,-50,4,1,0,35,0,0

[HitObjects]
222,140,265,5,0,1:0:0:0:
222,140,552,1,8,1:0:0:0:
222,140,839,1,0,1:0:0:0:
217,144,1126,1,0,1:0:0:0:
207,146,1413,1,8,1:0:0:0:
231,146,2274,1,0,1:0:0:0:
231,146,2561,1,8,1:0:0:0:
231,146,3422,1,0,1:0:0:0:
231,146,3709,1,8,1:0:0:0:
448,64,3805,1,8,1:0:0:0:
301,96,3901,1,0,1:0:0:0:
64,64,3997,1,0,1:0:0:0:
360,212,4284,1,8,1:0:0:0:
380,258,4571,1,0,1:0:0:0:
380,258,4858,1,0,1:0:0:0:
368,251,5145,1,8,1:0:0:0:
368,251,5432,1,8,1:0:0:0:
366,252,5719,1,0,1:0:0:0:
368,251,6006,1,8,1:0:0:0:
368,251,6867,1,0,1:0:0:0:
361,254,7154,1,8,1:0:0:0:
361,254,8016,1,0,1:0:0:0:
361,254,8303,1,8,1:0:0:0:
448,64,8398,1,8,1:0:0:0:
363,291,8494,1,0,1:0:0:0:
64,64,8590,1,0,1:0:0:0:
393,285,8877,1,8,1:0:0:0:
393,285,9164,1,0,1:0:0:0:
393,285,9451,1,0,1:0:0:0:
378,284,9738,1,8,1:0:0:0:
378,284,10025,1,8,1:0:0:0:
378,284,10312,1,0,1:0:0:0:
378,284,10599,1,8,1:0:0:0:
378,284,11461,1,0,1:0:0:0:
378,284,11748,1,8,1:0:0:0:
378,284,12609,1,0,1:0:0:0:
378,284,12896,1,8,1:0:0:0:
448,64,12992,1,8,1:0:0:0:
292,258,13087,1,0,1:0:0:0:
64,64,13183,1,0,1:0:0:0:
468,365,13470,1,8,1:0:0:0:
468,365,13757,1,0,1:0:0:0:
468,365,14044,1,0,1:0:0:0:
468,365,14331,1,8,1:0:0:0:
468,365,14619,1,8,1:0:0:0:
468,365,14906,1,0,1:0:0:0:
468,365,15193,1,8,1:0:0:0:
436,338,16054,1,0,1:0:0:0:
436,338,16341,1,8,1:0:0:0:
436,338,17202,1,0,1:0:0:0:
398,315,17489,1,8,1:0:0:0:
448,64,17585,1,8,1:0:0:0:
394,318,17681,1,0,1:0:0:0:
64,64,17776,1,0,1:0:0:0:
187,212,18064,1,8,1:0:0:0:
448,64,18351,1,8,1:0:0:0:
448,64,18422,1,8,1:0:0:0:
448,64,18494,1,8,1:0:0:0:
64,64,18638,1,0,1:0:0:0:
448,64,18781,1,8,1:0:0:0:
145,195,18925,1,0,1:0:0:0:
89,153,19068,1,8,1:0:0:0:
84,149,19140,1,8,1:0:0:0:
89,153,19212,1,8,1:0:0:0:
80,170,19355,1,0,1:0:0:0:
85,169,19499,1,8,1:0:0:0:
72,163,19642,1,0,1:0:0:0:
74,168,19786,1,8,1:0:0:0:
59,152,20073,1,0,1:0:0:0:
53,158,20217,1,0,1:0:0:0:
54,158,20360,1,8,1:0:0:0:
64,64,20647,1,0,1:0:0:0:
47,145,20934,1,8,1:0:0:0:
39,132,21006,1,8,1:0:0:0:
37,134,21078,1,8,1:0:0:0:
28,144,21221,1,0,1:0:0:0:
28,144,21365,1,0,1:0:0:0:
28,144,21509,1,8,1:0:0:0:
145,151,21652,1,0,1:0:0:0:
165,132,21796,1,8,1:0:0:0:
64,64,22083,1,0,1:0:0:0:
64,64,22178,1,0,1:0:0:0:
448,64,22274,1,8,1:0:0:0:
448,64,22370,1,8,1:0:0:0:
127,174,22513,1,0,1:0:0:0:
75,153,22657,1,8,1:0:0:0:
64,64,22800,1,0,1:0:0:0:
75,153,22944,1,8,1:0:0:0:
109,257,23016,1,8,1:0:0:0:
448,64,23087,1,8,1:0:0:0:
64,64,23231,1,0,1:0:0:0:
307,270,23518,1,8,1:0:0:0:
171,290,23662,1,0,1:0:0:0:
307,270,23805,1,8,1:0:0:0:
165,292,23949,1,0,1:0:0:0:
307,270,24092,1,8,1:0:0:0:
160,290,24236,1,0,1:0:0:0:
290,263,24379,1,8,1:0:0:0:
251,200,24451,1,8,1:0:0:0:
137,292,24523,1,8,1:0:0:0:
384,317,24666,1,0,1:0:0:0:
210,96,24810,1,0,1:0:0:0:
145,244,24953,1,8,1:0:0:0:
448,64,25241,1,8,1:0:0:0:
448,64,25312,1,8,1:0:0:0:
448,64,25384,1,8,1:0:0:0:
64,64,25528,1,0,1:0:0:0:
448,64,25671,1,8,1:0:0:0:
116,174,25815,1,0,1:0:0:0:
107,169,26102,1,8,1:0:0:0:
52,152,26245,1,0,1:0:0:0:
52,152,26389,1,8,1:0:0:0:
92,143,26532,1,8,1:0:0:0:
92,143,26676,1,0,1:0:0:0:
100,78,26772,1,0,1:0:0:0:
86,84,26867,1,0,1:0:0:0:
85,88,26963,1,8,1:0:0:0:
135,140,27250,1,8,1:0:0:0:
139,150,27537,1,8,1:0:0:0:
137,151,27824,1,12,1:0:0:0:
152,278,28111,1,0,1:0:0:0:
152,278,28398,1,8,1:0:0:0:
64,64,28686,1,0,1:0:0:0:
99,249,28829,1,0,1:0:0:0:
152,278,28973,1,8,1:0:0:0:
65,235,29044,1,8,1:0:0:0:
64,64,29116,1,0,1:0:0:0:
448,64,29260,1,8,1:0:0:0:
67,239,29403,1,0,1:0:0:0:
59,161,29547,1,8,1:0:0:0:
60,165,29834,1,8,1:0:0:0:
59,161,29977,1,0,1:0:0:0:
42,177,30121,1,8,1:0:0:0:
448,64,30193,1,8,1:0:0:0:
64,64,30264,1,0,1:0:0:0:
448,64,30408,1,8,1:0:0:0:
138,196,30695,1,8,1:0:0:0:
113,187,30982,1,8,1:0:0:0:
113,187,31126,1,8,1:0:0:0:
160,187,31269,1,0,1:0:0:0:
162,189,31365,1,0,1:0:0:0:
448,64,31461,1,8,1:0:0:0:
161,190,31556,1,8,1:0:0:0:
118,190,31700,1,0,1:0:0:0:
118,192,31843,1,8,1:0:0:0:
118,190,32131,1,8,1:0:0:0:
123,200,32274,1,0,1:0:0:0:
125,202,32418,1,8,1:0:0:0:
109,215,32489,1,8,1:0:0:0:
105,210,32561,1,0,1:0:0:0:
135,227,32705,1,8,1:0:0:0:
141,69,32848,1,0,1:0:0:0:
125,216,32992,1,8,1:0:0:0:
64,64,33279,1,0,1:0:0:0:
133,207,33422,1,0,1:0:0:0:
134,207,33566,1,8,1:0:0:0:
64,64,33638,1,0,1:0:0:0:
173,193,33709,1,8,1:0:0:0:
180,165,33853,1,0,1:0:0:0:
448,64,33997,1,8,1:0:0:0:
191,190,34140,1,8,1:0:0:0:
231,168,34427,1,8,1:0:0:0:
227,164,34571,1,0,1:0:0:0:
225,165,34714,1,8,1:0:0:0:
188,184,35001,1,0,1:0:0:0:
188,184,35145,1,0,1:0:0:0:
188,184,35288,1,0,1:0:0:0:
188,184,35432,1,0,1:0:0:0:
188,184,35576,1,8,1:0:0:0:
448,64,35719,1,8,1:0:0:0:
64,64,35863,1,0,1:0:0:0:
144,220,35958,1,0,1:0:0:0:
140,222,36054,1,0,1:0:0:0:
140,222,36150,1,8,1:0:0:0:
367,290,36437,1,8,1:0:0:0:
367,290,36724,1,8,1:0:0:0:
367,290,37011,1,12,1:0:0:0:
218,217,37298,1,0,1:0:0:0:
218,217,37585,1,8,1:0:0:0:
131,200,37657,1,8,1:0:0:0:
131,200,37729,1,0,1:0:0:0:
159,253,37872,1,8,1:0:0:0:
157,114,38016,1,0,1:0:0:0:
140,111,38159,1,8,1:0:0:0:
212,203,38303,1,8,1:0:0:0:
129,121,38446,1,0,1:0:0:0:
135,117,38518,1,0,1:0:0:0:
135,117,38590,1,0,1:0:0:0:
124,123,38733,1,8,1:0:0:0:
106,218,39020,1,8,1:0:0:0:
363,123,39092,1,0,0:0:0:0:
448,64,39164,1,8,1:0:0:0:
64,64,39308,1,0,1:0:0:0:
206,164,39451,1,8,1:0:0:0:
99,206,39595,1,0,1:0:0:0:
102,206,39882,1,8,1:0:0:0:
102,206,39953,1,8,1:0:0:0:
104,210,40025,1,8,1:0:0:0:
100,222,40169,1,0,1:0:0:0:
95,220,40312,1,8,1:0:0:0:
95,219,40456,1,0,1:0:0:0:
448,64,40552,1,0,1:0:0:0:
307,290,40647,1,8,1:0:0:0:
64,64,40743,1,8,1:0:0:0:
307,290,41030,1,8,1:0:0:0:
448,64,41174,1,8,1:0:0:0:
64,64,41317,1,0,1:0:0:0:
448,64,41461,1,8,1:0:0:0:
64,64,41604,1,0,1:0:0:0:
64,64,41748,1,0,1:0:0:0:
448,64,41891,1,8,1:0:0:0:
55,211,42178,1,8,1:0:0:0:
102,192,42465,1,8,1:0:0:0:
102,192,42537,1,8,1:0:0:0:
102,192,42609,1,0,1:0:0:0:
102,192,42753,1,8,1:0:0:0:
285,190,43040,1,0,1:0:0:0:
285,190,43327,1,8,1:0:0:0:
184,227,43614,1,8,1:0:0:0:
285,190,43901,1,8,1:0:0:0:
285,190,44188,1,0,1:0:0:0:
285,190,44475,1,8,1:0:0:0:
178,225,44762,1,8,1:0:0:0:
64,64,45049,1,0,1:0:0:0:
170,227,45145,1,0,1:0:0:0:
164,224,45241,1,0,1:0:0:0:
162,218,45336,1,8,1:0:0:0:
159,229,45623,1,8,1:0:0:0:
158,228,45910,1,8,1:0:0:0:
367,290,46198,1,12,1:0:0:0:
218,217,46485,1,0,1:0:0:0:
218,217,46772,1,8,1:0:0:0:
131,200,46843,1,8,1:0:0:0:
131,200,46915,1,0,1:0:0:0:
159,253,47059,1,8,1:0:0:0:
157,114,47202,1,0,1:0:0:0:
140,111,47346,1,8,1:0:0:0:
244,179,47489,1,8,1:0:0:0:
129,121,47633,1,0,1:0:0:0:
135,117,47705,1,0,1:0:0:0:
135,117,47776,1,0,1:0:0:0:
124,123,47920,1,8,1:0:0:0:
106,218,48207,1,8,1:0:0:0:
448,64,48351,1,8,1:0:0:0:
64,64,48494,1,0,1:0:0:0:
222,134,48638,1,8,1:0:0:0:
99,206,48781,1,0,1:0:0:0:
102,206,49068,1,8,1:0:0:0:
102,206,49140,1,8,1:0:0:0:
104,210,49212,1,8,1:0:0:0:
64,64,49355,1,0,1:0:0:0:
95,220,49499,1,0,1:0:0:0:
95,219,49642,1,8,1:0:0:0:
448,64,49738,1,8,1:0:0:0:
307,290,49834,1,0,1:0:0:0:
64,64,49930,1,0,1:0:0:0:
307,290,50217,1,0,1:0:0:0:
197,227,50360,1,0,1:0:0:0:
191,227,50504,1,8,1:0:0:0:
242,190,50647,1,0,1:0:0:0:
174,227,50791,1,8,1:0:0:0:
448,64,50934,1,8,1:0:0:0:
64,64,51078,1,0,1:0:0:0:
55,211,51365,1,8,1:0:0:0:
102,192,51652,1,8,1:0:0:0:
102,192,51724,1,8,1:0:0:0:
102,192,51796,1,8,1:0:0:0:
102,192,51939,1,8,1:0:0:0:
285,190,52226,1,0,1:0:0:0:
285,190,52513,1,8,1:0:0:0:
184,227,52800,1,8,1:0:0:0:
285,190,53087,1,8,1:0:0:0:
285,190,53375,1,0,1:0:0:0:
285,190,53662,1,8,1:0:0:0:
178,225,53949,1,8,1:0:0:0:
64,64,54236,1,0,1:0:0:0:
64,64,54331,1,0,1:0:0:0:
164,224,54427,1,0,1:0:0:0:
162,218,54523,1,8,1:0:0:0:
159,229,54810,1,8,1:0:0:0:
158,228,55097,1,8,1:0:0:0:
222,140,55384,1,12,1:0:0:0:
222,140,55671,1,0,1:0:0:0:
222,140,55958,1,8,1:0:0:0:
217,144,56245,1,0,1:0:0:0:
207,146,56532,1,0,1:0:0:0:
184,256,57107,1,8,1:0:0:0:
231,146,57394,1,0,1:0:0:0:
231,146,57681,1,0,1:0:0:0:
148,236,58255,1,8,1:0:0:0:
231,146,58542,1,0,1:0:0:0:
231,146,58829,1,8,1:0:0:0:
448,64,58925,1,8,1:0:0:0:
301,96,59020,1,0,1:0:0:0:
64,64,59116,1,0,1:0:0:0:
360,212,59403,1,8,1:0:0:0:
380,258,59690,1,0,1:0:0:0:
222,140,59977,1,0,1:0:0:0:
222,140,60264,1,0,1:0:0:0:
222,140,60552,1,8,1:0:0:0:
217,144,60839,1,0,1:0:0:0:
207,146,61126,1,8,1:0:0:0:
184,256,61700,1,8,1:0:0:0:
231,146,61987,1,0,1:0:0:0:
231,146,62274,1,8,1:0:0:0:
148,236,62848,1,8,1:0:0:0:
231,146,63135,1,0,1:0:0:0:
64,64,63422,1,0,1:0:0:0:
64,64,63518,1,0,1:0:0:0:
301,96,63614,1,0,1:0:0:0:
335,159,63709,1,8,1:0:0:0:
360,212,63997,1,8,1:0:0:0:
380,258,64284,1,8,1:0:0:0:
222,140,64571,1,12,1:0:0:0:
