osu file format v14

[General]
AudioFilename: audio.mp3
AudioLeadIn: 0
PreviewTime: 37004
Countdown: 0
SampleSet: Normal
StackLeniency: 0.7
Mode: 1
LetterboxInBreaks: 0
WidescreenStoryboard: 1

[Editor]
DistanceSpacing: 1
BeatDivisor: 6
GridSize: 32
TimelineZoom: 3.1

[Metadata]
Title:The Real Big Chungus
TitleUnicode:The Real Big Chungus
Artist:6pcmeal
ArtistUnicode:6pcmeal
Creator:maxie
Version:Slim Chungus Muzukashii
Source:
Tags:english novelty mashup The Fat Wascally Wabbits chunguscore eminem the real slim shady liku the law the_law looney tunes bugs bunny meme hiphop hip hop hip-hop
BeatmapID:4162071
BeatmapSetID:2001564

[Difficulty]
HPDrainRate:8
CircleSize:5
OverallDifficulty:5
ApproachRate:5
SliderMultiplier:1.4
SliderTickRate:1

[Events]
//Background and Video events
0,0,"The Fat Wascally Wabbits - CHUNGUSCORE - Big_Mile.png",0,60
//Break Periods
//Storyboard Layer 0 (Background)
//Storyboard Layer 1 (Fail)
//Storyboard Layer 2 (Pass)
//Storyboard Layer 3 (Foreground)
//Storyboard Layer 4 (Overlay)
//Storyboard Sound Samples

[TimingPoints]
265,574.162679425837,4,1,0,60,1,0
265,-50,4,1,0,60,0,0
37011,-50,4,1,0,60,0,1
55384,-50,4,1,0,60,0,0
59977,-50,4,1,0,50,0,0
63422,-50,4,1,0,35,0,0

[HitObjects]
222,140,265,5,0,1:0:0:0:
222,140,552,1,8,1:0:0:0:
222,140,839,1,0,1:0:0:0:
217,144,1126,1,0,1:0:0:0:
207,146,1413,1,8,1:0:0:0:
231,146,2274,1,0,1:0:0:0:
231,146,2561,1,8,1:0:0:0:
231,146,3422,1,0,1:0:0:0:
231,146,3709,1,8,1:0:0:0:
301,96,3805,1,8,1:0:0:0:
448,64,3901,1,8,1:0:0:0:
335,159,3997,1,8,1:0:0:0:
360,212,4284,1,8,1:0:0:0:
380,258,4571,1,0,1:0:0:0:
380,258,4858,1,0,1:0:0:0:
368,251,5145,1,8,1:0:0:0:
368,251,5432,1,8,1:0:0:0:
366,252,5719,1,0,1:0:0:0:
368,251,6006,1,8,1:0:0:0:
368,251,6867,1,0,1:0:0:0:
361,254,7154,1,8,1:0:0:0:
361,254,8016,1,0,1:0:0:0:
361,254,8303,1,8,1:0:0:0:
448,64,8398,1,8,1:0:0:0:
448,64,8494,1,8,1:0:0:0:
363,291,8590,1,8,1:0:0:0:
393,285,8877,1,8,1:0:0:0:
393,285,9164,1,0,1:0:0:0:
393,285,9451,1,0,1:0:0:0:
378,284,9738,1,8,1:0:0:0:
378,284,10025,1,8,1:0:0:0:
378,284,10312,1,0,1:0:0:0:
378,284,10599,1,8,1:0:0:0:
378,284,11461,1,0,1:0:0:0:
378,284,11748,1,8,1:0:0:0:
378,284,12609,1,0,1:0:0:0:
378,284,12896,1,8,1:0:0:0:
448,64,12992,1,8,1:0:0:0:
448,64,13087,1,8,1:0:0:0:
372,280,13183,1,8,1:0:0:0:
468,365,13470,1,8,1:0:0:0:
468,365,13757,1,0,1:0:0:0:
468,365,14044,1,0,1:0:0:0:
468,365,14331,1,8,1:0:0:0:
468,365,14619,1,8,1:0:0:0:
468,365,14906,1,0,1:0:0:0:
468,365,15193,1,8,1:0:0:0:
436,338,16054,1,0,1:0:0:0:
436,338,16341,1,8,1:0:0:0:
436,338,17202,1,0,1:0:0:0:
436,338,17489,1,8,1:0:0:0:
448,64,17585,1,8,1:0:0:0:
448,64,17681,1,8,1:0:0:0:
435,321,17776,1,8,1:0:0:0:
187,212,18064,1,8,1:0:0:0:
64,64,18351,1,0,1:0:0:0:
64,64,18638,1,0,1:0:0:0:
448,64,18781,1,8,1:0:0:0:
64,64,18925,1,0,1:0:0:0:
448,64,19068,1,8,1:0:0:0:
448,64,19140,1,8,1:0:0:0:
448,64,19212,1,8,1:0:0:0:
448,64,19499,1,8,1:0:0:0:
448,64,19786,1,8,1:0:0:0:
64,64,20073,1,0,1:0:0:0:
64,64,20217,1,0,1:0:0:0:
448,64,20360,1,8,1:0:0:0:
64,64,20647,1,0,1:0:0:0:
448,64,20934,1,8,1:0:0:0:
448,64,21006,1,8,1:0:0:0:
448,64,21078,1,8,1:0:0:0:
64,64,21221,1,0,1:0:0:0:
64,64,21365,1,0,1:0:0:0:
448,64,21509,1,8,1:0:0:0:
64,64,21652,1,0,1:0:0:0:
448,64,21796,1,8,1:0:0:0:
448,64,22083,1,8,1:0:0:0:
448,64,22178,1,8,1:0:0:0:
448,64,22274,1,8,1:0:0:0:
448,64,22370,1,8,1:0:0:0:
448,64,22657,1,8,1:0:0:0:
64,64,22944,1,0,1:0:0:0:
64,64,23231,1,0,1:0:0:0:
448,64,23518,1,8,1:0:0:0:
64,64,23662,1,0,1:0:0:0:
448,64,23805,1,8,1:0:0:0:
64,64,23949,1,0,1:0:0:0:
448,64,24092,1,8,1:0:0:0:
64,64,24236,1,0,1:0:0:0:
448,64,24379,1,8,1:0:0:0:
448,64,24523,1,8,1:0:0:0:
64,64,24810,1,0,1:0:0:0:
448,64,24953,1,8,1:0:0:0:
448,64,25241,1,8,1:0:0:0:
448,64,25384,1,8,1:0:0:0:
64,64,25528,1,0,1:0:0:0:
64,64,25815,1,0,1:0:0:0:
448,64,26102,1,8,1:0:0:0:
64,64,26245,1,0,1:0:0:0:
448,64,26389,1,8,1:0:0:0:
64,64,26676,1,0,1:0:0:0:
64,64,26772,1,0,1:0:0:0:
64,64,26867,1,0,1:0:0:0:
64,64,26963,1,0,1:0:0:0:
448,64,27250,1,8,1:0:0:0:
448,64,27537,1,8,1:0:0:0:
448,320,27824,1,12,1:0:0:0:
64,64,28111,1,0,1:0:0:0:
448,64,28398,1,8,1:0:0:0:
64,64,28686,1,0,1:0:0:0:
64,64,28829,1,0,1:0:0:0:
448,64,28973,1,8,1:0:0:0:
448,64,29044,1,8,1:0:0:0:
448,64,29116,1,8,1:0:0:0:
64,64,29260,1,0,1:0:0:0:
64,64,29403,1,0,1:0:0:0:
448,64,29547,1,8,1:0:0:0:
448,64,29834,1,8,1:0:0:0:
64,64,29977,1,0,1:0:0:0:
448,64,30121,1,8,1:0:0:0:
448,64,30193,1,8,1:0:0:0:
448,64,30264,1,8,1:0:0:0:
64,64,30408,1,0,1:0:0:0:
448,64,30695,1,8,1:0:0:0:
448,64,30982,1,8,1:0:0:0:
64,64,31269,1,0,1:0:0:0:
64,64,31365,1,0,1:0:0:0:
64,64,31461,1,0,1:0:0:0:
64,64,31556,1,0,1:0:0:0:
448,64,31843,1,8,1:0:0:0:
64,64,32131,1,0,1:0:0:0:
448,64,32274,1,8,1:0:0:0:
64,64,32418,1,0,1:0:0:0:
448,64,32705,1,8,1:0:0:0:
448,64,32992,1,8,1:0:0:0:
64,64,33279,1,0,1:0:0:0:
64,64,33422,1,0,1:0:0:0:
448,64,33566,1,8,1:0:0:0:
448,64,33638,1,8,1:0:0:0:
448,64,33709,1,8,1:0:0:0:
64,64,33853,1,0,1:0:0:0:
448,64,33997,1,8,1:0:0:0:
448,64,34140,1,8,1:0:0:0:
448,64,34427,1,8,1:0:0:0:
448,64,34714,1,8,1:0:0:0:
64,64,35001,1,0,1:0:0:0:
64,64,35145,1,0,1:0:0:0:
64,64,35288,1,0,1:0:0:0:
448,64,35576,1,8,1:0:0:0:
64,64,35863,1,0,1:0:0:0:
64,64,35958,1,0,1:0:0:0:
64,64,36054,1,0,1:0:0:0:
64,64,36150,1,0,1:0:0:0:
448,64,36437,1,8,1:0:0:0:
448,64,36724,1,8,1:0:0:0:
448,320,37011,1,12,1:0:0:0:
64,64,37298,1,0,1:0:0:0:
448,64,37585,1,8,1:0:0:0:
64,64,37729,1,0,1:0:0:0:
448,64,37872,1,8,1:0:0:0:
64,64,38016,1,0,1:0:0:0:
448,64,38159,1,8,1:0:0:0:
64,64,38446,1,0,1:0:0:0:
64,64,38518,1,0,1:0:0:0:
64,64,38590,1,0,1:0:0:0:
448,64,38733,1,8,1:0:0:0:
448,64,39020,1,8,1:0:0:0:
448,64,39164,1,8,1:0:0:0:
64,64,39308,1,0,1:0:0:0:
64,64,39595,1,0,1:0:0:0:
448,64,39882,1,8,1:0:0:0:
448,64,40025,1,8,1:0:0:0:
64,64,40169,1,0,1:0:0:0:
448,64,40456,1,8,1:0:0:0:
448,64,40552,1,8,1:0:0:0:
448,64,40647,1,8,1:0:0:0:
448,64,40743,1,8,1:0:0:0:
448,64,41030,1,8,1:0:0:0:
448,64,41174,1,8,1:0:0:0:
64,64,41317,1,0,1:0:0:0:
64,64,41604,1,0,1:0:0:0:
64,64,41748,1,0,1:0:0:0:
448,64,41891,1,8,1:0:0:0:
448,64,42178,1,8,1:0:0:0:
64,64,42465,1,0,1:0:0:0:
64,64,42537,1,0,1:0:0:0:
64,64,42609,1,0,1:0:0:0:
448,64,42753,1,8,1:0:0:0:
64,64,43040,1,0,1:0:0:0:
448,64,43327,1,8,1:0:0:0:
448,64,43614,1,8,1:0:0:0:
448,64,43901,1,8,1:0:0:0:
64,64,44188,1,0,1:0:0:0:
448,64,44475,1,8,1:0:0:0:
448,64,44762,1,8,1:0:0:0:
64,64,45049,1,0,1:0:0:0:
64,64,45145,1,0,1:0:0:0:
64,64,45241,1,0,1:0:0:0:
64,64,45336,1,0,1:0:0:0:
448,64,45623,1,8,1:0:0:0:
448,64,45910,1,8,1:0:0:0:
448,320,46198,1,12,1:0:0:0:
64,64,46485,1,0,1:0:0:0:
448,64,46772,1,8,1:0:0:0:
64,64,46915,1,0,1:0:0:0:
448,64,47059,1,8,1:0:0:0:
64,64,47202,1,0,1:0:0:0:
448,64,47346,1,8,1:0:0:0:
64,64,47633,1,0,1:0:0:0:
64,64,47705,1,0,1:0:0:0:
64,64,47776,1,0,1:0:0:0:
448,64,47920,1,8,1:0:0:0:
448,64,48207,1,8,1:0:0:0:
448,64,48351,1,8,1:0:0:0:
64,64,48494,1,0,1:0:0:0:
64,64,48781,1,0,1:0:0:0:
448,64,49068,1,8,1:0:0:0:
448,64,49212,1,8,1:0:0:0:
64,64,49355,1,0,1:0:0:0:
448,64,49642,1,8,1:0:0:0:
448,64,49738,1,8,1:0:0:0:
448,64,49834,1,8,1:0:0:0:
448,64,49930,1,8,1:0:0:0:
64,64,50217,1,0,1:0:0:0:
64,64,50360,1,0,1:0:0:0:
448,64,50504,1,8,1:0:0:0:
448,64,50791,1,8,1:0:0:0:
448,64,50934,1,8,1:0:0:0:
64,64,51078,1,0,1:0:0:0:
448,64,51365,1,8,1:0:0:0:
448,64,51652,1,8,1:0:0:0:
448,64,51724,1,8,1:0:0:0:
448,64,51796,1,8,1:0:0:0:
448,64,51939,1,8,1:0:0:0:
64,64,52226,1,0,1:0:0:0:
448,64,52513,1,8,1:0:0:0:
448,64,52800,1,8,1:0:0:0:
448,64,53087,1,8,1:0:0:0:
64,64,53375,1,0,1:0:0:0:
448,64,53662,1,8,1:0:0:0:
448,64,53949,1,8,1:0:0:0:
64,64,54236,1,0,1:0:0:0:
64,64,54331,1,0,1:0:0:0:
64,64,54427,1,0,1:0:0:0:
64,64,54523,1,0,1:0:0:0:
448,64,54810,1,8,1:0:0:0:
448,64,55097,1,8,1:0:0:0:
448,320,55384,1,12,1:0:0:0:
64,64,55671,1,0,1:0:0:0:
448,64,55958,1,8,1:0:0:0:
64,64,56245,1,0,1:0:0:0:
64,64,56532,1,0,1:0:0:0:
448,64,57107,1,8,1:0:0:0:
64,64,57394,1,0,1:0:0:0:
64,64,57681,1,0,1:0:0:0:
448,64,58255,1,8,1:0:0:0:
64,64,58542,1,0,1:0:0:0:
448,64,58829,1,8,1:0:0:0:
448,64,58925,1,8,1:0:0:0:
448,64,59020,1,8,1:0:0:0:
448,64,59116,1,8,1:0:0:0:
448,64,59403,1,8,1:0:0:0:
64,64,59690,1,0,1:0:0:0:
64,64,59977,1,0,1:0:0:0:
64,64,60264,1,0,1:0:0:0:
448,64,60552,1,8,1:0:0:0:
64,64,60839,1,0,1:0:0:0:
448,64,61126,1,8,1:0:0:0:
448,64,61700,1,8,1:0:0:0:
64,64,61987,1,0,1:0:0:0:
448,64,62274,1,8,1:0:0:0:
448,64,62848,1,8,1:0:0:0:
64,64,63135,1,0,1:0:0:0:
448,64,63422,1,0,1:0:0:0:
448,64,63518,1,0,1:0:0:0:
448,64,63614,1,0,1:0:0:0:
64,64,63709,1,0,1:0:0:0:
448,64,63997,1,8,1:0:0:0:
448,64,64284,1,8,1:0:0:0:
448,320,64571,1,12,1:0:0:0:
