osu file format v14

[General]
AudioFilename: audio.mp3
AudioLeadIn: 0
PreviewTime: 37004
Countdown: 0
SampleSet: Normal
StackLeniency: 0.7
Mode: 1
LetterboxInBreaks: 0
WidescreenStoryboard: 1

[Editor]
DistanceSpacing: 1
BeatDivisor: 4
GridSize: 32
TimelineZoom: 3.1

[Metadata]
Title:The Real Big Chungus
TitleUnicode:The Real Big Chungus
Artist:6pcmeal
ArtistUnicode:6pcmeal
Creator:maxie
Version:Chungus Collab Kantan
Source:
Tags:english novelty mashup The Fat Wascally Wabbits chunguscore eminem the real slim shady liku the law the_law looney tunes bugs bunny meme hiphop hip hop hip-hop
BeatmapID:4162701
BeatmapSetID:2001564

[Difficulty]
HPDrainRate:10
CircleSize:5
OverallDifficulty:3
ApproachRate:5
SliderMultiplier:1.2
SliderTickRate:1

[Events]
//Background and Video events
0,0,"The Fat Wascally Wabbits - CHUNGUSCORE - Big_Mile.png",0,60
//Break Periods
//Storyboard Layer 0 (Background)
//Storyboard Layer 1 (Fail)
//Storyboard Layer 2 (Pass)
//Storyboard Layer 3 (Foreground)
//Storyboard Layer 4 (Overlay)
//Storyboard Sound Samples

[TimingPoints]
265,574.162679425837,4,1,0,60,1,0
265,-50,4,1,0,60,0,0
37011,-50,4,1,0,60,0,1
55384,-50,4,1,0,60,0,0
59977,-50,4,1,0,50,0,0
63422,-50,4,1,0,35,0,0

[HitObjects]
64,64,265,5,0,1:0:0:0:
64,64,1126,1,0,1:0:0:0:
448,64,1413,1,8,1:0:0:0:
64,64,2274,1,0,1:0:0:0:
448,64,2561,1,8,1:0:0:0:
64,64,3422,1,0,1:0:0:0:
108,75,3709,1,0,1:0:0:0:
448,64,4284,1,8,1:0:0:0:
64,64,4571,1,0,1:0:0:0:
64,64,4858,1,0,1:0:0:0:
64,64,5719,1,0,1:0:0:0:
448,64,6006,1,8,1:0:0:0:
64,64,6867,1,0,1:0:0:0:
448,64,7154,1,8,1:0:0:0:
64,64,8016,1,0,1:0:0:0:
132,102,8303,1,0,1:0:0:0:
448,64,8877,1,8,1:0:0:0:
64,64,9164,1,0,1:0:0:0:
64,64,9451,1,0,1:0:0:0:
64,64,10312,1,0,1:0:0:0:
448,64,10599,1,8,1:0:0:0:
64,64,11461,1,0,1:0:0:0:
448,64,11748,1,8,1:0:0:0:
64,64,12609,1,0,1:0:0:0:
47,86,12896,1,0,1:0:0:0:
448,64,13470,1,8,1:0:0:0:
64,64,13757,1,0,1:0:0:0:
64,64,14044,1,0,1:0:0:0:
64,64,14906,1,0,1:0:0:0:
448,64,15193,1,8,1:0:0:0:
64,64,16054,1,0,1:0:0:0:
448,64,16341,1,8,1:0:0:0:
38,51,17489,1,0,1:0:0:0:
157,97,17776,1,8,1:0:0:0:
448,64,18064,1,8,1:0:0:0:
448,64,18351,1,0,1:0:0:0:
448,64,18638,1,0,1:0:0:0:
64,64,19212,1,0,1:0:0:0:
64,64,19499,1,0,1:0:0:0:
64,64,19786,1,0,1:0:0:0:
448,64,20360,1,8,1:0:0:0:
64,64,20647,1,0,1:0:0:0:
64,64,20934,1,0,1:0:0:0:
448,64,21509,1,8,1:0:0:0:
76,54,21796,1,0,1:0:0:0:
75,54,22083,1,8,1:0:0:0:
448,64,22657,1,8,1:0:0:0:
83,137,23518,1,0,1:0:0:0:
448,64,23805,1,8,1:0:0:0:
64,64,24092,1,0,1:0:0:0:
448,64,24379,1,8,1:0:0:0:
448,64,24953,1,8,1:0:0:0:
41,148,25241,1,0,1:0:0:0:
34,149,25528,1,8,1:0:0:0:
448,64,26102,1,8,1:0:0:0:
448,64,26389,1,0,1:0:0:0:
159,196,26676,1,8,1:0:0:0:
448,64,27250,1,8,1:0:0:0:
448,64,27537,1,8,1:0:0:0:
448,320,27824,1,12,1:0:0:0:
64,64,28686,1,0,1:0:0:0:
64,64,28973,1,0,1:0:0:0:
448,64,29547,1,8,1:0:0:0:
448,64,29834,1,8,1:0:0:0:
64,64,30121,1,0,1:0:0:0:
448,64,30695,1,8,1:0:0:0:
448,64,30982,1,8,1:0:0:0:
140,143,31269,1,8,1:0:0:0:
448,64,31843,1,8,1:0:0:0:
64,64,32131,1,0,1:0:0:0:
64,64,32418,1,0,1:0:0:0:
448,64,32992,1,8,1:0:0:0:
64,64,33279,1,0,1:0:0:0:
448,64,33566,1,8,1:0:0:0:
448,64,34140,1,8,1:0:0:0:
448,64,34427,1,8,1:0:0:0:
448,64,34714,1,8,1:0:0:0:
448,64,35576,1,8,1:0:0:0:
185,160,35863,1,0,1:0:0:0:
448,64,36437,1,8,1:0:0:0:
448,64,36724,1,8,1:0:0:0:
448,320,37011,1,12,1:0:0:0:
95,162,37585,1,0,1:0:0:0:
95,162,37872,1,0,1:0:0:0:
95,162,38159,1,8,1:0:0:0:
114,187,38733,1,0,1:0:0:0:
114,187,39020,1,8,1:0:0:0:
82,166,39308,1,0,1:0:0:0:
82,166,39882,1,0,1:0:0:0:
82,166,40456,1,8,1:0:0:0:
82,166,40743,1,0,1:0:0:0:
82,166,41030,1,8,1:0:0:0:
143,197,41317,1,0,1:0:0:0:
143,197,41604,1,0,1:0:0:0:
143,197,42753,1,8,1:0:0:0:
143,197,43040,1,0,1:0:0:0:
143,197,43327,1,8,1:0:0:0:
143,197,43901,1,8,1:0:0:0:
143,197,44188,1,0,1:0:0:0:
143,197,44475,1,8,1:0:0:0:
143,197,45049,1,0,1:0:0:0:
143,197,45336,1,0,1:0:0:0:
143,197,45623,1,8,1:0:0:0:
143,197,45910,1,0,1:0:0:0:
143,197,46198,1,0,1:0:0:0:
119,125,47059,1,8,1:0:0:0:
119,125,47346,1,0,1:0:0:0:
119,125,47920,1,8,1:0:0:0:
119,125,48207,1,8,1:0:0:0:
119,125,48494,1,0,1:0:0:0:
119,125,49068,1,8,1:0:0:0:
117,148,49355,1,0,1:0:0:0:
117,148,49642,1,8,1:0:0:0:
137,123,50504,1,0,1:0:0:0:
106,138,50791,1,0,1:0:0:0:
137,123,51365,1,8,1:0:0:0:
137,123,51939,1,8,1:0:0:0:
137,123,52226,1,0,1:0:0:0:
137,123,52513,1,8,1:0:0:0:
131,104,53087,1,8,1:0:0:0:
131,104,53375,1,0,1:0:0:0:
131,104,53662,1,8,1:0:0:0:
131,104,54236,1,0,1:0:0:0:
131,104,54523,1,0,1:0:0:0:
131,104,54810,1,8,1:0:0:0:
131,104,55097,1,0,1:0:0:0:
131,104,55384,1,0,1:0:0:0:
70,145,56245,1,0,1:0:0:0:
70,145,56532,1,8,1:0:0:0:
70,145,57107,1,8,1:0:0:0:
70,145,57394,1,0,1:0:0:0:
70,145,57681,1,0,1:0:0:0:
70,145,58255,1,8,1:0:0:0:
125,178,58542,1,8,1:0:0:0:
70,145,58829,1,0,1:0:0:0:
125,178,59116,1,0,1:0:0:0:
70,145,59403,1,8,1:0:0:0:
70,145,59977,1,0,1:0:0:0:
70,145,60839,1,0,1:0:0:0:
70,145,61126,1,8,1:0:0:0:
70,145,61700,1,8,1:0:0:0:
70,145,61987,1,0,1:0:0:0:
70,145,62274,1,0,1:0:0:0:
70,145,62848,1,8,1:0:0:0:
70,145,63135,1,0,1:0:0:0:
118,164,63422,1,0,1:0:0:0:
118,164,63709,1,0,1:0:0:0:
118,164,63997,1,8,1:0:0:0:
118,164,64571,1,0,1:0:0:0:
