osu file format v14

[General]
AudioFilename: audio.mp3
AudioLeadIn: 0
PreviewTime: 50974
Countdown: 0
SampleSet: Soft
StackLeniency: 0.5
Mode: 0
LetterboxInBreaks: 0
WidescreenStoryboard: 1

[Editor]
Bookmarks: 102756,123182,133394
DistanceSpacing: 1.4
BeatDivisor: 4
GridSize: 32
TimelineZoom: 4.199998

[Metadata]
Title:KEKE (feat. Fetty Wap & A Boogie wit da Hoodie)
TitleUnicode:KEKE (feat. Fetty Wap & A Boogie wit da Hoodie)
Artist:6ix9ine
ArtistUnicode:6ix9ine
Creator:wafer
Version:HARD~ ;3
Source:
Tags:english hiphop hip hop rap soundcloud snitch rat sixnine goopert kami no kotoba trap on the regular
BeatmapID:4218773
BeatmapSetID:1931746

[Difficulty]
HPDrainRate:4
CircleSize:3.4
OverallDifficulty:6
ApproachRate:7.5
SliderMultiplier:1.4
SliderTickRate:1

[Events]
//Background and Video events
0,0,"how i lookin at the opps.jpg",0,0
//Break Periods
2,28913,29804
2,33820,35548
2,47424,48314
2,82331,89165
2,102756,107038
//Storyboard Layer 0 (Background)
//Storyboard Layer 1 (Fail)
//Storyboard Layer 2 (Pass)
//Storyboard Layer 3 (Foreground)
//Storyboard Layer 4 (Overlay)
//Storyboard Sound Samples
Sample,9565,0,"wafer pitched.wav",60

[TimingPoints]
629,319.148936170213,4,2,1,70,1,0
10841,-133.333333333333,4,2,1,60,0,0
21054,-105.263157894737,4,2,1,65,0,0
30629,-105.263157894737,4,2,1,40,0,0
31267,-100,4,2,1,70,0,0
41480,-100,4,2,1,65,0,0
51054,-111.111111111111,4,2,1,65,0,0
51692,-100,4,2,2,75,0,0
61905,-100,4,2,2,70,0,0
71440,-100,4,2,1,50,0,0
72118,-133.333333333333,4,2,1,55,0,0
82331,-133.333333333333,4,2,1,45,0,0
92543,-117.647058823529,4,2,1,65,0,0
99565,-117.647058823529,4,2,1,30,0,0
99884,-117.647058823529,4,2,1,65,0,0
112969,-90.9090909090909,4,2,1,70,0,0
123182,-100,4,2,1,60,0,0
133075,-133.333333333333,4,2,1,60,0,0

[Colours]
Combo1 : 112,250,205
Combo2 : 248,254,167
Combo3 : 234,164,249
Combo4 : 249,167,117

[HitObjects]
30,131,10841,6,0,P|37:109|32:62,1,52.5000020027161,2|0,0:0|0:0,0:0:0:0:
106,31,11160,2,0,P|148:43|163:114,1,105.000004005432,0|2,0:0|0:0,0:0:0:0:
168,96,11799,2,0,P|199:103|236:102,1,52.5000020027161,0|2,0:0|0:0,0:0:0:0:
276,165,12118,1,2,0:0:0:0:
350,127,12277,1,0,0:0:0:0:
426,161,12437,1,2,0:0:0:0:
490,316,12756,2,0,P|483:354|478:373,1,52.5000020027161
404,328,13075,2,0,P|366:335|347:340,1,52.5000020027161,2|0,0:0|0:0,0:0:0:0:
271,361,13394,6,0,P|249:315|276:205,1,157.500006008148,2|0,0:0|0:0,0:0:0:0:
192,179,14033,1,2,0:0:0:0:
42,255,14352,2,0,P|36:226|36:200,1,52.5000020027161,0|2,0:0|0:0,0:0:0:0:
92,140,14671,1,2,0:0:0:0:
165,100,14830,1,0,0:0:0:0:
205,25,14990,1,2,0:0:0:0:
205,25,15309,6,0,P|210:61|220:89,1,52.5000020027161
285,123,15629,1,2,0:0:0:0:
285,123,15788,1,0,0:0:0:0:
369,117,15948,2,0,L|367:45,1,52.5000020027161,2|0,0:0|0:0,0:0:0:0:
444,31,16267,2,0,P|458:87|452:145,1,105.000004005432,0|2,0:0|0:0,0:0:0:0:
454,133,16905,6,0,P|423:140|386:139,1,52.5000020027161,0|2,0:0|0:0,0:0:0:0:
348,205,17224,1,2,0:0:0:0:
265,191,17383,1,0,0:0:0:0:
181,200,17543,1,2,0:0:0:0:
181,200,17863,6,0,P|174:238|169:257,1,52.5000020027161
251,275,18182,2,0,P|244:313|239:332,1,52.5000020027161,2|0,0:0|0:0,0:0:0:0:
320,352,18501,2,0,P|399:348|432:264,1,157.500006008148,2|0,0:0|0:0,0:0:0:0:
498,231,19139,1,2,0:0:0:0:
498,231,19458,6,0,P|503:190|501:168,1,52.5000020027161,0|2,0:0|0:0,0:0:0:0:
441,121,19777,1,2,0:0:0:0:
358,138,19937,1,0,0:0:0:0:
287,92,20097,1,2,0:0:0:0:
287,92,21054,5,4,1:0:0:0:
203,133,21214,1,0,1:0:0:0:
113,110,21373,2,0,P|116:72|126:33,1,66.4999982242585,2|2,0:0|0:0,0:0:0:0:
17,78,21692,1,10,0:0:0:0:
53,267,22011,1,2,1:0:0:0:
53,267,22171,1,2,1:0:0:0:
139,301,22331,1,2,0:0:0:0:
224,266,22490,1,10,0:0:0:0:
317,266,22650,1,2,1:0:0:0:
317,266,22969,6,0,P|363:274|392:282,1,66.4999982242585,10|0,0:0|0:0,0:0:0:0:
462,232,23288,1,0,1:2:0:0:
462,232,23447,1,0,1:0:0:0:
419,149,23607,2,0,P|386:156|353:162,1,66.4999982242585,0|2,1:0|0:0,0:0:0:0:
270,119,23926,2,0,P|267:75|278:47,2,66.4999982242585,2|2|8,0:0|0:0|0:0,0:0:0:0:
165,274,24565,1,2,1:0:0:0:
165,274,24724,1,8,0:0:0:0:
97,209,24884,1,2,0:2:0:0:
5,191,25043,1,0,1:0:0:0:
80,135,25203,2,0,P|94:100|59:7,1,132.999996448517,2|10,1:2|0:0,0:0:0:0:
5,83,25682,1,0,1:2:0:0:
5,83,25841,1,2,1:2:0:0:
165,176,26160,6,0,P|199:166|245:163,1,66.4999982242585,4|0,1:0|1:0,0:0:0:0:
278,82,26480,2,0,P|245:78|213:68,1,66.4999982242585,2|0,0:0|0:0,0:0:0:0:
317,164,26799,1,10,0:0:0:0:
317,164,27118,2,0,P|349:170|390:187,1,66.4999982242585,2|2,1:0|1:0,0:0:0:0:
467,149,27437,1,2,0:0:0:0:
479,241,27597,1,10,0:0:0:0:
404,296,27756,1,2,1:0:0:0:
225,348,28075,2,0,P|222:298|216:260,1,66.4999982242585,10|2,0:0|0:0,0:0:0:0:
141,230,28394,2,0,B|76:238|84:270|17:289,1,132.999996448517,0|0,1:0|0:0,0:0:0:0:
23,286,30629,6,0,L|19:262,2,22.1666660747528,2|0|0,0:1|0:0|0:0,0:2:0:0:
91,85,31267,5,6,1:0:0:0:
91,85,31426,2,2,P|103:34|117:11,1,70,0|2,1:0|0:0,0:0:0:0:
296,84,31905,2,0,P|255:95|208:145,1,105,10|0,0:0|0:0,0:0:0:0:
170,164,32224,1,2,1:0:0:0:
246,225,32384,1,2,1:0:0:0:
349,213,32543,1,2,0:3:0:0:
349,213,32623,1,2,0:3:0:0:
349,213,32703,1,2,0:3:0:0:
443,241,32863,2,0,P|443:306|430:370,1,105,2|0,1:0|0:0,0:0:0:0:
436,345,33182,2,0,P|376:345|291:363,1,140,10|0,0:0|1:0,0:0:0:0:
297,360,36373,5,6,1:0:0:0:
223,295,36532,2,2,P|194:293|142:285,2,70,0|2|2,1:0|0:0|0:0,0:0:0:0:
313,257,37011,2,0,P|308:204|288:156,1,105,10|0,0:0|0:0,0:0:0:0:
328,127,37331,1,2,1:0:0:0:
423,147,37490,1,2,1:0:0:0:
474,66,37649,1,2,0:3:0:0:
474,66,37729,1,2,0:3:0:0:
474,66,37809,1,2,0:3:0:0:
395,6,37969,2,0,P|340:22|283:24,1,105,2|0,1:0|0:0,0:0:0:0:
292,24,38288,2,0,P|289:65|284:98,1,70,10|0,0:0|0:0,0:0:0:0:
213,160,38607,1,0,1:0:0:0:
213,160,38767,1,0,1:0:0:0:
121,126,38926,6,0,P|78:122|28:139,1,70,2|2,1:2|0:0,0:0:0:0:
127,41,39245,1,2,0:2:0:0:
127,41,39405,1,2,0:2:0:0:
253,29,39565,2,0,P|255:63|266:97,1,70,10|2,0:0|0:0,0:0:0:0:
286,208,39884,1,2,0:3:0:0:
286,208,39964,1,2,0:3:0:0:
286,208,40044,1,2,0:3:0:0:
211,270,40203,2,0,L|116:276,1,70,2|10,0:3|0:0,0:0:0:0:
50,312,40522,1,2,1:2:0:0:
134,360,40681,1,2,0:0:0:0:
230,379,40841,2,0,L|321:364,1,70,10|0,0:2|1:0,0:0:0:0:
327,328,41081,1,2,3:0:0:0:
327,328,41160,1,0,1:0:0:0:
480,204,41480,6,0,B|489:179|511:161|511:161|495:103,1,105,4|0,1:2|0:0,0:0:0:0:
450,97,41799,2,0,B|425:105|407:127|407:127|353:110,1,105,2|0,1:2|0:0,0:0:0:0:
325,71,42118,2,0,B|312:44|312:44|340:9,1,70,10|0,0:2|0:0,0:0:0:0:
261,132,42437,2,0,B|274:159|274:159|246:194,1,70,2|0,1:2|1:0,0:0:0:0:
163,228,42756,5,2,0:3:0:0:
163,228,42836,1,2,0:3:0:0:
163,228,42916,1,2,0:3:0:0:
65,227,43075,2,0,B|17:220|17:220|7:194|34:166,1,105,2|0,1:2|0:0,0:0:0:0:
77,151,43394,2,0,P|105:117|101:76,1,70,10|0,0:2|0:0,0:0:0:0:
34,32,43714,2,0,L|1:20,2,35,4|4|4,3:0|3:0|3:0,0:0:0:0:
162,8,44033,6,0,P|203:17|237:14,1,70,6|0,1:2|0:0,0:0:0:0:
301,98,44352,1,2,0:3:0:0:
301,98,44432,1,2,0:3:0:0:
301,98,44512,1,2,0:3:0:0:
394,67,44671,6,0,B|399:42|399:42|384:-9,1,70,10|0,0:0|0:0,0:0:0:0:
301,98,44990,2,0,B|295:128|295:128|309:185,1,70,2|2,1:2|3:0,0:0:0:0:
421,184,45309,1,2,0:0:0:0:
421,184,45469,1,8,0:0:0:0:
474,272,45629,1,0,1:2:0:0:
474,272,45948,6,0,L|389:296,1,70,8|0,0:0|1:0,0:0:0:0:
322,342,46267,2,0,P|300:294|305:242,1,105,2|0,1:2|0:0,0:0:0:0:
285,203,46586,2,0,B|207:203|228:237|148:248,2,140,4|4|0,1:0|0:3|0:0,0:0:0:0:
256,63,49139,6,0,B|251:47|263:30|263:30|189:16|177:98,1,140,4|2,1:0|0:0,0:0:0:0:
181,76,50735,1,0,0:0:0:0:
181,76,51054,2,0,P|179:120|186:143,1,62.9999980773926
116,195,51373,2,0,P|90:176|60:166,1,62.9999980773926
196,218,51692,5,4,1:0:0:0:
288,252,51852,1,0,1:0:0:0:
385,227,52011,1,0,0:0:0:0:
385,227,52171,1,0,0:0:0:0:
450,154,52331,2,0,P|462:104|452:36,1,105,10|0,0:0|0:0,0:0:0:0:
413,30,52650,1,0,1:2:0:0:
315,21,52809,1,0,1:2:0:0:
244,89,52969,2,0,P|243:123|252:157,2,70,0|0|8,0:2|3:2|1:0,0:0:0:0:
244,89,53607,6,0,L|155:103,1,70,10|0,0:0|0:0,0:0:0:0:
76,108,53926,1,0,1:2:0:0:
76,108,54086,1,0,1:2:0:0:
11,181,54246,2,0,P|15:215|31:246,1,70,0|0,1:2|0:0,0:0:0:0:
120,310,54565,1,0,3:0:0:0:
120,310,54644,1,0,3:0:0:0:
120,310,54724,1,0,3:0:0:0:
208,267,54884,2,0,P|257:247|309:243,1,105,10|0,3:2|0:0,0:0:0:0:
354,258,55203,2,0,P|370:296|366:333,1,70,0|8,1:2|0:0,0:0:0:0:
333,358,55442,1,0,3:0:0:0:
333,358,55522,2,0,P|301:344|266:341,2,70,0|0|2,3:0|1:2|1:0,0:0:0:0:
489,240,56160,6,0,P|502:218|503:163,1,70,10|0,0:0|1:2,0:0:0:0:
411,149,56480,2,0,P|397:116|371:93,1,70,0|0,1:2|0:0,0:0:0:0:
315,218,56799,1,4,1:0:0:0:
219,240,56959,1,0,1:0:0:0:
129,195,57118,1,0,0:0:0:0:
129,195,57278,1,0,0:0:0:0:
76,111,57438,2,0,P|81:76|93:43,1,70,10|0,0:0|0:0,0:0:0:0:
184,8,57756,1,0,1:2:0:0:
279,31,57916,1,0,1:2:0:0:
347,101,58075,2,0,P|348:135|339:169,2,70,0|0|2,0:2|3:2|1:3,0:0:0:0:
347,101,58714,6,0,L|436:115,1,70,10|0,0:0|0:0,0:0:0:0:
482,191,59033,1,0,1:2:0:0:
482,191,59193,1,0,1:2:0:0:
408,256,59353,2,0,P|373:260|342:276,1,70,0|0,1:2|0:0,0:0:0:0:
267,337,59672,1,0,3:0:0:0:
267,337,59751,1,0,3:0:0:0:
267,337,59831,1,0,3:0:0:0:
173,305,59991,2,0,P|158:270|156:234,1,70,10|0,3:2|0:0,0:0:0:0:
189,146,60309,1,0,1:2:0:0:
290,163,60469,1,8,0:0:0:0:
290,163,60549,1,0,3:0:0:0:
290,163,60629,2,0,P|303:131|306:96,2,70,0|0|8,3:0|1:2|1:3,0:0:0:0:
95,183,61267,6,0,P|82:161|81:106,1,70,10|0,0:0|1:2,0:0:0:0:
39,87,61506,1,0,0:0:0:0:
39,87,61586,2,0,P|45:62|83:22,1,70,0|0,1:2|0:0,0:0:0:0:
200,8,61905,5,4,1:0:0:0:
346,138,62224,1,4,1:0:0:0:
270,318,62543,2,0,P|237:320|161:345,1,105,10|0,0:0|0:0,0:0:0:0:
118,339,62863,1,0,1:0:0:0:
51,271,63022,1,0,1:0:0:0:
111,193,63182,2,0,P|116:155|124:122,2,70,0|0|0,3:3|3:3|3:3,0:0:0:0:
111,193,63820,6,0,L|186:208,1,70,10|0,0:0|0:0,0:0:0:0:
267,162,64139,2,0,L|249:127,2,35,4|4|4,3:0|3:0|3:0,0:0:0:0:
358,197,64458,2,0,L|420:241,1,70,4|0,1:0|0:0,0:0:0:0:
497,183,64777,1,0,3:0:0:0:
497,183,64937,1,0,3:0:0:0:
486,85,65097,2,0,P|475:47|394:23,1,105,10|0,0:0|0:0,0:0:0:0:
376,41,65416,2,0,P|339:68|334:107,1,70,0|8,1:0|0:0,0:0:0:0:
293,119,65655,1,0,0:0:0:0:
293,119,65735,2,0,P|302:157|306:193,2,70,4|8|0,0:0|0:0|1:2,0:0:0:0:
112,42,66373,6,0,P|99:64|98:119,1,70,10|0,0:0|1:0,0:0:0:0:
57,139,66612,1,0,0:0:0:0:
57,139,66692,2,0,P|63:164|101:204,1,70,0|0,1:2|0:0,0:0:0:0:
128,332,67011,5,4,1:0:0:0:
313,267,67330,1,4,0:3:0:0:
503,314,67649,2,0,P|470:316|394:341,1,105,2|0,1:2|0:0,0:0:0:0:
357,360,67969,1,0,1:0:0:0:
258,353,68129,1,0,1:0:0:0:
200,274,68288,2,0,P|205:236|213:203,2,70,0|0|0,3:2|3:0|3:2,0:0:0:0:
200,274,68926,6,0,L|125:289,1,70,10|0,0:0|0:0,0:0:0:0:
34,301,69245,2,0,L|16:336,2,35,4|4|4,3:0|3:0|3:0,0:0:0:0:
3,207,69564,2,0,L|47:145,1,70,4|0,1:0|0:0,0:0:0:0:
141,118,69883,1,0,3:0:0:0:
141,118,69964,1,0,3:0:0:0:
141,118,70043,1,0,3:0:0:0:
227,165,70203,1,10,0:0:0:0:
407,89,70522,1,0,1:0:0:0:
407,89,70602,1,0,0:0:0:0:
407,89,70682,1,8,0:0:0:0:
325,34,70841,2,0,P|275:43|246:38,2,70,4|8|0,0:0|0:0|1:2,0:0:0:0:
325,34,71440,5,2,0:1:0:0:
404,61,71599,5,2,0:1:0:0:
462,121,71759,5,2,0:1:0:0:
466,204,71918,5,2,0:1:0:0:
418,298,72118,6,0,P|393:293|315:315,2,105.000004005432,4|2|0,1:0|0:0|0:0,0:0:0:0:
440,142,73075,1,0,1:0:0:0:
361,150,73235,1,0,1:0:0:0:
289,117,73394,2,0,P|284:92|306:14,2,105.000004005432,2|0|0,0:0|1:0|0:0,0:0:0:0:
232,171,74192,1,2,0:0:0:0:
232,171,74352,2,0,P|206:160|171:161,1,52.5000020027161,0|0,1:0|1:0,0:0:0:0:
146,89,74671,6,0,P|74:98|61:234,1,210.000008010865,2|2,1:2|0:0,0:0:0:0:
182,296,75628,1,0,1:0:0:0:
331,345,75948,2,0,P|375:356|447:357,2,105.000004005432,2|0|0,0:0|1:0|0:0,0:0:0:0:
274,290,76745,1,2,1:2:0:0:
274,290,76905,1,0,1:0:0:0:
133,219,77224,6,0,P|158:224|236:202,2,105.000004005432,2|2|0,1:0|0:0|0:0,0:0:0:0:
133,219,78181,1,0,1:0:0:0:
61,185,78341,1,0,1:0:0:0:
35,110,78500,2,0,P|30:85|52:7,2,105.000004005432,2|0|0,0:0|1:0|0:0,0:0:0:0:
117,124,79298,1,2,0:0:0:0:
117,124,79458,2,0,P|142:134|177:133,1,52.5000020027161,0|0,1:0|1:0,0:0:0:0:
213,71,79777,6,0,P|312:87|325:193,1,210.000008010865,2|2,1:2|0:0,0:0:0:0:
487,202,80734,1,0,1:0:0:0:
487,202,80894,1,0,0:0:0:0:
435,261,81054,2,0,P|408:253|366:253,1,52.5000020027161,2|0,0:0|1:0,0:0:0:0:
306,233,81374,2,0,P|264:245|203:278,1,105.000004005432,2|0,1:2|0:0,0:0:0:0:
159,333,81851,1,0,1:0:0:0:
159,333,82011,1,0,1:0:0:0:
256,192,89990,12,0,92224,0:0:0:0:
141,114,92543,6,0,P|117:65|38:60,2,119.000002269745,4|2|10,1:2|0:0|0:0,0:0:0:0:
72,172,93341,1,2,0:0:0:0:
72,172,93501,1,0,1:0:0:0:
72,172,93660,1,0,1:0:0:0:
137,230,93820,1,2,0:0:0:0:
213,69,94139,1,0,1:0:0:0:
213,69,94299,1,2,0:0:0:0:
301,65,94458,2,0,P|332:128|331:275,1,208.250003972054,10|0,0:0|0:0,0:0:0:0:
376,290,95097,1,2,1:2:0:0:
376,290,95416,2,0,L|443:273,1,59.5000011348725
482,200,95735,5,10,0:0:0:0:
482,200,95894,1,2,0:0:0:0:
482,200,96054,1,0,1:0:0:0:
482,200,96213,1,8,0:0:0:0:
406,151,96373,1,2,0:0:0:0:
228,134,96692,1,0,1:0:0:0:
145,169,96852,1,2,0:0:0:0:
83,232,97011,2,0,L|63:354,1,119.000002269745,10|0,0:0|1:0,0:0:0:0:
25,174,97650,6,0,L|3:50,2,119.000002269745,4|2|10,1:2|0:0|0:0,0:0:0:0:
113,159,98448,1,2,0:0:0:0:
113,159,98608,1,0,1:0:0:0:
113,159,98767,1,0,1:0:0:0:
190,202,98926,1,2,0:0:0:0:
290,55,99246,1,0,1:0:0:0:
290,55,99406,1,2,0:0:0:0:
371,90,99565,6,0,P|369:122|360:215,1,119.000002269745,2|0,0:0|1:0,0:0:0:0:
346,296,100044,1,0,1:0:0:0:
298,371,100203,6,0,P|305:298|314:229,1,119.000002269745,0|0,1:0|0:0,0:0:0:0:
256,192,107863,12,4,110416,3:0:0:0:
13,125,112969,6,0,L|67:123,1,38.5000011749268,4|0,1:0|0:0,0:0:0:0:
98,96,113129,1,2,1:2:0:0:
98,96,113288,1,2,0:2:0:0:
201,63,113448,1,2,0:0:0:0:
200,166,113607,2,0,P|211:209|227:245,1,77.0000023498536,10|0,0:2|0:0,0:0:0:0:
331,235,113926,2,0,L|383:225,1,38.5000011749268,2|0,1:2|0:0,0:0:0:0:
393,179,114086,1,2,1:2:0:0:
448,68,114246,6,0,B|364:51|366:95|286:92,1,154.000004699707,6|0,0:2|1:0,0:0:0:0:
209,151,114724,2,0,P|151:161|112:172,1,77.0000023498536,8|8,0:2|0:0,0:0:0:0:
290,322,115203,1,0,1:0:0:0:
290,322,115363,1,0,1:0:0:0:
393,292,115522,6,0,P|427:293|473:311,1,77.0000023498536,0|8,1:0|0:0,0:0:0:0:
401,189,115841,2,0,P|345:203|316:202,1,77.0000023498536,2|0,0:0|0:0,0:0:0:0:
222,172,116160,1,8,0:0:0:0:
222,172,116320,1,2,0:0:0:0:
129,227,116480,1,8,0:0:0:0:
184,318,116639,1,8,0:0:0:0:
65,366,116799,2,0,P|38:326|37:212,1,154.000004699707,4|2,0:0|1:2,0:0:0:0:
89,132,117277,2,0,P|147:142|186:153,1,77.0000023498536,8|8,0:2|0:0,0:0:0:0:
347,29,117756,1,0,1:0:0:0:
347,29,117916,2,0,P|353:86|358:113,1,77.0000023498536,0|4,1:0|1:0,0:0:0:0:
356,105,118394,6,0,P|335:115|273:98,1,77.0000023498536,2|2,0:2|0:0,0:0:0:0:
201,36,118713,2,0,P|174:35|133:88,1,77.0000023498536,10|0,0:2|0:0,0:0:0:0:
57,139,119033,2,0,P|75:154|93:199,1,38.5000011749268,2|0,1:2|2:0,2:0:0:0:
80,220,119192,1,2,1:2:0:0:
23,312,119352,2,0,P|68:327|177:302,1,154.000004699707,6|0,0:2|1:0,0:0:0:0:
268,351,119831,2,0,P|326:341|365:330,1,77.0000023498536,8|8,0:2|0:0,0:0:0:0:
510,200,120309,1,0,1:0:0:0:
510,200,120469,2,0,P|453:206|426:211,1,77.0000023498536,0|0,1:0|1:0,0:0:0:0:
433,209,120947,6,0,P|423:188|440:126,1,77.0000023498536,2|0,0:0|0:0,0:0:0:0:
357,57,121266,2,0,P|330:56|289:109,1,77.0000023498536,8|2,0:0|0:0,0:0:0:0:
200,143,121586,2,0,P|182:128|164:83,1,38.5000011749268,8|0,0:0|0:0,0:0:0:0:
191,64,121745,1,8,0:0:0:0:
87,34,121905,2,0,P|72:79|94:182,1,154.000004699707,4|2,0:0|1:2,0:0:0:0:
28,267,122384,2,0,P|18:325|7:364,1,77.0000023498536,8|8,0:2|0:0,0:0:0:0:
202,236,122862,1,0,1:0:0:0:
202,236,123022,1,8,0:0:0:0:
300,280,123182,6,0,P|319:244|264:174,1,140,4|2,1:0|0:0,0:0:0:0:
265,174,123820,2,0,P|282:191|340:177,1,70,10|0,0:0|0:0,0:0:0:0:
412,236,124139,1,2,1:2:0:0:
500,193,124299,1,2,1:2:0:0:
479,97,124458,2,0,P|453:94|340:113,2,140,2|0|8,0:0|1:0|0:0,0:0:0:0:
479,97,125416,1,2,1:2:0:0:
402,36,125575,1,2,1:2:0:0:
303,42,125735,6,0,P|215:49|188:110,1,140,4|2,1:0|0:0,0:0:0:0:
190,87,126373,2,0,P|165:58|159:23,1,70,10|0,0:0|0:0,0:0:0:0:
68,65,126692,1,2,1:2:0:0:
50,161,126852,1,8,0:0:0:0:
119,229,127011,6,0,P|162:244|206:247,1,70,2|0,0:0|1:0,0:0:0:0:
266,188,127331,1,2,1:2:0:0:
266,188,127490,2,0,P|291:154|289:104,1,70,0|8,0:0|0:0,0:0:0:0:
294,127,127969,2,0,L|421:148,1,105,2|0,1:2|0:0,0:0:0:0:
444,128,128288,6,0,P|480:184|447:263,1,140,4|2,1:0|0:0,0:0:0:0:
294,353,128926,2,0,P|260:345|234:321,1,70,10|0,0:0|0:0,0:0:0:0:
170,246,129246,1,2,1:2:0:0:
85,294,129405,1,2,1:2:0:0:
32,211,129564,6,0,P|44:138|40:63,2,140,2|0|8,0:0|1:0|0:0,0:0:0:0:
32,211,130522,1,2,1:2:0:0:
125,181,130682,1,2,1:2:0:0:
221,195,130841,6,0,P|273:124|243:64,1,140,4|2,1:0|0:0,0:0:0:0:
259,80,131480,2,0,P|219:59|203:27,2,70,10|0|2,0:0|0:0|1:2,0:0:0:0:
349,43,131958,1,8,0:0:0:0:
436,87,132118,1,2,0:0:0:0:
506,275,132437,1,0,1:0:0:0:
506,275,132597,1,0,0:0:0:0:
506,275,133075,6,0,B|474:258|474:258|458:267|458:267|391:263,1,105.000004005432,0|4,0:0|1:0,0:0:0:0:
