osu file format v14

[General]
AudioFilename: audio.mp3
AudioLeadIn: 0
PreviewTime: 50974
Countdown: 0
SampleSet: Soft
StackLeniency: 0.5
Mode: 0
LetterboxInBreaks: 0
WidescreenStoryboard: 0

[Editor]
Bookmarks: 102756,123182,133394
DistanceSpacing: 1.4
BeatDivisor: 4
GridSize: 32
TimelineZoom: 4.199998

[Metadata]
Title:KEKE (feat. Fetty Wap & A Boogie wit da Hoodie)
TitleUnicode:KEKE (feat. Fetty Wap & A Boogie wit da Hoodie)
Artist:6ix9ine
ArtistUnicode:6ix9ine
Creator:wafer
Version:SCUM GANG~ ;3
Source:
Tags:english hiphop hip hop rap soundcloud snitch rat sixnine goopert kami no kotoba trap on the regular
BeatmapID:3990761
BeatmapSetID:1931746

[Difficulty]
HPDrainRate:5
CircleSize:3.7
OverallDifficulty:8
ApproachRate:9
SliderMultiplier:1.8
SliderTickRate:1

[Events]
//Background and Video events
0,0,"how i lookin at the opps.jpg",0,0
//Break Periods
2,28714,30029
2,33820,35773
2,47543,48539
2,102756,107263
//Storyboard Layer 0 (Background)
//Storyboard Layer 1 (Fail)
//Storyboard Layer 2 (Pass)
//Storyboard Layer 3 (Foreground)
//Storyboard Layer 4 (Overlay)
//Storyboard Sound Samples
Sample,9565,0,"wafer pitched.wav",60

[TimingPoints]
629,319.148936170213,4,2,1,70,1,0
10841,-133.333333333333,4,2,1,60,0,0
21054,-100,4,2,1,65,0,0
22331,-200,4,2,1,65,0,0
22650,-66.6666666666667,4,2,1,65,0,0
22969,-100,4,2,1,65,0,0
24884,-200,4,2,1,65,0,0
25203,-100,4,2,1,65,0,0
27437,-200,4,2,1,65,0,0
27756,-66.6666666666667,4,2,1,65,0,0
28394,-100,4,2,1,65,0,0
30629,-100,4,2,1,40,0,0
31267,-90.9090909090909,4,2,1,70,0,0
41480,-111.111111111111,4,2,1,65,0,0
51691,-83.3333333333333,4,2,2,75,0,0
60919,-83.3333333333333,4,2,2,75,0,0
61905,-66.6666666666667,4,2,2,70,0,0
63182,-83.3333333333333,4,2,2,70,0,0
71440,-200,4,2,1,50,0,0
72118,-133.333333333333,4,2,1,55,0,0
82331,-166.666666666667,4,2,1,45,0,0
92543,-100,4,2,1,65,0,0
94458,-200,4,2,1,65,0,0
95735,-100,4,2,1,65,0,0
97011,-200,4,2,1,65,0,0
97650,-100,4,2,1,65,0,0
99565,-333.333333333333,4,2,1,30,0,0
99884,-100,4,2,1,65,0,0
112969,-50,4,2,1,70,0,0
113288,-100,4,2,1,70,0,0
113926,-50,4,2,1,70,0,0
114246,-200,4,2,1,70,0,0
114724,-66.6666666666667,4,2,1,70,0,0
115522,-50,4,2,1,70,0,0
115682,-100,4,2,1,70,0,0
116480,-133.333333333333,4,2,1,70,0,0
116799,-50,4,2,1,70,0,0
117277,-66.6666666666667,4,2,1,70,0,0
118075,-50,4,2,1,70,0,0
118394,-100,4,2,1,70,0,0
119033,-50,4,2,1,70,0,0
119352,-200,4,2,1,70,0,0
119831,-66.6666666666667,4,2,1,70,0,0
120629,-50,4,2,1,70,0,0
120788,-100,4,2,1,70,0,0
121586,-133.333333333333,4,2,1,70,0,0
122065,-50,4,2,1,70,0,0
122384,-66.6666666666667,4,2,1,70,0,0
123182,-133.333333333333,4,2,1,60,0,0
124139,-100,4,2,1,60,0,0
124458,-133.333333333333,4,2,1,60,0,0
125416,-100,4,2,1,60,0,0
125735,-133.333333333333,4,2,1,60,0,0
126692,-100,4,2,1,60,0,0
128288,-133.333333333333,4,2,1,60,0,0
129245,-100,4,2,1,60,0,0
129564,-133.333333333333,4,2,1,60,0,0
130522,-100,4,2,1,60,0,0
130841,-133.333333333333,4,2,1,60,0,0
131798,-100,4,2,1,60,0,0
133075,-500,4,2,1,60,0,0

[Colours]
Combo1 : 112,250,205
Combo2 : 248,254,167
Combo3 : 234,164,249
Combo4 : 249,167,117

[HitObjects]
81,29,10841,6,0,P|86:68|87:99,1,67.5000025749208,2|0,0:0|0:0,0:0:0:0:
164,152,11160,2,0,P|228:141|261:85,1,135.000005149842,0|2,0:0|0:0,0:0:0:0:
261,84,11799,5,0,0:0:0:0:
251,163,11958,1,2,0:0:0:0:
319,206,12118,1,2,0:0:0:0:
436,148,12277,1,0,0:0:0:0:
511,175,12437,2,0,B|434:177|467:204|381:229,1,135.000005149842,2|0,0:0|0:0,0:0:0:0:
389,226,12916,1,0,0:0:0:0:
436,148,13075,2,0,P|441:109|442:78,1,67.5000025749208,2|0,0:0|0:0,0:0:0:0:
264,28,13394,6,0,P|253:113|250:182,1,135.000005149842,2|0,0:0|0:0,0:0:0:0:
193,248,13873,1,0,0:0:0:0:
67,223,14033,2,0,P|15:229|-25:230,1,67.5000025749208,2|0,0:0|0:0,0:0:0:0:
140,186,14352,5,0,0:0:0:0:
120,289,14511,1,2,0:0:0:0:
186,329,14671,1,2,0:0:0:0:
285,302,14831,1,0,0:0:0:0:
244,369,14990,2,0,B|242:292|215:325|190:239,1,135.000005149842,2|0,0:0|0:0,0:0:0:0:
192,247,15629,2,0,P|187:286|186:317,1,67.5000025749208,2|0,0:0|0:0,0:0:0:0:
256,192,15948,6,0,P|251:153|250:122,1,67.5000025749208,2|0,0:0|0:0,0:0:0:0:
327,52,16267,2,0,P|391:63|424:119,1,135.000005149842,0|2,0:0|0:0,0:0:0:0:
424,119,16905,5,0,0:0:0:0:
434,198,17065,1,2,0:0:0:0:
366,241,17224,1,2,0:0:0:0:
256,192,17384,1,0,0:0:0:0:
183,221,17543,2,0,B|106:223|139:250|53:275,1,135.000005149842,2|0,0:0|0:0,0:0:0:0:
61,272,18022,1,0,0:0:0:0:
5,221,18182,2,0,P|0:182|-1:151,1,67.5000025749208,2|0,0:0|0:0,0:0:0:0:
183,221,18501,6,0,P|194:306|196:375,1,135.000005149842,2|0,0:0|0:0,0:0:0:0:
135,158,19139,2,0,P|128:106|127:65,1,67.5000025749208,2|0,0:0|0:0,0:0:0:0:
256,32,19458,5,0,0:0:0:0:
350,11,19618,1,2,0:0:0:0:
407,81,19777,1,2,0:0:0:0:
365,175,19937,1,0,0:0:0:0:
250,194,20097,2,2,B|173:196|206:223|120:248,1,135.000005149842,2|0,0:0|0:0,0:0:0:0:
129,245,21054,6,0,L|114:170,1,45,4|0,1:0|0:0,0:0:0:0:
95,104,21214,2,0,L|86:59,1,45,0|0,1:0|0:0,0:0:0:0:
29,180,21373,5,2,0:0:0:0:
199,131,21533,1,2,0:0:0:0:
411,88,21692,2,0,P|366:85|269:62,1,135,10|0,0:0|0:0,0:0:0:0:
278,65,22011,6,0,L|293:140,1,45,2|0,1:0|0:0,0:0:0:0:
318,237,22171,2,0,L|309:192,1,45,2|0,1:0|0:0,0:0:0:0:
497,37,22331,6,0,L|490:71,1,33.75,2|0,0:0|0:0,0:0:0:0:
474,143,22490,2,0,L|467:176,1,33.75,10|0,0:0|0:0,0:0:0:0:
448,251,22650,2,0,L|421:383,1,135.000005149842,2|0,1:0|0:0,0:0:0:0:
421,383,22969,6,0,P|357:369|331:310,1,135,10|0,0:0|0:0,0:0:0:0:
331,310,23288,6,0,L|256:325,1,45,0|0,1:2|0:2,0:0:0:0:
219,357,23448,2,0,L|174:348,1,45,0|0,1:0|0:0,0:0:0:0:
92,306,23607,5,0,1:0:0:0:
68,206,23766,1,2,0:0:0:0:
167,184,23926,1,2,0:0:0:0:
189,282,24086,1,2,0:0:0:0:
50,131,24246,1,8,0:0:0:0:
50,131,24565,6,0,L|65:56,1,45,2|0,1:0|0:0,0:0:0:0:
78,9,24724,1,8,0:0:0:0:
68,206,24884,5,2,0:2:0:0:
419,123,25044,2,0,L|452:129,1,22.5,0|0,1:0|0:0,0:0:0:0:
484,119,25204,2,0,L|365:145,1,90,2|0,1:2|0:0,0:0:0:0:
137,66,25522,5,10,0:0:0:0:
328,103,25682,2,0,L|244:84,1,45,0|0,1:2|0:0,0:0:0:0:
176,155,25841,2,0,L|300:127,1,90,2|0,1:2|0:0,0:0:0:0:
264,135,26160,6,0,L|249:210,1,45,4|0,1:0|0:0,0:0:0:0:
222,313,26320,2,0,L|231:269,1,45,0|0,1:0|0:0,0:0:0:0:
219,50,26479,5,2,0:0:0:0:
219,50,26639,1,0,0:0:0:0:
209,362,26798,2,0,P|202:291|177:233,1,135,10|0,0:0|0:0,0:0:0:0:
177,233,27117,6,0,L|102:248,1,45,2|0,1:0|0:0,0:0:0:0:
14,267,27277,2,0,L|58:258,1,45,2|0,1:0|0:0,0:0:0:0:
359,192,27437,6,0,L|324:185,1,33.75,2|0,0:0|0:0,0:0:0:0:
253,169,27596,2,0,L|219:162,1,33.75,10|0,0:0|0:0,0:0:0:0:
145,143,27756,2,0,L|12:116,1,135.000005149842,2|0,1:0|0:0,0:0:0:0:
12,116,28075,5,10,0:0:0:0:
210,83,28235,1,2,0:0:0:0:
49,25,28394,2,0,L|54:52,1,22.5,0|0,1:0|0:0,0:0:0:0:
256,32,30629,6,0,L|251:-1,2,30,2|0|0,0:1|0:1|0:1,0:2:0:0:
256,32,31267,6,2,L|332:48,1,49.5000015106202,6|2,1:0|0:0,0:0:0:0:
395,102,31426,2,2,L|508:72,1,99.0000030212403,0|2,1:0|0:0,0:0:0:0:
166,194,31905,2,0,P|95:184|-1:141,1,148.50000453186,10|0,0:0|0:0,0:0:0:0:
23,156,32224,6,0,L|41:243,1,49.5000015106202,2|0,1:0|0:0,0:0:0:0:
83,310,32384,2,0,L|101:222,1,49.5000015106202,2|0,1:0|0:0,0:0:0:0:
224,129,32543,5,2,0:3:0:0:
224,129,32623,1,2,0:3:0:0:
224,129,32703,1,2,0:3:0:0:
224,129,32783,1,2,0:3:0:0:
223,128,32863,2,0,P|222:209|239:289,1,148.50000453186,2|0,1:0|0:0,0:0:0:0:
186,384,33182,2,0,P|189:285|175:187,1,198.000006042481,10|0,0:0|1:0,0:0:0:0:
449,364,36373,6,2,L|432:287,1,49.5000015106202,6|2,1:0|0:0,0:0:0:0:
477,225,36532,2,2,L|447:111,2,99.0000030212403,0|2|2,1:0|0:0|0:0,0:0:0:0:
337,354,37011,2,0,P|266:344|169:301,1,148.50000453186,10|0,0:0|0:0,0:0:0:0:
194,316,37330,6,0,L|175:228,1,49.5000015106202,2|0,1:0|0:0,0:0:0:0:
85,360,37490,2,0,L|103:272,1,49.5000015106202,2|0,1:0|0:0,0:0:0:0:
28,186,37649,5,2,0:3:0:0:
28,186,37729,1,2,0:3:0:0:
28,186,37809,1,2,0:3:0:0:
28,186,37889,1,2,0:3:0:0:
27,186,37969,2,0,P|4:108|0:27,1,148.50000453186,2|0,1:0|0:0,0:0:0:0:
101,132,38288,2,0,P|125:62|164:0,1,148.50000453186,10|0,0:0|0:0,0:0:0:0:
164,0,38607,6,0,L|183:88,1,49.5000015106202,0|0,1:0|0:0,0:0:0:0:
244,92,38767,2,0,L|226:180,1,49.5000015106202,0|0,1:0|0:0,0:0:0:0:
323,171,38926,5,2,1:2:0:0:
447,204,39085,1,2,0:0:0:0:
480,80,39245,1,2,0:2:0:0:
480,80,39405,1,2,0:2:0:0:
355,45,39565,2,0,P|395:72|448:82,1,99.0000030212403,10|2,0:0|0:0,0:0:0:0:
381,255,39884,5,2,0:3:0:0:
381,255,39964,1,2,0:3:0:0:
381,255,40044,1,2,0:3:0:0:
381,255,40124,1,2,0:3:0:0:
381,255,40203,1,2,0:3:0:0:
249,294,40363,1,10,0:0:0:0:
381,255,40522,6,0,L|495:273,1,99.0000030212403,2|2,1:2|0:0,0:0:0:0:
256,192,40841,2,0,L|142:210,1,99.0000030212403,10|0,0:2|1:0,0:0:0:0:
158,207,41081,1,2,3:0:0:0:
158,207,41160,1,0,1:0:0:0:
48,366,41480,6,0,B|57:341|79:323|79:323|65:247,1,121.499996292114,4|0,1:2|0:0,0:0:0:0:
0,199,41799,2,0,B|25:207|43:229|43:229|119:216,1,121.499996292114,2|0,1:2|0:0,0:0:0:0:
197,139,42118,6,0,B|188:76|188:76|129:116,1,121.499996292114,10|0,0:2|0:0,0:0:0:0:
97,44,42437,2,0,B|92:5|92:5|133:19,1,80.9999975280763,2|0,1:2|1:0,0:0:0:0:
271,206,42756,5,2,0:3:0:0:
271,206,42836,1,2,0:3:0:0:
271,206,42916,1,2,0:3:0:0:
271,206,42996,1,2,0:3:0:0:
271,206,43075,6,0,B|283:245|318:248|318:248|337:217|390:223,1,121.499996292114,2|0,1:2|0:0,0:0:0:0:
429,263,43394,2,0,B|468:251|471:216|471:216|440:197|446:143,1,121.499996292114,10|0,0:2|0:0,0:0:0:0:
450,175,43714,5,4,3:0:0:0:
413,160,43793,5,4,3:0:0:0:
375,146,43873,5,4,3:0:0:0:
487,35,44033,6,0,P|496:76|497:114,1,80.9999975280763,6|0,1:2|0:0,0:0:0:0:
305,120,44352,1,2,0:3:0:0:
305,120,44432,1,2,0:3:0:0:
305,120,44512,1,2,0:3:0:0:
305,120,44592,1,2,0:3:0:0:
305,120,44671,6,0,B|285:93|285:93|300:32,1,80.9999975280763,10|0,0:0|0:0,0:0:0:0:
179,192,44990,2,0,B|145:187|145:187|113:133,1,80.9999975280763,2|2,1:2|3:0,0:0:0:0:
44,71,45309,1,2,0:0:0:0:
213,121,45469,1,8,0:0:0:0:
72,261,45629,1,0,1:2:0:0:
72,261,45948,2,0,P|125:265|180:287,1,80.9999975280763,8|0,0:0|1:0,0:0:0:0:
293,371,46267,2,0,P|314:324|310:249,1,121.499996292114,2|0,1:2|0:0,0:0:0:0:
269,226,46586,5,4,1:0:0:0:
267,230,46905,1,4,0:3:0:0:
256,64,49139,6,0,L|248:7,1,40.4999987640381,4|0,1:0|0:0,0:0:0:0:
206,138,49458,5,2,0:0:0:0:
309,189,50735,5,0,0:0:0:0:
309,189,51054,1,0,0:0:0:0:
238,207,51214,1,0,0:0:0:0:
233,279,51373,1,0,0:0:0:0:
294,317,51533,1,0,0:0:0:0:
431,240,51692,6,0,P|432:214|416:180,1,53.9999983520508,4|0,1:0|0:0,0:0:0:0:
367,347,51852,2,0,P|391:334|408:313,1,53.9999983520508,0|0,1:0|0:0,0:0:0:0:
366,135,52011,1,0,0:0:0:0:
256,120,52171,1,0,0:0:0:0:
0,297,52331,6,0,B|108:265|70:311|171:289,1,161.999995056153,10|0,0:0|0:0,0:0:0:0:
220,241,52650,6,0,P|230:208|227:180,1,53.9999983520508,0|0,1:2|0:0,0:0:0:0:
175,128,52809,2,0,P|156:110|132:98,1,53.9999983520508,0|0,1:2|0:0,0:0:0:0:
8,146,52969,6,0,P|28:129|53:120,1,53.9999983520508,0|0,0:2|0:0,0:0:0:0:
105,178,53129,2,0,P|130:189|149:208,1,53.9999983520508,0|0,3:2|3:0,0:0:0:0:
234,317,53288,2,0,P|312:319|366:261,1,161.999995056153,8|0,1:0|0:0,0:0:0:0:
370,265,53607,6,0,P|361:319|357:384,1,107.999996704102,10|0,0:0|0:0,0:0:0:0:
480,331,53926,2,0,P|490:298|487:270,1,53.9999983520508,0|0,1:2|0:0,0:0:0:0:
443,215,54085,2,0,P|423:196|399:184,1,53.9999983520508,0|0,1:2|0:0,0:0:0:0:
285,247,54246,6,0,P|247:212|240:148,1,107.999996704102,0|0,1:2|0:0,0:0:0:0:
413,48,54565,1,0,3:0:0:0:
436,60,54644,1,0,3:0:0:0:
453,79,54724,1,0,3:0:0:0:
464,104,54804,1,0,3:0:0:0:
466,131,54884,1,10,3:2:0:0:
466,131,55203,6,0,P|446:149|422:161,1,53.9999983520508,0|0,1:2|0:0,0:0:0:0:
328,120,55363,1,8,0:0:0:0:
328,120,55442,1,0,3:0:0:0:
328,120,55522,1,0,3:0:0:0:
236,56,55682,2,0,P|212:43|185:38,1,53.9999983520508,0|0,1:2|0:0,0:0:0:0:
107,53,55841,2,0,P|61:80|42:138,1,107.999996704102,2|0,1:0|0:0,0:0:0:0:
88,216,56160,5,10,0:0:0:0:
184,231,56320,1,0,1:2:0:0:
244,154,56480,1,0,1:2:0:0:
236,56,56640,1,0,0:0:0:0:
351,218,56799,6,0,P|377:219|411:203,1,53.9999983520508,4|0,1:0|0:0,0:0:0:0:
244,154,56959,2,0,P|257:178|278:195,1,53.9999983520508,0|0,1:0|0:0,0:0:0:0:
351,177,57118,1,0,0:0:0:0:
440,122,57278,1,0,0:0:0:0:
157,146,57438,6,0,B|44:143|93:177|-10:195,1,161.999995056153,10|0,0:0|0:0,0:0:0:0:
123,230,57757,6,0,P|113:263|116:291,1,53.9999983520508,0|0,1:2|0:0,0:0:0:0:
168,343,57916,2,0,P|187:361|211:373,1,53.9999983520508,0|0,1:2|0:0,0:0:0:0:
335,325,58076,6,0,P|315:342|290:351,1,53.9999983520508,0|0,0:2|3:0,0:0:0:0:
238,293,58236,2,0,P|213:282|194:263,1,53.9999983520508,0|0,3:2|3:0,0:0:0:0:
328,144,58395,2,0,P|389:192|393:271,1,161.999995056153,2|0,1:3|0:0,0:0:0:0:
393,271,58714,6,0,P|447:262|512:258,1,107.999996704102,10|0,0:0|0:0,0:0:0:0:
416,104,59033,2,0,P|390:80|363:71,1,53.9999983520508,0|0,1:2|0:0,0:0:0:0:
284,77,59192,2,0,P|265:97|253:121,1,53.9999983520508,0|0,1:2|0:0,0:0:0:0:
161,196,59353,6,0,P|109:198|59:157,1,107.999996704102,0|0,1:2|0:0,0:0:0:0:
107,14,59672,1,0,3:0:0:0:
132,15,59751,1,0,3:0:0:0:
156,25,59831,1,0,3:0:0:0:
176,43,59911,1,0,3:0:0:0:
190,66,59990,1,10,3:2:0:0:
190,65,60309,6,0,P|179:90|176:117,1,53.9999983520508,0|0,1:2|0:0,0:0:0:0:
222,195,60470,1,8,0:0:0:0:
222,195,60549,1,0,3:0:0:0:
222,195,60629,1,0,3:0:0:0:
278,251,60788,2,0,P|301:263|328:268,1,53.9999983520508,0|0,1:2|0:0,0:0:0:0:
406,247,60948,2,0,P|451:219|474:171,1,107.999996704102,8|0,1:3|0:0,0:0:0:0:
385,57,61267,5,10,0:0:0:0:
265,80,61427,1,0,1:2:0:0:
222,195,61587,1,0,1:2:0:0:
328,268,61747,1,0,0:0:0:0:
197,119,61905,6,0,B|105:162|103:81|-13:151,1,202.500007724762,4|0,1:0|0:0,0:0:0:0:
6,100,62224,2,0,B|98:143|100:62|216:132,1,202.500007724762,4|0,1:0|0:0,0:0:0:0:
305,187,62543,1,10,0:0:0:0:
297,199,62863,6,0,P|312:178|295:197,1,67.5000025749208,0|0,1:0|0:0,0:0:0:0:
224,225,63022,2,0,P|209:246|226:227,1,67.5000025749208,0|0,1:0|0:0,0:0:0:0:
396,194,63182,5,0,3:3:0:0:
395,169,63261,1,0,3:3:0:0:
385,145,63341,1,0,3:3:0:0:
367,125,63421,1,0,3:3:0:0:
344,111,63501,1,0,3:3:0:0:
344,111,63820,2,0,P|404:121|458:124,1,107.999996704102,10|0,0:0|0:0,0:0:0:0:
264,31,64139,5,4,3:0:0:0:
227,46,64218,5,4,3:0:0:0:
189,60,64298,5,4,3:0:0:0:
0,113,64458,6,0,P|54:110|107:98,1,107.999996704102,4|0,1:0|0:0,0:0:0:0:
224,225,64777,1,0,3:0:0:0:
224,225,64857,1,0,3:0:0:0:
224,225,64937,1,0,3:0:0:0:
224,225,65017,1,0,3:0:0:0:
224,225,65096,2,0,P|171:198|89:200,1,107.999996704102,10|0,0:0|0:0,0:0:0:0:
0,321,65416,5,0,1:0:0:0:
155,360,65575,1,8,0:0:0:0:
278,299,65734,1,4,0:0:0:0:
328,210,65894,1,8,0:0:0:0:
276,150,66054,1,0,1:2:0:0:
276,150,66373,2,0,P|329:146|384:124,1,107.999996704102,10|0,0:0|1:0,0:0:0:0:
198,130,66692,2,0,P|145:134|90:156,1,107.999996704102,0|0,1:2|0:0,0:0:0:0:
276,14,67011,5,4,1:0:0:0:
241,52,67330,1,4,0:3:0:0:
293,42,67650,1,2,1:2:0:0:
240,17,67969,6,0,P|256:56|273:75,1,53.9999983520508,0|0,1:0|0:0,0:0:0:0:
325,113,68129,2,0,P|364:97|383:80,1,53.9999983520508,0|0,1:0|0:0,0:0:0:0:
491,217,68288,5,0,3:2:0:0:
477,195,68367,1,0,3:0:0:0:
456,179,68447,1,0,3:0:0:0:
430,170,68527,1,0,3:0:0:0:
403,170,68607,1,0,3:2:0:0:
403,170,68926,2,0,P|364:201|305:218,1,107.999996704102,10|0,0:0|0:0,0:0:0:0:
264,353,69245,5,4,3:0:0:0:
227,338,69324,5,4,3:0:0:0:
189,324,69404,5,4,3:0:0:0:
0,336,69564,6,0,P|53:333|106:321,1,107.999996704102,4|0,1:0|0:0,0:0:0:0:
236,254,69883,1,0,3:0:0:0:
236,254,69963,1,0,3:0:0:0:
236,254,70043,1,0,3:0:0:0:
236,254,70123,1,0,3:0:0:0:
236,254,70202,2,0,P|183:227|63:213,1,161.999995056153,10|0,0:0|0:0,0:0:0:0:
4,186,70522,5,0,1:0:0:0:
106,322,70681,1,8,0:0:0:0:
228,246,70840,1,4,0:0:0:0:
241,151,71000,1,8,0:0:0:0:
178,108,71160,1,0,1:2:0:0:
178,108,71440,6,0,L|175:83,1,22.5,2|0,0:1|0:0,0:0:0:0:
241,43,71599,6,0,L|238:18,1,22.5,2|0,0:1|0:0,0:0:0:0:
317,98,71759,6,0,L|314:73,1,22.5,2|0,0:1|0:0,0:0:0:0:
371,22,71918,6,0,L|368:-3,1,22.5,2|0,0:1|0:0,0:0:0:0:
440,97,72078,5,2,0:1:0:0:
440,97,72118,6,0,P|454:152|456:241,2,135.000005149842,4|2|0,1:0|0:0|0:0,0:0:0:0:
72,97,73075,1,0,1:0:0:0:
72,97,73235,1,0,1:0:0:0:
72,97,73394,2,0,P|58:152|56:241,2,135.000005149842,2|0|0,0:0|1:0|0:0,0:0:0:0:
148,36,74192,1,2,0:0:0:0:
148,36,74352,2,0,P|162:71|161:120,1,67.5000025749208,0|0,1:0|1:0,0:0:0:0:
256,46,74671,6,0,P|311:60|400:62,2,135.000005149842,2|0|2,1:2|0:0|0:0,0:0:0:0:
186,199,75628,1,0,1:0:0:0:
132,337,75947,2,0,P|77:323|-12:321,2,135.000005149842,2|0|0,0:0|1:0|0:0,0:0:0:0:
212,279,76745,1,2,1:2:0:0:
212,279,76905,1,0,1:0:0:0:
72,97,77224,6,0,P|58:152|56:241,2,135.000005149842,2|2|0,1:0|0:0|0:0,0:0:0:0:
440,97,78181,1,0,1:0:0:0:
440,97,78341,1,0,1:0:0:0:
440,97,78500,2,0,P|454:152|456:241,2,135.000005149842,2|0|0,0:0|1:0|0:0,0:0:0:0:
364,36,79298,1,2,0:0:0:0:
364,36,79458,2,0,P|350:71|351:120,1,67.5000025749208,0|0,1:0|1:0,0:0:0:0:
256,46,79777,6,0,P|201:60|112:62,2,135.000005149842,2|0|2,1:2|0:0|0:0,0:0:0:0:
326,199,80735,1,0,1:0:0:0:
380,337,81053,2,0,P|413:328|466:327,1,67.5000025749208,2|0,0:0|1:0,0:0:0:0:
310,281,81373,2,0,P|257:294|171:296,1,135.000005149842,2|0,1:2|0:0,0:0:0:0:
89,356,81852,1,0,1:0:0:0:
89,356,82011,1,0,1:0:0:0:
212,220,82331,6,0,P|215:186|212:153,1,53.9999983520508,0|0,1:0|1:0,0:0:0:0:
366,64,83288,6,0,P|363:37|364:10,1,53.9999983520508,0|0,1:0|1:0,0:0:0:0:
353,84,83767,2,0,P|355:110|354:137,1,53.9999983520508,0|0,0:0|1:0,0:0:0:0:
122,213,84565,6,0,P|119:239|120:266,2,53.9999983520508,0|0|0,1:0|1:0|1:0,0:0:0:0:
112,284,85682,2,0,P|114:310|113:337,1,53.9999983520508,0|0,0:0|1:0,0:0:0:0:
358,374,86320,6,0,P|355:347|356:320,1,53.9999983520508,0|0,1:0|1:0,0:0:0:0:
205,134,86958,6,0,P|207:107|206:80,1,53.9999983520508,0|0,1:0|1:0,0:0:0:0:
300,164,87437,6,0,P|297:198|300:231,1,53.9999983520508,0|0,1:0|1:0,0:0:0:0:
146,320,88394,6,0,P|149:347|148:374,1,53.9999983520508,0|0,1:0|1:0,0:0:0:0:
159,300,88873,2,0,P|157:274|158:247,1,53.9999983520508,0|0,0:0|1:0,0:0:0:0:
390,171,89671,6,0,P|393:145|392:118,1,53.9999983520508,0|0,1:0|1:0,0:0:0:0:
256,192,89990,12,0,92464,0:0:0:0:
464,112,92543,6,0,P|431:42|318:35,2,180,4|2|10,1:2|0:0|0:0,0:0:0:0:
422,191,93341,1,2,0:0:0:0:
332,181,93501,1,0,1:0:0:0:
295,99,93660,1,0,1:0:0:0:
330,187,93820,6,0,B|448:206|390:246|513:268,1,180,2|0,0:0|1:0,0:0:0:0:
504,186,94299,1,2,0:0:0:0:
269,261,94458,6,0,L|177:244,1,90,10|0,0:0|1:0,0:0:0:0:
180,245,94937,1,0,1:0:0:0:
42,326,95097,5,2,1:2:0:0:
42,326,95416,2,0,P|50:298|49:276,1,45
9,201,95735,5,10,0:0:0:0:
62,128,95894,1,2,0:0:0:0:
151,138,96054,1,0,1:0:0:0:
193,217,96213,1,8,0:0:0:0:
258,167,96373,6,0,B|239:49|199:107|177:-16,1,180,2|0,0:0|1:0,0:0:0:0:
257,58,96852,1,2,0:0:0:0:
269,261,97011,6,0,L|252:352,1,90,10|0,0:0|1:0,0:0:0:0:
253,349,97650,6,0,P|340:346|367:240,1,180,4|2,1:2|0:0,0:0:0:0:
376,269,98288,1,10,0:0:0:0:
460,241,98448,1,2,0:0:0:0:
487,155,98608,1,0,1:0:0:0:
428,87,98767,1,0,1:0:0:0:
341,111,98927,6,0,B|223:130|281:170|158:192,1,180,2|0,0:0|1:0,0:0:0:0:
77,155,99406,1,2,0:0:0:0:
256,46,99565,6,0,P|254:78|252:102,1,53.9999983520508,2|0,0:0|1:0,0:0:0:0:
228,289,100044,1,0,1:0:0:0:
241,376,100203,6,0,P|248:303|257:181,1,180,0|0,1:0|0:0,0:0:0:0:
256,192,107863,12,4,110416,3:0:0:0:
101,348,112969,6,0,P|85:312|98:234,1,90,4|0,1:0|0:0,0:0:0:0:
101,270,113129,2,0,P|127:241|203:219,1,90,2|0,1:2|0:0,0:0:0:0:
194,95,113288,6,0,P|205:132|264:184,1,90,2|2,0:2|0:0,0:0:0:0:
438,0,113607,2,0,P|468:33|483:76,1,90,10|0,0:2|0:0,0:0:0:0:
296,11,113926,6,0,P|281:47|293:125,1,90,2|0,1:2|0:0,0:0:0:0:
296,89,114086,2,0,P|322:117|398:139,1,90,2|0,1:2|0:0,0:0:0:0:
205,15,114246,6,0,P|165:35|119:38,1,90,6|0,0:2|1:0,0:0:0:0:
261,244,114724,6,0,P|246:311|242:420,2,135.000005149842,8|8|0,0:2|0:0|0:0,0:0:0:0:
248,384,115203,1,0,1:0:0:0:
248,384,115363,1,0,1:0:0:0:
335,202,115522,6,0,P|374:222|419:226,1,90,0|0,1:0|0:0,0:0:0:0:
454,153,115682,2,0,P|474:113|478:68,2,90,8|2|0,0:0|0:0|0:0,0:0:0:0:
261,244,116160,2,0,P|233:208|194:186,1,90,8|2,0:0|0:0,0:0:0:0:
39,22,116480,6,0,P|28:41|26:64,1,33.7500012874604,8|0,0:0|0:0,0:0:0:0:
110,47,116639,2,0,P|105:68|92:87,2,33.7500012874604,8|0|4,0:0|0:0|0:0,0:0:0:0:
0,227,116958,6,0,P|35:242|113:230,1,90,2|0,1:2|0:0,0:0:0:0:
77,226,117118,2,0,P|104:200|126:124,1,90,2|0,1:2|0:0,0:0:0:0:
261,140,117277,6,0,P|246:73|242:-36,2,135.000005149842,8|8|0,0:2|0:0|0:0,0:0:0:0:
249,14,117756,1,0,1:0:0:0:
249,14,117916,1,0,1:0:0:0:
469,44,118075,6,0,P|485:80|472:158,1,90,4|0,1:0|0:0,0:0:0:0:
469,122,118235,2,0,P|443:151|367:173,1,90,2|0,1:2|0:0,0:0:0:0:
257,222,118394,6,0,P|241:257|253:335,1,90,2|2,0:2|0:0,0:0:0:0:
436,272,118713,2,0,P|437:316|421:359,1,90,10|0,0:2|0:0,0:0:0:0:
167,299,119033,6,0,P|143:329|69:358,1,90,2|0,1:2|2:0,2:0:0:0:
98,337,119192,2,0,P|60:328|3:273,1,90,2|0,1:2|2:0,2:0:0:0:
257,222,119352,6,0,P|297:242|343:245,1,90,6|0,0:2|1:0,0:0:0:0:
167,33,119831,6,0,P|100:48|-9:52,2,135.000005149842,8|8|0,0:2|0:0|0:0,0:0:0:0:
42,62,120309,1,0,1:0:0:0:
42,62,120469,1,0,1:0:0:0:
236,94,120629,6,0,P|265:126|306:145,1,90,0|0,1:0|0:0,0:0:0:0:
359,91,120789,2,0,P|391:60|410:19,2,90,8|2|0,0:0|0:0|0:0,0:0:0:0:
413,248,121266,2,0,P|388:209|381:165,1,90,8|2,0:0|0:0,0:0:0:0:
495,380,121586,6,0,P|506:361|508:338,1,33.7500012874604,8|0,0:0|0:0,0:0:0:0:
424,355,121745,2,0,P|429:334|442:315,2,33.7500012874604,8|0|4,0:0|0:0|0:0,0:0:0:0:
310,245,122065,6,0,P|272:253|198:226,1,90,2|0,1:2|0:0,0:0:0:0:
234,229,122224,2,0,P|213:197|205:119,1,90,2|0,1:2|0:0,0:0:0:0:
345,33,122384,6,0,P|412:48|521:52,2,135.000005149842,8|8|0,0:2|0:0|1:0,0:0:0:0:
486,62,122862,1,0,1:0:0:0:
486,62,123022,1,8,0:0:0:0:
202,146,123182,6,0,P|198:79|238:27,1,135.000005149842,4|2,1:0|0:0,0:0:0:0:
145,90,123820,2,0,P|116:115|81:121,1,67.5000025749208,10|0,0:0|0:0,0:0:0:0:
72,201,124139,2,0,P|50:194|32:181,1,45,2|0,1:2|0:0,0:0:0:0:
0,172,124299,2,0,P|-2:149|1:127,1,45,2|0,1:2|0:0,0:0:0:0:
150,209,124458,6,0,P|154:253|140:350,2,135.000005149842,2|0|8,0:0|1:0|0:0,0:0:0:0:
257,140,125416,2,0,P|278:146|296:159,1,45,2|0,1:2|0:0,0:0:0:0:
344,174,125576,2,0,P|350:195|350:217,1,45,2|0,1:2|0:0,0:0:0:0:
384,286,125735,6,0,P|472:279|499:218,1,135.000005149842,4|2,1:0|0:0,0:0:0:0:
362,36,126373,2,0,P|337:65|331:100,1,67.5000025749208,10|0,0:0|0:0,0:0:0:0:
494,123,126692,2,0,P|474:112|451:109,1,45,2|0,1:2|0:0,0:0:0:0:
400,138,126852,1,8,0:0:0:0:
266,36,127011,6,0,P|223:51|179:54,1,90,2|0,0:0|1:0,0:0:0:0:
86,164,127331,2,0,P|41:160|0:145,2,90,2|0|8,1:2|0:0|0:0,0:0:0:0:
201,280,127809,6,0,P|211:260|214:237,1,45,2|0,1:2|0:0,0:0:0:0:
237,193,127969,2,0,P|210:157|169:142,1,90,2|0,1:2|0:0,0:0:0:0:
169,142,128288,6,0,P|225:178|304:145,1,135.000005149842,4|2,1:0|0:0,0:0:0:0:
503,214,128926,2,0,P|474:239|439:245,1,67.5000025749208,10|0,0:0|0:0,0:0:0:0:
398,307,129245,2,0,P|376:300|358:287,1,45,2|0,1:2|0:0,0:0:0:0:
326,278,129405,2,0,P|323:255|327:233,1,45,2|0,1:2|0:0,0:0:0:0:
434,31,129564,6,0,P|445:97|442:165,2,135.000005149842,2|0|8,0:0|1:0|0:0,0:0:0:0:
268,138,130522,2,0,P|249:150|227:155,1,45,2|0,1:2|0:0,0:0:0:0:
186,182,130682,2,0,P|165:173|148:158,1,45,2|0,1:2|0:0,0:0:0:0:
74,141,130841,6,0,P|22:212|52:272,1,135.000005149842,4|2,1:0|0:0,0:0:0:0:
239,294,131479,2,0,P|255:259|252:224,1,67.5000025749208,10|0,0:0|0:0,0:0:0:0:
66,319,131798,2,0,P|85:329|108:332,1,45,2|0,1:2|0:0,0:0:0:0:
160,304,131958,1,8,0:0:0:0:
318,347,132117,6,0,P|360:331|404:328,1,90,2|0,0:0|1:0,0:0:0:0:
502,194,132437,1,0,1:0:0:0:
502,194,132597,1,0,0:0:0:0:
11,189,133075,6,0,L|46:182,1,36,0|4,0:0|1:0,0:0:0:0:
