osu file format v14

[General]
AudioFilename: audio.mp3
AudioLeadIn: 0
PreviewTime: -1
Countdown: 1
SampleSet: Normal
StackLeniency: 0.7
Mode: 0
LetterboxInBreaks: 0
WidescreenStoryboard: 0

[Editor]
DistanceSpacing: 1.1
BeatDivisor: 4
GridSize: 32
TimelineZoom: 1.5

[Metadata]
Title:Billy
TitleUnicode:Billy
Artist:6ix9ine
ArtistUnicode:6ix9ine
Creator:xPray
Version:nword
Source:
Tags:
BeatmapID:1610996
BeatmapSetID:766309

[Difficulty]
HPDrainRate:7
CircleSize:4
OverallDifficulty:8
ApproachRate:9.6
SliderMultiplier:3.5
SliderTickRate:1

[Events]
//Background and Video events
//Break Periods
//Storyboard Layer 0 (Background)
//Storyboard Layer 1 (Fail)
//Storyboard Layer 2 (Pass)
//Storyboard Layer 3 (Foreground)
//Storyboard Layer 4 (Overlay)
//Storyboard Sound Samples

[TimingPoints]
40161,333.333333333333,4,1,0,100,1,0
42160,-200,4,1,0,100,0,0
43827,-100,4,1,0,100,0,0

[HitObjects]
169,339,25661,2,0,B|98:265|97:181|71:102,2,175
169,339,26161,1,0,0:0:0:0:
326,247,26327,1,0,0:0:0:0:
169,339,26494,1,0,0:0:0:0:
167,172,26661,6,0,L|276:320,1,175
365,145,26994,1,0,0:0:0:0:
426,271,27161,1,0,0:0:0:0:
385,261,27244,1,0,0:0:0:0:
345,247,27327,5,0,0:0:0:0:
308,227,27410,1,0,0:0:0:0:
277,199,27494,1,0,0:0:0:0:
253,165,27577,1,0,0:0:0:0:
232,128,27660,1,0,0:0:0:0:
206,95,27744,1,0,0:0:0:0:
169,78,27827,1,0,0:0:0:0:
128,87,27910,1,0,0:0:0:0:
95,112,27994,5,0,0:0:0:0:
203,253,28161,1,0,0:0:0:0:
387,72,28327,1,0,0:0:0:0:
242,217,28494,1,0,0:0:0:0:
439,278,28661,5,0,0:0:0:0:
387,82,28827,1,0,0:0:0:0:
246,207,28994,1,0,0:0:0:0:
116,77,29161,1,0,0:0:0:0:
251,333,29327,1,0,0:0:0:0:
441,103,29494,5,0,0:0:0:0:
107,160,29661,1,0,0:0:0:0:
444,263,29827,1,0,0:0:0:0:
246,49,29994,2,0,P|245:139|299:201,1,175
321,187,30327,2,0,P|322:277|268:339,2,175
95,65,30827,5,0,0:0:0:0:
142,262,30994,1,0,0:0:0:0:
252,73,31161,1,0,0:0:0:0:
327,265,31327,1,0,0:0:0:0:
74,261,31494,1,0,0:0:0:0:
327,265,31661,1,0,0:0:0:0:
416,266,31827,2,0,P|459:175|405:85,1,175
202,106,32161,6,0,P|159:197|213:287,1,175
297,206,32494,2,0,P|340:115|286:25,1,175
108,41,32827,2,0,P|65:132|119:222,3,175
194,116,33494,5,0,0:0:0:0:
426,295,33827,1,0,0:0:0:0:
73,70,34161,1,0,0:0:0:0:
218,325,34494,5,0,0:0:0:0:
395,89,34827,1,0,0:0:0:0:
86,67,35161,1,0,0:0:0:0:
425,311,35327,1,0,0:0:0:0:
161,277,35494,5,0,0:0:0:0:
318,117,35661,1,0,0:0:0:0:
318,117,35744,1,0,0:0:0:0:
318,117,35827,1,0,0:0:0:0:
321,122,35911,1,0,0:0:0:0:
325,125,35994,2,0,P|335:222|288:296,1,175
97,90,36327,6,0,P|209:90|280:88,1,175
268,131,36661,2,0,L|152:329,11,175
121,257,38661,2,0,B|99:91|99:91|214:223|214:223|179:0,1,525
238,343,39327,1,0,0:0:0:0:
398,74,39494,5,0,0:0:0:0:
106,176,39661,1,0,0:0:0:0:
388,268,39827,1,0,0:0:0:0:
60,108,39994,1,0,0:0:0:0:
140,216,40161,6,0,L|246:373,2,175
53,88,40661,1,0,0:0:0:0:
177,219,40827,2,0,L|283:376,2,175
86,92,41328,1,0,0:0:0:0:
400,95,41494,5,0,0:0:0:0:
247,347,41660,2,0,L|141:190,1,175
55,70,41994,2,0,L|154:48,1,87.5
305,26,42160,2,0,L|273:122,9,87.5
221,271,43827,2,0,L|414:333,1,175
109,203,44161,5,0,0:0:0:0:
491,89,44327,2,0,L|297:151,2,175
260,64,44828,1,0,0:0:0:0:
419,308,44994,1,0,0:0:0:0:
116,332,45161,1,0,0:0:0:0:
250,63,45328,5,0,0:0:0:0:
399,269,45494,1,0,0:0:0:0:
252,59,45661,1,0,0:0:0:0:
133,261,45828,1,0,0:0:0:0:
250,63,45994,1,0,0:0:0:0:
369,211,46161,5,0,0:0:0:0:
250,63,46328,1,0,0:0:0:0:
362,324,46494,1,0,0:0:0:0:
362,324,46661,2,0,L|207:209,1,175
156,66,47161,2,0,B|123:90|87:130|86:204|27:285|193:317|246:240|228:163|188:137|140:155|103:162|115:182,1,350
266,68,47661,5,0,0:0:0:0:
99,299,47828,1,0,0:0:0:0:
188,93,47994,2,0,L|55:235,1,175
438,117,48328,2,0,B|373:63|315:127|315:165|348:215|409:206|432:176|436:117|434:217|428:371,1,350
231,351,48827,1,0,0:0:0:0:
65,147,49161,5,0,0:0:0:0:
246,320,49328,2,0,L|395:194,1,175
418,50,49828,2,0,L|275:182,1,175
270,316,50161,2,0,B|181:318|121:263|250:257|257:287|298:292|323:240|411:287|374:350|284:328|255:328|268:21,1,525
434,286,50828,1,0,0:0:0:0:
168,218,50994,5,0,0:0:0:0:
294,65,51161,2,0,L|386:213,2,175
251,221,51827,2,0,B|278:70|278:70|363:234|363:234|402:49,1,525
50,87,52494,2,0,L|128:169,1,87.5
288,320,52827,1,0,0:0:0:0:
50,87,52994,5,0,0:0:0:0:
142,61,53160,2,0,L|164:252,1,175
175,337,53494,1,0,0:0:0:0:
281,52,53660,2,0,L|309:228,1,175
398,320,53994,2,0,L|375:132,1,175
144,296,54494,5,0,0:0:0:0:
286,65,54660,2,0,L|189:217,1,175
286,65,54994,1,0,0:0:0:0:
428,296,55160,2,0,L|331:144,2,175
113,147,55660,1,0,0:0:0:0:
390,56,55827,5,0,0:0:0:0:
422,299,55994,1,0,0:0:0:0:
367,60,56160,1,0,0:0:0:0:
136,207,56327,1,0,0:0:0:0:
375,301,56494,1,0,0:0:0:0:
374,40,56660,2,0,L|242:187,1,175
114,56,57160,5,0,0:0:0:0:
205,331,57327,2,0,L|310:168,1,175
386,59,57660,1,0,0:0:0:0:
114,56,57827,2,0,L|175:247,1,175
216,342,58160,2,0,L|403:341,1,175
259,46,58494,5,0,0:0:0:0:
133,224,58660,1,0,0:0:0:0:
444,83,58827,2,0,L|445:273,1,175
156,46,59160,1,0,0:0:0:0:
237,326,59327,1,0,0:0:0:0:
424,142,59494,5,0,0:0:0:0:
167,106,59660,2,0,L|290:260,1,175
413,36,59994,1,0,0:0:0:0:
166,57,60160,1,0,0:0:0:0:
