osu file format v14

[General]
AudioFilename: NIIA-HALL Disco.mp3
AudioLeadIn: 0
PreviewTime: 50587
Countdown: 0
SampleSet: Normal
StackLeniency: 0.7
Mode: 0
LetterboxInBreaks: 0
WidescreenStoryboard: 0

[Editor]
Bookmarks: 49770,50342,51650
DistanceSpacing: 1
BeatDivisor: 4
GridSize: 4
TimelineZoom: 1.3

[Metadata]
Title:NIIA-HALL Disco
TitleUnicode:NIIA-HALL Disco
Artist:6XeNoN9
ArtistUnicode:6XeNoN9
Creator:Musty
Version:Hard
Source:
Tags:Mamoru Has Been Cursed! YO-KAI まもるクンは呪われてしまった!
BeatmapID:691180
BeatmapSetID:210431

[Difficulty]
HPDrainRate:7
CircleSize:3
OverallDifficulty:6
ApproachRate:8
SliderMultiplier:1.7
SliderTickRate:1

[Events]
//Background and Video events
Video,-98,"niahall.flv"
0,0,"niahallbg.png",0,0
//Break Periods
//Storyboard Layer 0 (Background)
//Storyboard Layer 1 (Fail)
//Storyboard Layer 2 (Pass)
//Storyboard Layer 3 (Foreground)
//Storyboard Sound Samples

[TimingPoints]
250,326.868598823273,4,1,0,100,1,0
413,-133.333333333333,4,1,0,100,0,0
3518,-100,4,1,0,80,0,0
24438,-100,4,1,0,80,0,0
27543,-66.6666666666667,4,1,0,80,0,0
27870,-100,4,1,0,80,0,0
29014,-133.333333333333,4,1,0,80,0,0
29341,-100,4,1,0,80,0,0
36532,-66.6666666666667,4,1,0,80,0,0
36859,-100,4,1,0,80,0,0
50587,-66.6666666666667,4,1,0,80,0,1
71507,-100,4,1,0,80,0,0

[HitObjects]
64,112,413,6,0,P|184:96|192:208,1,255.000009727478,0|0,0:0|2:0,0:0:0:0:
107,211,1230,2,0,P|192:288|284:208,1,255.000009727478,0|0,0:0|2:0,0:0:0:0:
283,211,2047,1,4,0:0:0:0:
256,192,2211,12,0,3191,0:0:0:0:
84,68,3518,5,6,0:0:0:0:
84,68,3845,2,0,P|72:172|144:220,1,170,8|0,0:0|0:0,0:0:0:0:
204,160,4335,1,0,0:0:0:0:
288,104,4499,2,0,P|338:168|317:247,1,170,8|0,0:0|0:0,0:0:0:0:
220,280,4989,1,0,0:0:0:0:
124,312,5153,1,8,0:0:0:0:
32,192,5479,1,0,0:0:0:0:
136,60,5806,1,8,0:0:0:0:
340,60,6133,6,0,P|424:64|492:16,2,170,2|8|2,0:0|0:0|0:0,0:0:0:0:
248,36,6950,1,0,0:0:0:0:
264,128,7114,1,8,0:0:0:0:
428,216,7604,6,0,P|368:248|324:244,1,85,2|8,0:0|0:0,0:0:0:0:
112,300,8094,2,0,P|172:264|268:296,1,170,2|10,0:0|0:0,0:0:0:0:
360,168,8748,5,4,0:0:0:0:
284,128,8912,1,0,0:0:0:0:
200,144,9075,1,8,0:0:0:0:
200,144,9238,2,0,P|128:120|96:100,1,85
232,224,9565,2,0,P|304:248|336:268,1,85,0|8,0:0|0:0,0:0:0:0:
360,332,9892,1,0,0:0:0:0:
436,276,10056,2,0,L|424:188,1,85
496,132,10382,2,0,P|452:24|388:24,2,170,8|0|8,0:0|0:0|0:0,0:0:0:0:
332,176,11363,5,0,0:0:0:0:
248,172,11526,2,0,L|236:120,2,42.5,0|0|8,0:0|0:0|0:0,0:0:0:0:
284,248,11853,1,0,0:0:0:0:
212,292,12017,2,0,P|96:296|40:232,1,170,0|8,0:0|0:0,0:0:0:0:
8,196,12507,1,0,0:0:0:0:
76,144,12671,2,0,L|48:20,2,127.5,0|2|0,0:0|0:0|0:0,0:0:0:0:
156,116,13324,5,4,0:0:0:0:
236,88,13488,1,0,0:0:0:0:
288,156,13651,1,10,0:0:0:0:
372,172,13815,1,0,0:0:0:0:
404,88,13978,6,0,P|460:160|416:248,1,170,4|8,0:0|0:0,0:0:0:0:
376,284,14468,1,0,0:0:0:0:
340,364,14632,2,0,P|284:292|308:224,1,170,0|8,0:0|0:0,0:0:0:0:
372,172,15122,1,0,0:0:0:0:
292,144,15285,1,4,0:0:0:0:
196,256,15612,1,8,0:0:0:0:
24,252,15939,2,0,L|8:156,2,85,0|0|8,0:0|0:0|0:0,0:0:0:0:
100,304,16429,1,0,0:0:0:0:
176,256,16593,5,2,0:0:0:0:
176,256,16756,1,0,0:0:0:0:
232,320,16920,1,10,0:0:0:0:
232,320,17083,1,0,0:0:0:0:
308,280,17247,2,0,L|416:284,1,85,2|0,0:0|0:0,0:0:0:0:
468,244,17574,2,0,L|484:283,2,42.5,8|0|0,0:0|0:0|0:0,0:0:0:0:
396,196,17900,2,0,P|300:140|152:220,1,255,6|0,0:0|0:0,0:0:0:0:
120,256,18554,2,0,P|52:232|36:200,1,85,4|0,0:0|0:0,0:0:0:0:
68,140,18881,1,12,0:0:0:0:
200,32,19208,6,0,P|208:92|312:132,1,170,4|8,0:0|0:0,0:0:0:0:
372,92,19698,1,0,0:0:0:0:
368,176,19862,2,0,L|356:268,1,85
432,296,20188,2,0,L|456:120,1,170,8|0,0:0|0:0,0:0:0:0:
396,64,20679,6,0,L|404:20,2,42.5,0|0|8,0:0|0:0|0:0,0:0:0:0:
364,144,21006,1,0,0:0:0:0:
292,192,21169,2,0,P|252:228|236:264,1,85
236,340,21496,1,8,0:0:0:0:
52,336,21823,6,0,P|80:272|72:232,1,85
56,176,22150,1,8,0:0:0:0:
20,100,22313,2,0,P|92:56|188:92,1,170
180,160,22803,2,0,P|244:240|256:248,1,85,8|0,0:0|0:0,0:0:0:0:
320,240,23130,5,0,0:0:0:0:
408,188,23294,1,0,0:0:0:0:
408,288,23457,1,8,0:0:0:0:
492,112,23784,5,0,0:0:0:0:
392,88,23947,1,0,0:0:0:0:
468,20,24111,1,8,0:0:0:0:
264,44,24438,6,0,P|208:104|116:88,1,170,0|8,0:0|0:0,0:0:0:0:
32,56,24928,2,0,L|20:16,2,42.5
52,156,25255,2,0,L|48:256,1,85,0|8,0:0|0:0,0:0:0:0:
144,356,25582,2,0,L|140:268,1,85
180,176,25909,1,0,0:0:0:0:
276,208,26072,1,8,0:0:0:0:
236,304,26236,1,0,0:0:0:0:
332,340,26399,1,0,0:0:0:0:
420,292,26562,6,0,P|396:252|384:192,1,85,0|8,0:0|0:0,0:0:0:0:
404,116,26889,1,0,0:0:0:0:
332,40,27053,2,0,P|256:96|164:64,1,170,0|8,0:0|0:0,0:0:0:0:
104,32,27543,1,0,0:0:0:0:
104,32,27706,1,0,0:0:0:0:
88,132,27870,2,0,L|32:140,2,42.5,0|0|8,0:0|0:0|0:0,0:0:0:0:
156,208,28197,6,0,L|240:192,1,85
92,268,28524,2,0,L|0:288,1,85,0|8,0:0|0:0,0:0:0:0:
176,324,28851,2,0,L|224:312,8,42.5,2|0|2|0|2|0|2|0|2,0:0|0:0|0:0|0:0|0:0|0:0|0:0|0:0|0:0,0:0:0:0:
300,344,29668,6,0,P|388:352|432:288,1,170,4|8,0:0|0:0,0:0:0:0:
396,192,30158,1,0,0:0:0:0:
431,91,30321,2,0,P|380:28|300:40,1,170,4|8,0:0|0:0,0:0:0:0:
252,132,30812,2,0,L|208:124,2,42.5
228,232,31139,1,0,0:0:0:0:
132,204,31302,1,8,0:0:0:0:
76,120,31465,1,0,0:0:0:0:
92,20,31629,1,2,0:0:0:0:
36,224,31956,6,0,P|104:296|184:288,2,170,8|0|8,0:0|0:0|0:0,0:0:0:0:
132,204,32773,1,0,0:0:0:0:
228,232,32936,2,0,P|312:208|392:244,1,170,0|8,0:0|0:0,0:0:0:0:
308,304,33427,1,0,0:0:0:0:
408,328,33590,1,0,0:0:0:0:
376,128,33917,1,8,0:0:0:0:
192,220,34244,1,0,0:0:0:0:
184,16,34571,5,8,0:0:0:0:
92,56,34734,1,0,0:0:0:0:
184,100,34898,2,0,P|272:112|356:56,1,170,0|8,0:0|0:0,0:0:0:0:
432,32,35388,1,0,0:0:0:0:
420,132,35551,2,0,B|404:224|420:216|436:208|420:300,1,170,0|8,0:0|0:0,0:0:0:0:
320,332,36042,2,0,L|336:376,2,42.5
260,252,36368,2,0,P|216:248|156:272,1,85,0|8,0:0|0:0,0:0:0:0:
96,312,36695,1,0,0:0:0:0:
96,208,36859,1,0,0:0:0:0:
280,104,37186,6,0,P|364:140|444:88,1,170,8|0,0:0|0:0,0:0:0:0:
452,12,37676,1,0,0:0:0:0:
356,36,37839,5,4,0:0:0:0:
256,224,38166,1,4,0:0:0:0:
156,48,38493,1,4,0:0:0:0:
184,268,38820,2,0,P|252:308|328:268,1,170,4|8,0:0|0:0,0:0:0:0:
88,208,39474,2,0,L|60:256,2,42.5
68,124,39801,2,0,L|120:56,1,85
204,48,40127,6,0,P|316:28|360:76,1,170,4|8,0:0|0:0,0:0:0:0:
308,156,40618,1,0,0:0:0:0:
364,236,40781,2,0,L|440:188,2,85,0|0|8,0:0|0:0|0:0,0:0:0:0:
304,328,41272,2,0,L|252:360,2,42.5
416,328,41598,1,0,0:0:0:0:
416,328,41762,1,8,0:0:0:0:
504,264,41925,1,0,0:0:0:0:
504,264,42089,1,0,0:0:0:0:
444,52,42416,5,8,0:0:0:0:
344,100,42579,1,0,0:0:0:0:
236,80,42742,2,0,P|148:68|72:120,1,170,0|8,0:0|0:0,0:0:0:0:
184,304,43396,2,0,P|240:284|268:256,1,85
164,212,43723,2,0,P|96:292|104:356,2,170,8|0|8,0:0|0:0|0:0,0:0:0:0:
272,188,44540,1,0,0:0:0:0:
348,272,44704,2,0,P|408:308|496:276,1,170,0|8,0:0|0:0,0:0:0:0:
428,188,45194,5,0,0:0:0:0:
460,84,45357,2,0,L|280:60,1,170,0|8,0:0|0:0,0:0:0:0:
180,44,45848,2,0,P|112:104|112:200,1,170
140,284,46338,1,8,0:0:0:0:
204,196,46501,1,0,0:0:0:0:
244,300,46665,2,0,P|352:336|408:284,1,170,0|8,0:0|0:0,0:0:0:0:
324,224,47155,1,0,0:0:0:0:
436,216,47319,2,0,L|448:96,1,85
376,32,47645,2,0,L|368:80,2,42.5,8|0|0,0:0|0:0|0:0,0:0:0:0:
280,92,47972,6,0,B|216:76|216:76|156:92|156:92|24:48,1,255,4|0,0:0|0:0,0:0:0:0:
52,140,48626,2,0,B|88:216|88:216|68:264|68:264|124:376,1,255,4|0,0:0|0:0,0:0:0:0:
204,296,49280,5,2,0:0:0:0:
296,356,49443,1,0,0:0:0:0:
316,248,49607,1,10,0:0:0:0:
412,304,49770,1,0,0:0:0:0:
484,220,49934,6,0,L|472:152,6,42.5,2|0|2|0|2|0|2,0:0|0:0|0:0|0:0|0:0|0:0|0:0,0:0:0:0:
456,96,50587,6,0,P|368:140|344:124,1,127.500004863739,6|0,0:0|0:0,0:0:0:0:
260,48,50914,1,8,0:0:0:0:
252,176,51078,1,0,0:0:0:0:
188,288,51241,2,0,P|68:312|40:232,1,191.250007295609,2|0,0:0|0:0,0:0:0:0:
52,208,51568,2,0,L|32:80,1,127.500004863739,8|0,0:0|0:0,0:0:0:0:
156,52,51895,5,4,0:0:0:0:
256,288,52222,1,12,0:0:0:0:
356,52,52548,1,4,0:0:0:0:
104,104,52875,6,0,L|68:48,2,63.7500024318696,8|0|0,0:0|0:0|0:0,0:0:0:0:
136,184,53202,2,0,P|96:264|208:356,1,255.000009727478,4|8,0:0|0:0,0:0:0:0:
256,236,53693,1,0,0:0:0:0:
306,356,53856,2,0,P|409:297|376:184,1,255.000009727478,0|8,0:0|0:0,0:0:0:0:
316,72,54346,1,0,0:0:0:0:
196,72,54510,1,4,0:0:0:0:
256,296,54837,1,12,0:0:0:0:
96,132,55163,1,4,0:0:0:0:
72,284,55654,5,2,0:0:0:0:
72,284,55735,1,0,0:0:0:0:
72,284,55817,2,0,P|168:312|248:200,1,255.000009727478,2|8,0:0|0:0,0:0:0:0:
128,156,56307,1,0,0:0:0:0:
224,72,56471,2,0,P|352:48|460:140,1,255.000009727478,0|8,0:0|0:0,0:0:0:0:
384,228,56961,1,0,0:0:0:0:
444,340,57125,5,4,0:0:0:0:
288,304,57452,1,12,0:0:0:0:
120,260,57778,1,4,0:0:0:0:
96,120,58269,5,2,0:0:0:0:
96,120,58350,1,0,0:0:0:0:
96,120,58432,2,0,P|208:92|200:208,1,255.000009727478,2|8,0:0|0:0,0:0:0:0:
256,304,58922,1,0,0:0:0:0:
356,224,59086,2,0,L|488:232,1,127.500004863739,2|0,0:0|0:0,0:0:0:0:
476,104,59413,2,0,L|344:112,1,127.500004863739,10|0,0:0|0:0,0:0:0:0:
256,24,59740,5,4,0:0:0:0:
108,232,60066,1,12,0:0:0:0:
404,232,60393,1,4,0:0:0:0:
104,284,61047,6,0,P|36:192|112:92,1,255.000009727478,6|8,0:0|0:0,0:0:0:0:
192,192,61537,1,0,0:0:0:0:
280,284,61701,2,0,P|348:192|272:92,1,255.000009727478,6|8,0:0|0:0,0:0:0:0:
396,56,62191,2,0,P|440:128|444:144,2,63.7500024318696,0|0|4,0:0|0:0|0:0,0:0:0:0:
192,192,62681,1,12,0:0:0:0:
388,336,63008,1,4,0:0:0:0:
88,96,63499,5,2,0:0:0:0:
88,96,63580,1,0,0:0:0:0:
88,96,63662,2,0,P|208:136|300:48,1,255.000009727478,6|8,0:0|0:0,0:0:0:0:
424,52,64152,1,0,0:0:0:0:
352,156,64316,2,0,P|368:300|472:336,1,255.000009727478,6|8,0:0|0:0,0:0:0:0:
452,220,64806,2,0,P|488:176|500:96,1,127.500004863739,0|4,0:0|0:0,0:0:0:0:
256,188,65296,1,12,0:0:0:0:
12,108,65623,1,4,0:0:0:0:
340,308,66114,5,2,0:0:0:0:
340,308,66195,1,0,0:0:0:0:
340,308,66277,2,0,P|296:248|124:272,1,255.000009727478,2|8,0:0|0:0,0:0:0:0:
28,336,66767,1,0,0:0:0:0:
56,212,66931,2,0,L|32:80,1,127.500004863739,2|0,0:0|0:0,0:0:0:0:
160,84,67258,2,0,P|276:116|384:40,1,255.000009727478,8|4,0:0|0:0,0:0:0:0:
388,300,67911,1,12,0:0:0:0:
148,216,68238,1,4,0:0:0:0:
508,88,68728,5,2,0:0:0:0:
508,88,68810,1,0,0:0:0:0:
508,88,68892,2,0,P|392:140|388:296,1,255.000009727478,6|8,0:0|0:0,0:0:0:0:
256,200,69382,1,0,0:0:0:0:
142,256,69546,2,0,P|116:136|4:88,1,255.000009727478,4|8,0:0|0:0,0:0:0:0:
28,212,70036,1,0,0:0:0:0:
52,336,70199,6,0,P|180:360|256:256,1,255.000009727478,6|8,0:0|0:0,0:0:0:0:
360,344,70690,1,0,0:0:0:0:
372,216,70853,2,0,P|284:144|160:208,1,255.000009727478,6|8,0:0|0:0,0:0:0:0:
56,132,71343,2,0,L|152:40,1,127.500004863739,2|4,0:0|0:0,0:0:0:0:
