osu file format v14

[General]
AudioFilename: NIIA-HALL Disco.mp3
AudioLeadIn: 0
PreviewTime: 50587
Countdown: 1
SampleSet: Normal
StackLeniency: 0.7
Mode: 0
LetterboxInBreaks: 1
WidescreenStoryboard: 0

[Editor]
Bookmarks: 49770,50342,51650
DistanceSpacing: 1
BeatDivisor: 4
GridSize: 4
TimelineZoom: 1.3

[Metadata]
Title:NIIA-HALL Disco
TitleUnicode:NIIA-HALL Disco
Artist:6XeNoN9
ArtistUnicode:6XeNoN9
Creator:Musty
Version:Babouche
Source:
Tags:mamorukun curse まもるクンは呪われてしまった
BeatmapID:495007
BeatmapSetID:210431

[Difficulty]
HPDrainRate:8
CircleSize:4
OverallDifficulty:9
ApproachRate:9.3
SliderMultiplier:2.1
SliderTickRate:1

[Events]
//Background and Video events
Video,-98,"niahall.flv"
0,0,"niahallbg.png",0,0
//Break Periods
//Storyboard Layer 0 (Background)
//Storyboard Layer 1 (Fail)
//Storyboard Layer 2 (Pass)
//Storyboard Layer 3 (Foreground)
//Storyboard Sound Samples

[TimingPoints]
250,326.868598823273,4,1,0,100,1,0
413,-133.333333333333,4,1,0,100,0,0
3518,-100,4,1,0,80,0,0
7604,-66.6666666666667,4,1,0,80,0,0
8421,-50,4,1,0,80,0,0
8912,-100,4,1,0,80,0,0
16593,-66.6666666666667,4,1,0,80,0,0
17900,-100,4,1,0,80,0,0
23130,-66.6666666666667,4,1,0,80,0,0
23784,-50,4,1,0,80,0,0
24438,-100,4,1,0,80,0,0
27543,-66.6666666666667,4,1,0,80,0,0
27870,-100,4,1,0,80,0,0
29014,-133.333333333333,4,1,0,80,0,0
29341,-100,4,1,0,80,0,0
36532,-66.6666666666667,4,1,0,80,0,0
36859,-100,4,1,0,80,0,0
50587,-66.6666666666667,4,1,0,80,0,1
71507,-100,4,1,0,80,0,0

[HitObjects]
64,80,413,6,0,B|80:92|80:92|80:64|80:64|96:104|96:104|96:80|96:80|112:120|112:120|112:96|112:96|176:144|240:128|240:128,1,315.000012016297,4|0,0:0|2:0,0:0:0:0:
304,32,1230,6,0,B|316:48|316:48|288:48|288:48|328:64|328:64|304:64|304:64|344:80|344:80|320:80|320:80|368:144|352:208|352:208,1,315.000012016297,4|0,0:0|2:0,0:0:0:0:
248,288,2047,5,4,0:0:0:0:
256,192,2211,12,10,3191,0:0:0:0:
192,60,3518,5,4,0:0:0:0:
416,144,3682,2,0,P|308:124|292:124,1,105,0|8,3:0|0:0,0:0:0:0:
52,184,4008,1,0,3:0:0:0:
64,196,4090,1,0,0:0:0:0:
76,208,4172,2,0,P|140:220|200:208,1,105
320,248,4499,1,8,0:0:0:0:
220,332,4662,1,0,3:0:0:0:
384,336,4826,5,0,0:0:0:0:
472,180,4989,1,0,3:0:0:0:
356,44,5153,2,0,P|360:132|384:168,1,105,10|0,0:0|3:0,0:0:0:0:
192,116,5479,2,0,P|264:184|308:196,1,105,2|0,0:0|3:0,0:0:0:0:
96,236,5806,2,0,P|196:268|224:268,1,105,10|0,0:0|3:0,0:0:0:0:
364,328,6133,5,4,0:0:0:0:
312,152,6297,1,4,0:0:0:0:
464,244,6460,1,8,0:0:0:0:
388,52,6623,1,0,0:0:0:0:
372,44,6705,1,0,0:0:0:0:
352,36,6787,2,0,P|284:32|248:68,1,105
252,264,7114,1,8,0:0:0:0:
140,80,7277,1,0,0:0:0:0:
152,328,7441,1,0,3:0:0:0:
56,224,7604,6,0,P|152:172|244:208,1,157.500006008148,8|8,0:0|0:0,0:0:0:0:
396,240,7931,1,0,0:0:0:0:
396,240,8013,1,0,0:0:0:0:
396,240,8094,2,0,P|300:292|208:256,1,157.500006008148,2|0,0:0|0:0,0:0:0:0:
264,84,8421,6,0,B|372:60|372:60|336:168|336:168|420:128|480:160|484:232,1,420,10|4,0:0|0:0,0:0:0:0:
152,152,8912,5,0,3:0:0:0:
132,320,9075,1,8,0:0:0:0:
8,208,9238,1,0,0:0:0:0:
8,208,9320,1,0,0:0:0:0:
8,208,9402,2,0,P|16:112|28:92,1,105,2|0,0:0|3:0,0:0:0:0:
252,224,9729,2,0,P|244:320|232:340,1,105,8|0,0:0|0:0,0:0:0:0:
200,112,10056,5,2,0:0:0:0:
204,104,10137,1,0,0:0:0:0:
208,96,10219,2,0,P|300:92|348:116,1,105,2|8,0:0|0:0,0:0:0:0:
480,92,10546,1,0,0:0:0:0:
416,248,10709,1,2,0:0:0:0:
256,304,10873,1,0,3:0:0:0:
96,248,11036,1,10,0:0:0:0:
32,92,11200,1,0,3:0:0:0:
32,92,11363,5,0,0:0:0:0:
204,44,11526,1,0,0:0:0:0:
164,208,11690,1,8,0:0:0:0:
348,144,11853,1,0,0:0:0:0:
340,164,11935,1,0,0:0:0:0:
332,184,12017,1,0,0:0:0:0:
384,332,12180,2,0,L|420:292,2,52.5,0|0|8,0:0|0:0|0:0,0:0:0:0:
216,320,12507,6,0,P|80:304|68:304,1,105
44,156,12834,2,0,P|180:172|192:172,1,105,0|8,0:0|0:0,0:0:0:0:
292,92,13161,1,0,0:0:0:0:
292,92,13243,1,0,0:0:0:0:
292,92,13324,1,0,0:0:0:0:
276,232,13488,1,2,0:0:0:0:
412,144,13651,1,8,0:0:0:0:
396,268,13815,1,0,3:0:0:0:
128,292,13978,6,0,B|256:324|256:324|316:296|344:332,1,210,4|8,0:0|0:0,0:0:0:0:
40,240,14468,1,2,0:0:0:0:
36,228,14550,1,0,0:0:0:0:
32,216,14632,2,0,P|28:160|60:120,1,105,2|0,0:0|0:0,0:0:0:0:
256,84,14959,1,8,0:0:0:0:
120,48,15122,1,0,3:0:0:0:
236,204,15285,2,2,L|356:180,1,105
252,320,15612,1,8,0:0:0:0:
52,336,15776,1,0,0:0:0:0:
128,236,15939,6,0,P|64:224|0:224,1,105,2|0,0:0|0:0,0:0:0:0:
196,120,16266,2,0,P|260:132|324:132,1,105,10|0,0:0|0:0,0:0:0:0:
440,52,16593,6,0,P|400:160|456:244,1,157.500006008148,2|0,0:0|0:0,0:0:0:0:
264,352,16920,2,0,P|304:244|248:160,1,157.500006008148,10|0,0:0|0:0,0:0:0:0:
284,200,17165,1,0,0:0:0:0:
268,192,17247,1,2,0:0:0:0:
212,92,17410,1,2,0:0:0:0:
196,96,17492,1,0,0:0:0:0:
180,100,17574,2,0,P|140:208|196:292,1,157.500006008148,8|0,0:0|0:0,0:0:0:0:
196,336,17900,6,0,B|228:340|228:340|238:319|238:319|238:319|258:330|258:330|262:305|262:305|282:316|282:316|340:216|456:284,1,315,4|0,0:0|3:0,0:0:0:0:
404,144,18554,2,2,P|436:144|464:132,2,52.5,4|0|4,3:0|0:0|3:0,3:0:0:0:
232,88,18881,1,8,0:0:0:0:
244,252,19044,1,0,0:0:0:0:
240,256,19126,1,0,0:0:0:0:
236,260,19208,1,4,0:0:0:0:
124,204,19371,1,0,0:0:0:0:
316,168,19535,2,0,P|312:84|304:52,1,105,8|2,0:0|0:0,0:0:0:0:
40,160,19862,2,0,P|44:244|52:276,1,105
168,344,20188,5,8,0:0:0:0:
336,272,20352,1,0,3:0:0:0:
148,264,20515,1,0,0:0:0:0:
316,348,20679,2,0,P|380:352|432:336,1,105,0|8,0:0|0:0,0:0:0:0:
492,192,21006,2,0,P|428:188|376:204,1,105,0|0,0:0|0:0,0:0:0:0:
232,192,21333,1,0,3:0:0:0:
232,192,21414,1,0,0:0:0:0:
232,192,21496,2,0,L|264:84,1,105,8|0,0:0|0:0,0:0:0:0:
364,40,21823,5,0,0:0:0:0:
184,24,21986,1,0,0:0:0:0:
96,152,22150,1,8,0:0:0:0:
132,232,22313,5,0,3:0:0:0:
100,68,22477,1,0,0:0:0:0:
0,176,22640,1,0,3:0:0:0:
36,320,22803,1,8,0:0:0:0:
172,320,22966,5,0,0:0:0:0:
180,324,23048,1,0,0:0:0:0:
188,328,23130,2,0,P|300:320|360:336,1,157.500006008148,2|0,0:0|0:0,0:0:0:0:
512,208,23457,2,0,P|400:216|340:200,1,157.500006008148,8|0,0:0|0:0,0:0:0:0:
56,188,23784,6,0,P|216:192|272:228,1,210,2|0,0:0|0:0,0:0:0:0:
476,56,24111,2,0,B|400:128|400:128|336:64|336:64|248:132|148:72,1,315,8|0,0:0|2:0,0:0:0:0:
200,80,24438,6,0,P|140:56|88:60,1,105
24,248,24765,1,8,0:0:0:0:
248,240,24928,1,0,0:0:0:0:
268,224,25010,1,0,0:0:0:0:
292,208,25092,2,0,P|344:256|344:316,1,105
360,128,25418,2,0,P|308:80|308:20,1,105,8|0,0:0|0:0,0:0:0:0:
452,88,25745,5,0,0:0:0:0:
400,240,25909,1,0,0:0:0:0:
400,240,25990,1,0,0:0:0:0:
400,240,26072,1,8,0:0:0:0:
492,172,26236,1,0,0:0:0:0:
424,324,26400,2,0,P|368:324|332:288,1,105
128,336,26726,2,0,P|212:304|248:328,1,105,8|0,0:0|0:0,0:0:0:0:
264,212,27053,1,0,0:0:0:0:
88,136,27216,1,0,0:0:0:0:
256,84,27380,1,8,0:0:0:0:
368,44,27543,6,0,P|376:128|384:148,1,78.7500030040742,2|0,0:0|0:0,0:0:0:0:
460,80,27706,2,0,P|468:132|464:160,1,78.7500030040742,2|0,0:0|3:0,0:0:0:0:
392,232,27870,6,0,P|312:248|280:296,1,105,0|8,0:0|0:0,0:0:0:0:
192,352,28197,1,0,0:0:0:0:
80,280,28360,1,2,0:0:0:0:
60,252,28442,1,0,0:0:0:0:
60,220,28524,1,2,0:0:0:0:
76,192,28605,1,0,0:0:0:0:
104,176,28687,2,0,P|172:168|216:168,1,105,10|0,0:0|0:0,0:0:0:0:
276,84,29014,6,0,P|296:120|312:136,3,39.3750015020371,2|0|2|0,0:0|0:0|0:0|0:0,0:0:0:0:
376,120,29341,2,0,P|364:180|368:216,1,52.5,10|0,0:0|0:0,0:0:0:0:
360,248,29504,2,0,P|380:305|402:334,1,52.5,2|0,0:0|0:0,0:0:0:0:
440,336,29668,6,0,P|328:304|236:352,1,210,4|8,0:0|0:0,0:0:0:0:
68,296,30158,2,0,P|112:288|144:296,1,52.5
152,248,30321,2,0,P|144:164|108:112,1,105
256,36,30648,2,0,P|264:120|300:172,1,105,8|0,0:0|0:0,0:0:0:0:
396,160,30975,6,0,P|460:160|516:168,1,105
320,248,31302,2,0,P|382:262|435:282,1,105,8|2,0:0|0:0,0:0:0:0:
428,284,31547,1,0,0:0:0:0:
436,292,31629,1,2,0:0:0:0:
224,276,31792,1,2,0:0:0:0:
212,280,31874,1,0,0:0:0:0:
200,284,31956,2,0,P|112:288|64:276,1,105,10|0,0:0|0:0,0:0:0:0:
20,100,32283,2,0,P|112:92|140:192,1,210,4|8,0:0|0:0,0:0:0:0:
240,92,32773,5,0,0:0:0:0:
352,184,32936,1,0,0:0:0:0:
376,60,33100,2,0,P|436:52|492:104,1,105,0|8,0:0|0:0,0:0:0:0:
488,180,33427,1,0,0:0:0:0:
416,272,33590,2,0,P|328:288|272:292,1,105
120,352,33917,2,0,P|208:336|264:332,1,105,8|0,0:0|0:0,0:0:0:0:
60,272,34244,2,0,P|-16:248|28:148,1,210,0|8,0:0|0:0,0:0:0:0:
72,56,34734,5,0,0:0:0:0:
108,156,34898,2,0,P|172:136|208:92,1,105
336,156,35224,2,0,P|272:176|236:220,2,105,8|0|0,0:0|0:0|0:0,0:0:0:0:
412,68,35715,1,0,0:0:0:0:
452,192,35878,1,8,0:0:0:0:
340,268,36042,1,0,0:0:0:0:
248,184,36205,2,0,P|156:172|112:176,1,105
48,324,36532,6,0,B|108:256|172:260|172:256|172:256|216:320|292:316|328:280,1,315.000012016297,8|0,0:0|0:0,0:0:0:0:
272,192,37022,5,0,0:0:0:0:
376,196,37186,2,0,L|460:108,1,105,8|0,0:0|0:0,0:0:0:0:
332,104,37513,2,0,P|236:76|176:144,1,157.5,0|0,0:0|2:0,0:0:0:0:
104,84,37839,6,0,P|128:200|76:252,1,157.5,0|0,0:0|2:0,0:0:0:0:
56,276,38166,6,0,P|156:252|248:296,1,157.5,0|0,0:0|2:0,0:0:0:0:
220,336,38493,6,0,L|400:308,1,157.5,0|0,0:0|2:0,0:0:0:0:
432,344,38820,6,0,P|384:232|436:168,1,210
496,64,39310,2,0,P|432:32|424:32,2,52.5,0|0|0,0:0|0:0|0:0,0:0:0:0:
312,44,39637,1,0,0:0:0:0:
176,116,39801,1,8,0:0:0:0:
152,120,39882,1,0,0:0:0:0:
132,124,39964,1,0,0:0:0:0:
112,128,40046,1,0,0:0:0:0:
88,132,40127,6,0,P|64:200|88:268,1,105,4|0,0:0|0:0,0:0:0:0:
212,340,40454,2,0,P|236:272|212:204,1,105,8|0,0:0|0:0,0:0:0:0:
231,240,40699,1,0,0:0:0:0:
231,240,40781,1,0,0:0:0:0:
368,168,40945,1,0,0:0:0:0:
360,328,41108,1,8,0:0:0:0:
460,204,41272,2,0,P|456:136|424:92,2,105,0|0|0,0:0|0:0|0:0,0:0:0:0:
276,184,41762,5,8,0:0:0:0:
432,284,41925,1,0,0:0:0:0:
312,112,42089,1,0,0:0:0:0:
272,328,42252,1,0,0:0:0:0:
232,120,42416,1,8,0:0:0:0:
232,120,42579,6,0,P|140:108|92:88,1,105
0,200,42906,2,0,P|92:212|140:232,1,105,0|8,0:0|0:0,0:0:0:0:
316,248,43233,1,0,0:0:0:0:
312,252,43314,1,0,0:0:0:0:
308,256,43396,2,0,P|216:268|168:288,1,105
408,280,43723,2,0,P|500:268|548:248,1,105,8|0,0:0|0:0,0:0:0:0:
508,236,43968,1,0,0:0:0:0:
504,204,44050,2,0,L|496:100,1,105
376,64,44377,2,0,P|304:104|224:84,1,157.5,8|0,0:0|0:0,0:0:0:0:
176,40,44704,6,0,L|140:144,1,105,6|0,0:0|0:0,0:0:0:0:
28,184,45030,1,8,0:0:0:0:
28,184,45112,1,0,0:0:0:0:
28,184,45194,1,0,0:0:0:0:
172,276,45357,2,0,P|100:284|64:268,1,105
320,192,45684,2,0,P|248:184|212:200,1,105,8|0,0:0|0:0,0:0:0:0:
300,332,46011,1,0,0:0:0:0:
448,292,46175,2,0,P|456:188|408:72,1,210,2|0,0:0|0:0,0:0:0:0:
260,56,46665,5,0,0:0:0:0:
176,156,46828,1,0,0:0:0:0:
176,156,46910,1,0,0:0:0:0:
176,156,46992,1,8,0:0:0:0:
112,56,47155,1,0,0:0:0:0:
32,168,47319,2,0,P|20:276|120:336,1,210,0|8,0:0|0:0,0:0:0:0:
208,264,47809,5,0,0:0:0:0:
232,268,47891,1,0,0:0:0:0:
260,272,47972,1,2,0:0:0:0:
424,232,48136,2,0,P|384:292|388:324,1,105,0|8,0:0|0:0,0:0:0:0:
480,112,48463,5,0,0:0:0:0:
456,116,48545,1,0,0:0:0:0:
428,120,48626,2,0,P|344:108|272:120,1,157.5
212,68,48953,2,0,L|176:184,1,105,12|0,0:0|0:0,0:0:0:0:
56,216,49280,5,4,0:0:0:0:
144,308,49443,1,4,0:0:0:0:
256,268,49607,1,12,0:0:0:0:
368,308,49770,1,4,0:0:0:0:
368,308,49934,6,0,P|324:320|292:308,1,52.5,2|0,0:0|0:0,0:0:0:0:
244,280,50097,2,0,P|202:255|185:231,1,52.5,2|0,0:0|0:0,0:0:0:0:
152,188,50260,2,0,P|135:142|138:113,1,52.5,10|0,0:0|0:0,0:0:0:0:
112,69,50424,2,2,P|107:43|92:16,1,52.5
36,72,50587,6,0,P|156:148|76:268,1,315.000012016297,2|8,0:0|0:0,0:0:0:0:
256,192,51078,1,0,0:0:0:0:
432,267,51241,2,0,P|356:147|476:72,1,315.000012016297,2|8,0:0|0:0,0:0:0:0:
475,71,51650,1,0,0:0:0:0:
475,71,51731,1,0,0:0:0:0:
272,20,51895,6,0,P|218:116|215:186,1,157.500006008148,2|0,0:0|0:0,0:0:0:0:
236,316,52222,2,0,P|290:220|293:150,1,157.500006008148,10|0,0:0|0:0,0:0:0:0:
132,320,52548,2,2,P|79:327|161:260,1,315.000012016297,2|8,0:0|0:0,0:0:0:0:
424,356,53039,5,0,0:0:0:0:
412,280,53120,1,0,0:0:0:0:
396,204,53202,2,0,P|439:121|429:27,1,157.500006008148,6|0,0:0|0:0,0:0:0:0:
256,96,53529,1,10,0:0:0:0:
73,58,53693,2,0,P|76:136|116:204,1,157.500006008148,2|2,0:0|0:0,0:0:0:0:
256,276,54019,1,0,0:0:0:0:
256,276,54101,1,0,0:0:0:0:
256,276,54183,1,8,0:0:0:0:
256,96,54346,1,0,0:0:0:0:
468,56,54510,6,0,P|352:120|416:192,1,236.250009012223,2|0,0:0|2:0,0:0:0:0:
16,140,54837,6,0,P|148:149|133:54,1,236.250009012223,10|0,0:0|2:0,0:0:0:0:
296,360,55163,6,0,P|204:264|151:344,1,236.250009012223,2|0,0:0|2:0,0:0:0:0:
80,344,55490,1,8,0:0:0:0:
72,304,55572,1,0,0:0:0:0:
64,268,55654,1,0,0:0:0:0:
56,232,55735,1,0,0:0:0:0:
48,196,55817,6,0,P|180:168|200:96,1,157.500006008148,6|0,0:0|0:0,0:0:0:0:
388,48,56144,2,0,P|256:76|236:148,1,157.500006008148,8|0,0:0|0:0,0:0:0:0:
248,264,56471,2,0,P|384:292|468:136,1,315.000012016297,6|8,0:0|0:0,0:0:0:0:
304,128,56961,1,0,0:0:0:0:
304,128,57043,1,0,0:0:0:0:
304,128,57125,2,0,B|220:124|220:124|152:180,1,157.500006008148,2|0,0:0|0:0,0:0:0:0:
28,304,57452,2,0,B|112:308|112:308|180:252,1,157.500006008148,10|0,0:0|0:0,0:0:0:0:
44,120,57778,2,2,P|212:40|368:64,1,315.000012016297,2|8,0:0|0:0,0:0:0:0:
448,164,58269,5,0,0:0:0:0:
396,224,58350,1,0,0:0:0:0:
348,288,58432,2,0,P|240:280|152:292,1,157.500006008148,6|0,0:0|0:0,0:0:0:0:
0,192,58759,2,0,P|108:200|196:188,1,157.500006008148,10|0,0:0|0:0,0:0:0:0:
416,68,59086,1,4,0:0:0:0:
96,68,59249,1,0,0:0:0:0:
256,324,59413,1,12,0:0:0:0:
256,40,59576,1,0,0:0:0:0:
80,220,59740,6,0,P|84:360|120:372,1,157.500006008148,2|0,0:0|0:0,0:0:0:0:
432,164,60066,2,0,P|428:24|392:12,1,157.500006008148,10|0,0:0|0:0,0:0:0:0:
256,68,60393,2,2,B|256:152|256:152|232:196|232:196|280:196|280:196|256:232|256:232|256:324,1,315.000012016297,2|10,0:0|0:0,0:0:0:0:
364,240,60884,1,0,0:0:0:0:
148,240,61047,6,0,B|68:240|68:240|8:296,1,157.500006008148,2|0,0:0|0:0,0:0:0:0:
36,104,61374,1,8,0:0:0:0:
224,164,61537,1,0,0:0:0:0:
104,324,61701,2,0,P|184:344|276:224,1,236.250009012223,6|0,0:0|0:0,0:0:0:0:
312,168,62028,2,0,P|404:160|452:224,1,157.500006008148,8|0,0:0|0:0,0:0:0:0:
445,202,62273,1,0,0:0:0:0:
445,202,62355,1,2,0:0:0:0:
66,202,62681,1,12,0:0:0:0:
312,80,63008,2,2,P|256:196|200:80,1,315.000012016297,6|10,0:0|0:0,0:0:0:0:
264,128,63499,5,0,0:0:0:0:
264,128,63580,1,0,0:0:0:0:
264,128,63662,2,0,P|224:224|176:252,1,157.500006008148,2|0,0:0|0:0,0:0:0:0:
104,104,63989,1,8,0:0:0:0:
84,336,64152,1,0,0:0:0:0:
312,272,64316,2,0,P|416:240|488:296,1,157.500006008148,2|0,0:0|0:0,0:0:0:0:
224,336,64643,5,8,0:0:0:0:
224,336,64724,1,0,0:0:0:0:
224,336,64806,1,2,0:0:0:0:
484,80,64969,2,0,P|364:104|324:104,1,157.500006008148,2|0,0:0|0:0,0:0:0:0:
28,80,65296,2,0,P|148:104|188:104,1,157.500006008148,10|0,0:0|0:0,0:0:0:0:
380,192,65623,2,2,P|232:188|132:324,1,315.000012016297,6|8,0:0|0:0,0:0:0:0:
288,304,66114,5,2,0:0:0:0:
288,304,66195,1,0,0:0:0:0:
288,304,66277,2,0,B|364:264|372:376|464:292,1,157.500006008148,2|0,0:0|0:0,0:0:0:0:
472,152,66604,1,8,0:0:0:0:
324,96,66767,1,0,0:0:0:0:
176,36,66931,2,0,P|116:184|128:272,1,236.250009012223,2|0,0:0|0:0,0:0:0:0:
64,308,67258,2,0,B|28:244|28:244|32:152,1,157.500006008148,12|0,0:0|0:0,0:0:0:0:
448,76,67584,6,0,B|484:140|484:140|480:232,1,157.500006008148,2|0,0:0|0:0,0:0:0:0:
344,192,67911,2,0,B|330:264|330:264|268:332,1,157.500006008148,10|0,0:0|0:0,0:0:0:0:
208,192,68238,2,0,B|151:238|151:238|59:250,2,157.500006008148,2|0|10,0:0|0:0|0:0,0:0:0:0:
304,68,68728,1,0,0:0:0:0:
304,68,68810,1,0,0:0:0:0:
304,68,68892,2,0,P|68:72|12:124,1,315.000012016297,2|14,0:0|0:0,0:0:0:0:
120,328,69382,1,0,0:0:0:0:
356,172,69546,1,4,0:0:0:0:
156,128,69709,1,0,0:0:0:0:
312,356,69873,1,12,0:0:0:0:
444,100,70036,5,0,0:0:0:0:
452,148,70118,1,0,0:0:0:0:
460,200,70199,2,0,P|332:272|248:204,1,236.250009012223,2|0,0:0|0:0,0:0:0:0:
244,216,70526,2,0,L|76:228,1,157.500006008148,12|0,0:0|0:0,0:0:0:0:
8,56,70853,2,4,L|176:44,1,157.500006008148
292,136,71180,1,8,0:0:0:0:
216,320,71343,1,0,0:0:0:0:
384,272,71507,1,4,0:0:0:0:
