osu file format v14

[General]
AudioFilename: audio.mp3
AudioLeadIn: 0
PreviewTime: -1
Countdown: 0
SampleSet: Normal
StackLeniency: 0.7
Mode: 0
LetterboxInBreaks: 0
WidescreenStoryboard: 0

[Editor]
DistanceSpacing: 2.3
BeatDivisor: 4
GridSize: 32
TimelineZoom: 1.5

[Metadata]
Title:GOOBA
TitleUnicode:GOOBA
Artist:6IX9INE
ArtistUnicode:6IX9INE
Creator:Tys3r
Version:R U DUMB
Source:AT.LAS , FatKing Films
Tags:6IX9INE
BeatmapID:2472120
BeatmapSetID:1186055

[Difficulty]
HPDrainRate:5
CircleSize:4.3
OverallDifficulty:4
ApproachRate:8
SliderMultiplier:1.4
SliderTickRate:1

[Events]
//Background and Video events
//Break Periods
//Storyboard Layer 0 (Background)
//Storyboard Layer 1 (Fail)
//Storyboard Layer 2 (Pass)
//Storyboard Layer 3 (Foreground)
//Storyboard Layer 4 (Overlay)
//Storyboard Sound Samples

[TimingPoints]
0,337.078651685393,4,1,0,100,1,0

[HitObjects]
388,105,1348,5,0,0:0:0:0:
374,255,1685,1,0,0:0:0:0:
245,166,2022,1,0,0:0:0:0:
305,52,2359,1,0,0:0:0:0:
452,185,2696,1,0,0:0:0:0:
103,332,3033,5,0,0:0:0:0:
172,266,3202,1,0,0:0:0:0:
86,177,3370,1,0,0:0:0:0:
158,110,3539,1,0,0:0:0:0:
73,64,3707,1,0,0:0:0:0:
150,29,3876,1,0,0:0:0:0:
271,71,4044,5,0,0:0:0:0:
254,151,4382,1,0,0:0:0:0:
461,305,4719,1,0,0:0:0:0:
503,176,5056,1,0,0:0:0:0:
473,118,5393,1,0,0:0:0:0:
310,264,5730,5,0,0:0:0:0:
300,116,5898,1,0,0:0:0:0:
310,264,6067,1,0,0:0:0:0:
300,116,6235,1,0,0:0:0:0:
220,124,6404,2,0,L|136:133,1,70
226,192,6741,2,0,L|151:204,1,70
233,258,7078,2,0,L|161:275,1,70
164,274,7415,5,0,0:0:0:0:
82,226,7584,1,0,0:0:0:0:
154,160,7752,1,0,0:0:0:0:
77,114,7921,1,0,0:0:0:0:
140,57,8089,1,0,0:0:0:0:
351,162,8426,5,0,0:0:0:0:
389,96,8595,1,0,0:0:0:0:
467,272,8764,1,0,0:0:0:0:
423,339,8932,1,0,0:0:0:0:
227,103,9101,1,0,0:0:0:0:
155,188,9269,1,0,0:0:0:0:
256,216,9438,1,0,0:0:0:0:
183,297,9606,1,0,0:0:0:0:
294,333,9775,1,0,0:0:0:0:
396,198,10112,5,0,0:0:0:0:
297,76,10280,1,0,0:0:0:0:
426,117,10449,1,0,0:0:0:0:
288,163,10617,1,0,0:0:0:0:
388,36,10786,1,0,0:0:0:0:
151,61,11123,5,0,0:0:0:0:
145,117,11460,1,0,0:0:0:0:
139,172,11713,2,0,L|68:166,1,70
132,243,12134,2,0,L|51:237,1,70
129,298,12471,2,0,L|42:293,1,70
357,289,12977,5,0,0:0:0:0:
341,235,13146,1,0,0:0:0:0:
321,137,13483,2,0,L|416:115,1,70
247,324,13988,5,0,0:0:0:0:
178,286,14157,2,0,P|174:214|174:214,1,70
241,208,14494,2,0,L|240:132,1,70
261,64,14831,1,0,0:0:0:0:
164,74,15084,2,0,L|78:141,1,105
188,241,15842,1,0,0:0:0:0:
332,183,16179,1,0,0:0:0:0:
275,126,16348,1,0,0:0:0:0:
112,75,16853,6,0,L|185:133,5,70
87,139,17865,2,0,L|159:143,1,70
113,306,18370,2,0,L|172:266,1,70
323,116,18876,1,0,0:0:0:0:
253,67,19044,1,0,0:0:0:0:
129,121,19382,5,0,0:0:0:0:
133,160,19550,2,0,L|209:169,1,70
116,224,19887,2,0,L|190:235,1,70
279,225,20224,2,0,L|304:155,1,70
451,174,20561,2,0,L|419:251,1,70
190,81,21235,5,0,0:0:0:0:
184,188,21488,2,0,L|323:179,1,140
30,60,22921,5,0,0:0:0:0:
156,179,23089,1,0,0:0:0:0:
3,255,23258,1,0,0:0:0:0:
267,72,23595,5,0,0:0:0:0:
410,146,23764,1,0,0:0:0:0:
243,183,23932,1,0,0:0:0:0:
399,258,24101,1,0,0:0:0:0:
229,301,24269,1,0,0:0:0:0:
478,82,24606,5,0,0:0:0:0:
488,183,24775,1,0,0:0:0:0:
421,195,24943,2,0,L|406:120,1,70
333,88,25280,2,0,L|337:166,1,70
336,157,25617,1,0,0:0:0:0:
277,238,25786,1,0,0:0:0:0:
224,148,25955,1,0,0:0:0:0:
94,78,26292,5,0,0:0:0:0:
166,283,26460,1,0,0:0:0:0:
260,76,26629,1,0,0:0:0:0:
338,291,26797,1,0,0:0:0:0:
419,78,26966,1,0,0:0:0:0:
72,54,27303,6,0,L|77:127,1,70
76,123,27640,2,0,L|82:199,1,70
81,192,27977,2,0,L|87:268,1,70
86,261,28314,1,0,0:0:0:0:
170,360,28483,1,0,0:0:0:0:
258,267,28651,1,0,0:0:0:0:
185,98,28988,6,0,L|253:139,1,70
158,166,29325,2,0,L|226:203,1,70
178,262,29662,1,0,0:0:0:0:
285,82,29999,5,0,0:0:0:0:
401,92,30168,1,0,0:0:0:0:
279,156,30337,2,0,L|272:242,1,70
392,164,30674,2,0,L|385:245,1,70
385,233,31011,1,0,0:0:0:0:
278,237,31179,1,0,0:0:0:0:
167,240,31348,1,0,0:0:0:0:
289,83,31685,5,0,0:0:0:0:
289,83,31853,1,0,0:0:0:0:
289,83,32022,1,0,0:0:0:0:
444,147,32359,1,0,0:0:0:0:
199,78,32696,5,0,0:0:0:0:
188,134,32865,1,0,0:0:0:0:
181,190,33033,2,0,L|253:196,1,70
202,246,33370,2,0,L|259:186,1,70
258,267,33707,2,0,L|251:192,1,70
313,245,34044,1,0,0:0:0:0:
381,177,34382,5,0,0:0:0:0:
379,114,34550,1,0,0:0:0:0:
383,249,34719,1,0,0:0:0:0:
378,44,34887,1,0,0:0:0:0:
387,322,35056,1,0,0:0:0:0:
239,146,35393,6,0,L|205:210,1,70
206,207,35730,2,0,L|164:283,1,70
97,273,36067,2,0,L|80:200,1,70
81,204,36404,2,0,L|59:123,1,70
63,136,36741,1,0,0:0:0:0:
77,39,37078,5,0,0:0:0:0:
198,116,37247,1,0,0:0:0:0:
57,172,37415,1,0,0:0:0:0:
201,245,37584,1,0,0:0:0:0:
80,301,37752,1,0,0:0:0:0:
266,92,38089,6,0,L|268:162,5,70
270,252,39101,1,0,0:0:0:0:
411,60,39438,1,0,0:0:0:0:
221,74,39775,6,0,L|290:125,1,70
455,175,40112,2,0,L|393:221,1,70
237,265,40449,1,0,0:0:0:0:
248,69,40786,6,0,L|323:69,1,70
321,144,41123,2,0,L|240:144,1,70
249,216,41460,2,0,L|319:219,1,70
284,290,41797,1,0,0:0:0:0:
391,245,42134,1,0,0:0:0:0:
481,185,42471,1,0,0:0:0:0:
410,132,42808,5,0,0:0:0:0:
376,106,42893,5,0,0:0:0:0:
336,92,42977,5,0,0:0:0:0:
294,92,43061,5,0,0:0:0:0:
258,115,43146,5,0,0:0:0:0:
220,134,43230,5,0,0:0:0:0:
178,136,43314,5,0,0:0:0:0:
138,123,43398,5,0,0:0:0:0:
99,105,43483,5,0,0:0:0:0:
251,170,44494,5,0,0:0:0:0:
41,333,45168,1,0,0:0:0:0:
40,48,45337,1,0,0:0:0:0:
422,51,45674,1,0,0:0:0:0:
421,334,45842,1,0,0:0:0:0:
251,116,46516,6,0,L|250:128,7,11.6666666666667
159,82,47191,5,0,0:0:0:0:
90,225,47359,1,0,0:0:0:0:
223,269,47528,2,0,L|256:203,1,70
278,152,47865,2,0,L|314:76,1,70
307,88,48202,1,0,0:0:0:0:
427,120,48539,5,0,0:0:0:0:
390,318,48876,1,0,0:0:0:0:
190,324,49044,1,0,0:0:0:0:
123,150,49213,1,0,0:0:0:0:
123,150,49550,5,0,0:0:0:0:
243,94,49719,1,0,0:0:0:0:
257,161,49887,1,0,0:0:0:0:
257,225,50561,6,0,L|335:227,1,70
380,183,51067,1,0,0:0:0:0:
86,153,51235,1,0,0:0:0:0:
256,130,51910,6,0,L|256:148,11,11.6666666666667
65,198,52584,5,0,0:0:0:0:
194,133,52921,1,0,0:0:0:0:
194,133,53089,1,0,0:0:0:0:
242,72,53258,2,0,L|311:85,1,70
312,156,53595,1,0,0:0:0:0:
302,203,53764,1,0,0:0:0:0:
292,268,53932,1,0,0:0:0:0:
120,122,54185,2,0,L|145:202,1,70
340,121,54606,2,0,L|309:190,1,70
207,137,55617,6,0,L|266:186,1,70
178,180,56292,2,0,L|233:193,1,35
147,223,56544,1,0,0:0:0:0:
252,114,56713,2,0,L|293:115,2,35
207,137,56966,2,0,L|271:187,1,70
214,346,57471,6,0,L|237:314,3,35
253,272,57893,1,0,0:0:0:0:
214,210,58146,1,0,0:0:0:0:
365,65,58314,1,0,0:0:0:0:
158,26,58483,1,0,0:0:0:0:
99,168,58988,5,0,0:0:0:0:
107,228,59241,2,0,L|190:237,1,70
232,144,59494,2,0,L|271:162,1,35
115,120,59747,1,0,0:0:0:0:
44,141,59915,1,0,0:0:0:0:
230,262,60337,6,0,L|219:261,8,11.6666666666667
150,187,61011,5,0,0:0:0:0:
406,99,61179,1,0,0:0:0:0:
341,279,61685,5,0,0:0:0:0:
328,195,61853,2,0,L|318:145,1,35
321,106,62191,1,0,0:0:0:0:
293,46,62359,2,0,B|268:22|239:66|269:86,2,70
215,32,63033,5,0,0:0:0:0:
18,108,63202,1,0,0:0:0:0:
219,126,63707,5,0,0:0:0:0:
17,214,63876,1,0,0:0:0:0:
228,216,64382,5,0,0:0:0:0:
18,305,64550,1,0,0:0:0:0:
342,157,64887,5,0,0:0:0:0:
325,81,65056,2,0,L|448:111,1,105
128,143,65730,5,0,0:0:0:0:
343,257,65898,1,0,0:0:0:0:
343,140,66404,5,0,0:0:0:0:
127,257,66573,1,0,0:0:0:0:
221,133,67078,5,0,0:0:0:0:
221,133,67247,2,0,L|268:172,1,35
203,207,67499,1,0,0:0:0:0:
203,207,67584,2,0,L|260:259,2,70
420,78,68426,5,0,0:0:0:0:
419,284,68595,1,0,0:0:0:0:
253,157,69101,6,0,L|252:218,2,35
66,77,69775,5,0,0:0:0:0:
65,284,69943,1,0,0:0:0:0:
159,184,70449,5,0,0:0:0:0:
350,184,70617,1,0,0:0:0:0:
258,67,71123,5,0,0:0:0:0:
258,67,71292,1,0,0:0:0:0:
256,287,71797,1,0,0:0:0:0:
256,287,71966,1,0,0:0:0:0:
251,130,72471,5,0,0:0:0:0:
253,189,72640,2,0,L|253:228,1,35
250,252,72893,2,0,L|250:300,2,35
248,343,73146,2,0,L|251:273,1,70
84,142,73651,6,0,L|130:190,1,35
138,214,73820,1,0,0:0:0:0:
138,214,73988,1,0,0:0:0:0:
138,214,74157,1,0,0:0:0:0:
216,221,74325,6,0,L|252:219,1,35
308,215,74494,1,0,0:0:0:0:
308,215,74662,1,0,0:0:0:0:
308,215,74831,1,0,0:0:0:0:
372,128,74999,6,0,L|333:125,1,35
278,119,75168,1,0,0:0:0:0:
278,119,75337,1,0,0:0:0:0:
278,119,75505,1,0,0:0:0:0:
202,121,75674,6,0,L|128:123,2,70
426,169,76853,5,0,0:0:0:0:
347,312,77191,1,0,0:0:0:0:
263,165,77528,1,0,0:0:0:0:
162,309,77865,1,0,0:0:0:0:
75,166,78202,1,0,0:0:0:0:
96,86,78539,6,0,L|170:90,1,70
165,89,78876,2,0,L|239:90,1,70
235,89,79213,2,0,L|309:91,1,70
305,90,79550,1,0,0:0:0:0:
423,98,79887,1,0,0:0:0:0:
417,257,80224,1,0,0:0:0:0:
236,151,80561,1,0,0:0:0:0:
238,335,80898,1,0,0:0:0:0:
238,242,81235,6,0,L|195:241,1,35
132,241,81573,2,0,L|92:241,1,35
40,244,81910,1,0,0:0:0:0:
103,160,82078,1,0,0:0:0:0:
197,114,82247,1,0,0:0:0:0:
288,165,82415,1,0,0:0:0:0:
355,245,82584,1,0,0:0:0:0:
355,245,82921,5,0,0:0:0:0:
192,131,83089,1,0,0:0:0:0:
394,129,83258,1,0,0:0:0:0:
223,243,83426,1,0,0:0:0:0:
285,72,83595,1,0,0:0:0:0:
118,322,83932,6,0,L|36:282,1,70
121,248,84269,2,0,L|49:213,1,70
58,217,84606,1,0,0:0:0:0:
163,137,84775,1,0,0:0:0:0:
66,83,84943,1,0,0:0:0:0:
164,36,85112,1,0,0:0:0:0:
164,36,85280,1,0,0:0:0:0:
395,266,85617,5,0,0:0:0:0:
253,142,85786,1,0,0:0:0:0:
444,145,85955,1,0,0:0:0:0:
284,265,86123,1,0,0:0:0:0:
350,80,86292,1,0,0:0:0:0:
283,75,86629,6,0,L|242:134,1,70
207,69,86966,2,0,L|159:136,1,70
166,125,87303,1,0,0:0:0:0:
36,128,87471,1,0,0:0:0:0:
34,260,87640,1,0,0:0:0:0:
173,259,87808,1,0,0:0:0:0:
269,261,87977,2,0,B|305:256|312:239|313:220|311:212|306:197,1,70
310,215,88483,5,0,0:0:0:0:
314,106,88651,1,0,0:0:0:0:
235,107,88988,2,0,L|144:107,1,70
165,107,89494,5,0,0:0:0:0:
85,112,89662,2,0,B|36:112|36:71|49:57,1,70
42,70,89999,2,0,B|45:32|67:28|84:25|93:33,1,70
153,31,90337,1,0,0:0:0:0:
230,32,90674,2,0,L|300:32,1,70
377,37,91179,5,0,0:0:0:0:
377,128,91348,1,0,0:0:0:0:
379,228,91685,2,0,L|375:303,1,70
355,320,92359,5,0,0:0:0:0:
96,255,92528,1,0,0:0:0:0:
352,190,92696,1,0,0:0:0:0:
97,127,92865,1,0,0:0:0:0:
353,66,93033,1,0,0:0:0:0:
98,33,93202,1,0,0:0:0:0:
233,35,93370,2,0,L|233:108,1,70
234,165,93876,1,0,0:0:0:0:
233,292,94044,1,0,0:0:0:0:
233,292,94382,2,0,L|233:195,1,70
234,165,94887,5,0,0:0:0:0:
172,166,95056,2,0,L|94:166,1,70
298,168,95393,2,0,L|369:168,1,70
427,171,95730,1,0,0:0:0:0:
43,167,95898,1,0,0:0:0:0:
405,168,96067,1,0,0:0:0:0:
63,169,96235,1,0,0:0:0:0:
231,325,96741,5,0,0:0:0:0:
383,125,97078,1,0,0:0:0:0:
92,124,97247,1,0,0:0:0:0:
417,285,100449,5,0,0:0:0:0:
100,97,100786,1,0,0:0:0:0:
146,134,101123,1,0,0:0:0:0:
363,256,101460,1,0,0:0:0:0:
313,226,102134,1,0,0:0:0:0:
198,162,102471,1,0,0:0:0:0:
98,288,103146,1,0,0:0:0:0:
413,96,103483,1,0,0:0:0:0:
256,191,103820,5,0,0:0:0:0:
249,192,104157,1,0,0:0:0:0:
61,193,104831,1,0,0:0:0:0:
446,193,105168,1,0,0:0:0:0:
446,193,105842,1,0,0:0:0:0:
61,193,106179,1,0,0:0:0:0:
257,192,106853,5,0,0:0:0:0:
257,192,107191,1,0,0:0:0:0:
256,192,107865,1,0,0:0:0:0:
256,192,108202,1,0,0:0:0:0:
256,192,108539,1,0,0:0:0:0:
256,192,108876,1,0,0:0:0:0:
256,192,109550,5,0,0:0:0:0:
256,192,109887,1,0,0:0:0:0:
256,192,110224,2,0,L|329:192,1,70
323,192,110561,2,0,L|401:193,1,70
396,191,110898,1,0,0:0:0:0:
397,85,111067,1,0,0:0:0:0:
392,315,111235,1,0,0:0:0:0:
396,191,111573,1,0,0:0:0:0:
290,191,111910,6,0,L|215:190,1,70
220,190,112247,2,0,L|139:189,1,70
150,189,112584,1,0,0:0:0:0:
85,192,112921,1,0,0:0:0:0:
85,192,113258,2,0,L|157:192,1,70
155,192,113595,2,0,L|228:192,1,70
341,287,113932,1,0,0:0:0:0:
339,98,114269,1,0,0:0:0:0:
338,192,114606,6,0,L|257:192,1,70
268,192,114943,2,0,L|189:191,1,70
198,191,115280,1,0,0:0:0:0:
117,194,115449,1,0,0:0:0:0:
37,189,115617,5,0,0:0:0:0:
98,97,115786,1,0,0:0:0:0:
160,288,115955,1,0,0:0:0:0:
228,96,116123,1,0,0:0:0:0:
290,285,116292,1,0,0:0:0:0:
354,101,116460,1,0,0:0:0:0:
417,287,116629,1,0,0:0:0:0:
417,287,116966,1,0,0:0:0:0:
417,191,117303,6,0,L|347:150,1,70
293,155,117640,2,0,L|227:200,1,70
170,194,117977,2,0,L|108:156,1,70
47,157,118314,1,0,0:0:0:0:
47,157,118651,1,0,0:0:0:0:
207,158,118988,1,0,0:0:0:0:
372,159,119325,1,0,0:0:0:0:
372,159,119662,1,0,0:0:0:0:
256,192,119999,12,0,125393,0:0:0:0:
