osu file format v14

[General]
AudioFilename: audio.mp3
AudioLeadIn: 0
PreviewTime: 76233
Countdown: 0
SampleSet: Soft
StackLeniency: 0.2
Mode: 0
LetterboxInBreaks: 0
WidescreenStoryboard: 0

[Editor]
Bookmarks: 76233,89566,112233
DistanceSpacing: 0.6
BeatDivisor: 16
GridSize: 8
TimelineZoom: 2.999999

[Metadata]
Title:Billy
TitleUnicode:Billy
Artist:6IX9INE
ArtistUnicode:6IX9INE
Creator:-M4x
Version:oh you know
Source:
Tags:
BeatmapID:1866886
BeatmapSetID:893233

[Difficulty]
HPDrainRate:6.9
CircleSize:4.7
OverallDifficulty:9
ApproachRate:9.3
SliderMultiplier:2.69
SliderTickRate:1

[Events]
//Background and Video events
0,0,"wallpaper2you_337310.jpg",0,0
//Break Periods
//Storyboard Layer 0 (Background)
//Storyboard Layer 1 (Fail)
//Storyboard Layer 2 (Pass)
//Storyboard Layer 3 (Foreground)
//Storyboard Sound Samples

[TimingPoints]
57567,333.333333333333,4,1,0,69,1,0
76233,-100,4,2,0,69,0,0
76900,-27.10027100271,4,2,0,69,0,0
76941,-27.10027100271,4,2,0,5,0,0
77233,-66.6666666666667,4,2,0,69,0,0
77525,-303.030303030303,4,2,0,5,0,0
77566,-100,4,2,0,69,0,0
78233,-27.10027100271,4,2,0,69,0,0
78275,-27.10027100271,4,2,0,5,0,0
78566,-66.6666666666667,4,2,0,69,0,0
78900,-500,4,2,0,69,0,0
79566,-66.6666666666667,4,2,0,69,0,0
79608,-66.6666666666667,4,2,0,5,0,0
79733,-66.6666666666667,4,2,0,69,0,0
80941,-66.6666666666667,4,2,0,5,0,0
81066,-66.6666666666667,4,2,0,69,0,0
81900,-69.4444444444444,4,2,0,69,0,0
82566,-100,4,2,0,69,0,0
82900,-66.6666666666667,4,2,0,69,0,0
82941,-66.6666666666667,4,2,0,5,0,0
83066,-66.6666666666667,4,2,0,69,0,0
83900,-1000,4,2,0,69,0,0
84191,-1000,4,2,0,5,0,0
84233,-1000,4,2,0,69,0,0
84566,-66.6666666666667,4,2,0,69,0,0
85275,-66.6666666666667,4,2,0,5,0,0
85400,-66.6666666666667,4,2,0,69,0,0
85441,-66.6666666666667,4,2,0,5,0,0
85566,-66.6666666666667,4,2,0,69,0,0
86275,-66.6666666666667,4,2,0,5,0,0
86400,-66.6666666666667,4,2,0,69,0,0
87233,-200,4,2,0,69,0,0
89566,-66.6666666666667,4,2,0,69,0,0
89816,-66.6666666666667,4,2,0,5,0,0
89900,-66.6666666666667,4,2,0,69,0,0
94941,-66.6666666666667,4,2,0,5,0,0
95233,-66.6666666666667,4,2,0,69,0,0
100900,-50,4,2,0,69,0,0
102275,-50,4,2,0,5,0,0
102400,-50,4,2,0,69,0,0
104275,-50,4,2,0,5,0,0
104566,-50,4,2,0,69,0,0
104608,-50,4,2,0,5,0,0
104900,-50,4,2,0,69,0,0
104941,-50,4,2,0,5,0,0
105233,-66.6666666666667,4,2,0,69,0,0
105775,-66.6666666666667,4,2,0,5,0,0
105900,-66.6666666666667,4,2,0,69,0,0
105941,-66.6666666666667,4,2,0,5,0,0
106066,-66.6666666666667,4,2,0,69,0,0
106233,-66.6666666666667,4,2,0,69,0,0
108900,-50,4,2,0,69,0,0
110900,-33.3333333333333,4,2,0,69,0,0
113483,-2,4,2,0,69,0,0
113539,-2,4,2,0,5,0,0

[Colours]
Combo1 : 205,205,205
Combo2 : 128,118,250
Combo3 : 232,0,0

[HitObjects]
160,67,76233,5,4,0:1:0:0:
44,101,76566,2,0,P|80:66|172:75,1,134.5,8|4,3:0|3:0,0:0:0:0:
391,142,76900,6,0,B|380:133|367:116|367:116|379:184|332:228,1,124.076248982376,4|0,0:0|0:0,0:0:0:0:
451,226,77233,6,0,P|353:225|296:303,1,201.750007696152,2|4,1:0|3:0,0:0:0:0:
119,238,77566,5,0,3:0:0:0:
135,154,77733,1,0,3:0:0:0:
105,226,77900,1,4,3:0:0:0:
121,142,78067,1,0,3:0:0:0:
231,305,78233,6,0,B|317:276|317:276|295:294|285:338,1,124.076248982376,4|0,0:0|0:0,0:0:0:0:
430,311,78566,6,0,B|339:302|339:302|315:312|315:312|197:302,1,201.750007696152,0|0,1:0|3:0,0:0:0:0:
231,305,78900,6,0,L|235:337,1,26.9,4|0,0:1|0:0,0:0:0:0:
85,99,79233,2,0,L|88:72,1,26.9,2|2,0:0|0:0,0:0:0:0:
80,22,79566,6,0,L|94:111,1,50.437501924038,0|0,1:0|0:0,0:0:0:0:
91,75,79733,1,8,3:0:0:0:
265,132,79900,2,0,L|233:331,1,201.750007696152,4|0,3:0|1:0,0:0:0:0:
448,192,80233,6,0,B|471:170|471:170|337:186|337:186|369:201,3,201.750007696152,0|4|4|0,1:0|3:0|3:0|3:0,0:0:0:0:
432,22,80900,6,0,L|527:32,1,50.437501924038,0|0,1:0|0:0,0:0:0:0:
485,31,81066,1,8,3:0:0:0:
509,227,81233,2,0,L|482:27,2,201.750007696152,4|0|4,3:0|3:0|1:0,0:0:0:0:
67,289,81900,6,0,P|144:348|235:329,2,193.680004728516,4|0|4,3:0|3:0|1:2,0:0:0:0:
350,67,82566,6,0,L|369:208,1,134.5,4|0,3:0|1:0,0:0:0:0:
233,54,82900,6,0,L|182:48,1,50.437501924038,0|0,1:2|0:0,0:0:0:0:
185,52,83066,1,0,1:0:0:0:
40,100,83233,2,0,B|121:89|121:89|152:65|152:65|232:54,2,201.750007696152,4|0|0,3:0|3:0|1:0,0:0:0:0:
67,289,83733,1,4,3:0:0:0:
43,123,83900,6,0,L|39:99,1,23.5375,4|0,0:0|0:0,0:0:0:0:
55,206,84233,1,4,1:0:0:0:
457,206,84566,5,4,3:0:0:0:
445,289,84733,1,2,0:3:0:0:
469,124,84900,2,2,L|472:99,8,25.218750962019,6|2|2|2|2|2|2|2|2,1:2|1:2|1:2|1:2|1:2|1:2|1:2|1:2|1:2,1:2:0:0:
329,78,85233,6,0,L|324:27,1,50.437501924038,0|0,1:0|0:0,0:0:0:0:
399,72,85400,2,0,L|394:21,1,50.437501924038,4|0,1:3|0:0,0:0:0:0:
328,306,85566,6,0,P|269:353|137:338,3,201.750007696152,0|0|8|4,1:0|3:0|3:0|3:0,0:0:0:0:
278,83,86233,6,0,L|346:76,1,50.437501924038,0|0,1:0|0:0,0:0:0:0:
331,81,86400,1,4,3:0:0:0:
457,206,86566,2,0,L|453:230,16,25.218750962019,4|0|0|0|0|0|0|0|0|0|0|0|0|0|0|0|0,3:0|3:0|3:0|3:0|3:0|3:0|3:0|3:0|3:0|3:0|3:0|3:0|3:0|3:0|3:0|3:0|3:0,3:0:0:0:
55,178,87233,5,0,0:0:0:0:
55,178,87400,1,0,0:0:0:0:
55,178,87566,1,0,0:0:0:0:
55,178,87900,1,0,0:0:0:0:
55,178,88233,1,0,0:0:0:0:
55,178,88400,1,0,0:0:0:0:
55,178,88566,1,0,0:0:0:0:
55,178,88733,1,0,0:0:0:0:
55,178,88900,1,0,0:0:0:0:
55,178,89066,1,0,0:0:0:0:
55,178,89233,1,0,0:0:0:0:
55,178,89566,6,0,B|62:92|62:92|102:351,1,302.625011544228,4|0,1:0|0:0,0:0:0:0:
204,369,89900,1,4,3:0:0:0:
418,305,90066,1,0,3:0:0:0:
256,239,90233,6,0,P|353:232|418:305,1,201.750007696152,4|0,1:0|3:0,0:0:0:0:
450,92,90566,5,2,0:3:0:0:
418,304,90733,1,0,1:0:0:0:
450,92,90900,1,2,0:3:0:0:
62,92,91233,6,0,L|70:142,1,50.437501924038,4|0,3:0|0:0,0:0:0:0:
73,145,91400,1,0,3:0:0:0:
418,304,91566,5,0,1:0:0:0:
450,92,91733,1,4,3:0:0:0:
418,304,91900,1,2,0:3:0:0:
91,60,92233,5,4,3:0:0:0:
73,145,92400,1,0,3:0:0:0:
199,364,92566,1,4,1:3:0:0:
217,279,92733,2,0,L|440:306,2,201.750007696152,0|0|0,3:0|1:0|3:0,0:0:0:0:
434,217,93233,5,0,1:0:0:0:
417,303,93400,1,4,3:0:0:0:
199,364,93566,1,0,1:0:0:0:
267,172,93733,6,0,P|367:152|434:218,2,201.750007696152,0|4|2,1:0|3:0|0:3,0:0:0:0:
199,364,94233,5,0,1:0:0:0:
165,152,94400,1,4,3:0:0:0:
199,364,94567,1,0,3:0:0:0:
313,20,94900,6,0,L|382:27,1,50.437501924038,4|0,1:2|0:0,0:0:0:0:
363,25,95233,5,4,3:0:0:0:
383,23,95400,1,0,3:0:0:0:
256,88,95566,1,0,1:0:0:0:
276,86,95733,1,0,3:0:0:0:
149,151,95900,1,0,3:0:0:0:
169,149,96066,1,0,1:0:0:0:
52,68,96233,6,2,L|54:93,8,25.218750962019,2|2|2|2|2|2|2|2|2,1:2|1:2|1:2|1:2|1:2|1:2|1:2|1:2|1:2,1:2:0:0:
54,291,96566,2,0,B|22:290|22:290|80:326|128:373|128:373|117:340,4,201.750007696152,0|0|0|8|4,1:0|3:0|1:0|3:0|3:0,0:0:0:0:
458,93,97566,5,4,0:0:0:0:
458,93,97900,1,4,0:0:0:0:
458,93,98233,1,0,0:0:0:0:
458,93,98400,1,0,0:0:0:0:
458,93,98566,1,0,0:0:0:0:
458,93,98733,1,0,0:0:0:0:
458,93,98900,1,0,0:0:0:0:
458,93,99066,1,0,0:0:0:0:
458,93,99233,1,0,0:0:0:0:
458,93,99399,1,0,0:0:0:0:
458,93,99566,1,0,0:0:0:0:
458,93,99732,1,0,0:0:0:0:
458,93,99899,1,4,0:0:0:0:
395,340,100233,5,4,1:0:0:0:
451,293,100566,1,4,3:0:0:0:
394,339,100733,1,0,3:0:0:0:
126,323,100900,6,0,L|418:341,1,269,0|0,1:0|0:0,0:0:0:0:
386,61,101233,2,0,L|94:43,1,269,4|0,1:3|0:0,0:0:0:0:
125,346,101566,2,0,L|417:338,1,269,4|0,1:3|0:0,0:0:0:0:
386,37,101899,2,0,L|93:44,1,269,4|0,1:3|0:0,0:0:0:0:
393,339,102233,6,0,L|401:254,1,67.25,4|0,1:2|0:0,0:0:0:0:
402,276,102400,1,4,3:0:0:0:
153,230,102566,6,0,P|211:272|409:272,2,269,0|0|4,1:0|3:0|0:1,0:0:0:0:
386,37,103233,5,0,1:0:0:0:
402,141,103400,1,0,3:0:0:0:
401,44,103566,1,0,1:0:0:0:
417,148,103733,1,0,3:0:0:0:
416,51,103900,1,0,3:0:0:0:
432,155,104067,1,0,1:0:0:0:
74,221,104233,6,0,L|81:143,1,67.25,4|0,1:2|0:0,0:0:0:0:
438,221,104566,2,0,L|431:143,1,67.25,4|0,1:2|0:0,0:0:0:0:
86,221,104900,2,0,L|79:143,1,67.25,4|0,1:2|0:0,0:0:0:0:
431,154,105233,6,0,L|411:369,2,201.750007696152,8|4|4,3:0|3:0|1:0,0:0:0:0:
446,78,105733,6,0,L|377:85,1,50.437501924038,4|0,3:0|0:0,0:0:0:0:
294,1,105900,2,0,L|363:8,1,50.437501924038,8|0,3:0|0:0,0:0:0:0:
217,150,106066,1,0,1:0:0:0:
205,78,106233,6,0,L|200:48,8,25.218750962019,0|0|0|0|0|0|0|0|0,3:0|3:0|3:0|3:0|3:0|3:0|3:0|3:0|3:0,3:0:0:0:
307,306,106566,2,0,L|312:336,8,25.218750962019,0|0|0|0|0|0|0|0|0,3:0|3:0|3:0|3:0|3:0|3:0|3:0|3:0|3:0,3:0:0:0:
370,141,106900,2,0,L|400:136,8,25.218750962019,0|0|0|0|0|0|0|0|0,3:0|3:0|3:0|3:0|3:0|3:0|3:0|3:0|3:0,3:0:0:0:
142,243,107233,2,0,L|112:248,8,25.218750962019,0|0|0|0|0|0|0|0|0,3:0|3:0|3:0|3:0|3:0|3:0|3:0|3:0|3:0,3:0:0:0:
307,306,107566,6,0,L|337:311,8,25.218750962019,0|0|0|0|0|0|0|0|0,3:0|3:0|3:0|3:0|3:0|3:0|3:0|3:0|3:0,3:0:0:0:
117,247,107900,2,0,L|320:217,2,201.750007696152,2|2|4,0:3|0:3|0:1,0:0:0:0:
66,78,108400,5,0,3:0:0:0:
117,247,108566,1,4,1:3:0:0:
66,78,108733,1,0,3:0:0:0:
448,35,108900,6,0,L|423:331,1,269,0|0,1:0|0:0,0:0:0:0:
66,78,109233,2,0,L|90:374,1,269,4|0,1:3|0:0,0:0:0:0:
454,51,109566,2,0,L|429:347,1,269,4|0,1:3|0:0,0:0:0:0:
60,94,109900,2,0,L|84:390,1,269,4|0,1:3|3:0,0:0:0:0:
460,67,110233,6,0,L|435:363,3,269,4|4|0|4,1:2|3:0|3:0|3:0,0:0:0:0:
102,120,110900,6,0,B|256:116|256:116|177:152|177:152|186:387,1,403.500015392304,0|0,1:0|0:0,0:0:0:0:
256,253,111150,2,0,P|219:165|203:310,1,403.500015392304,0|0,1:0|0:0,0:0:0:0:
256,253,111483,2,0,B|250:130|250:130|365:239|365:239|359:117,1,403.500015392304,0|0,1:0|0:0,0:0:0:0:
442,279,111816,2,0,L|430:77,1,201.750007696152,0|0,1:0|0:0,0:0:0:0:
489,204,113483,6,0,L|-8:173,1,448.333333333333,0|0,1:0|0:0,0:0:0:0:
