osu file format v14

[General]
AudioFilename: audio.mp3
AudioLeadIn: 0
PreviewTime: -1
Countdown: 1
SampleSet: Normal
StackLeniency: 0.7
Mode: 0
LetterboxInBreaks: 0
WidescreenStoryboard: 0

[Editor]
DistanceSpacing: 0.7
BeatDivisor: 4
GridSize: 32
TimelineZoom: 2.4

[Metadata]
Title:BILLY (Lyrics)
TitleUnicode:BILLY (Lyrics)
Artist:6IX9INE
ArtistUnicode:6IX9INE
Creator:JalterThighs
Version:despacito
Source:
Tags:
BeatmapID:1694120
BeatmapSetID:807151

[Difficulty]
HPDrainRate:5
CircleSize:2
OverallDifficulty:5
ApproachRate:9.8
SliderMultiplier:1.4
SliderTickRate:1

[Events]
//Background and Video events
0,0,"EjwI__hWkAAT-Vr.jpg",0,0
//Break Periods
//Storyboard Layer 0 (Background)
//Storyboard Layer 1 (Fail)
//Storyboard Layer 2 (Pass)
//Storyboard Layer 3 (Foreground)
//Storyboard Layer 4 (Overlay)
//Storyboard Sound Samples

[TimingPoints]
17183,333.333333333333,4,1,0,100,1,0
17183,-50,4,1,0,100,0,0
17824,-50,4,1,0,100,0,0
25795,-100,4,1,0,100,0,0
28432,-50,4,1,0,100,0,0

[HitObjects]
64,288,18349,6,0,P|64:160|64:192,1,140
224,288,19016,2,0,L|224:128,1,140
416,288,19682,2,0,L|416:128,1,140
416,64,20349,2,0,B|320:64|384:96|256:128|320:32|448:64|448:64,1,210
224,64,21016,2,0,B|96:96|96:128|192:128|256:64,1,210
384,64,21682,2,0,P|384:416|384:416,1,630
192,256,22349,6,0,B|192:128|192:320|192:416|192:416|192:384|192:192|192:192|192:224|192:224,1,560
192,256,23099,2,0,B|320:256|160:256|64:256|352:256|352:256,1,140
320,256,23682,2,0,B|352:192|352:192|288:320|288:320,1,210
96,256,24349,2,0,B|160:160|160:160|-32:416|-32:416,1,420
96,256,25016,2,0,P|224:320|224:320,1,770
320,288,25682,2,0,P|352:224|352:224,1,140
352,224,25849,2,0,B|416:128|352:128|416:224,1,140
96,224,29016,5,0,0:0:0:0:
256,32,29182,1,0,0:0:0:0:
288,224,29349,1,0,0:0:0:0:
96,64,29516,1,0,0:0:0:0:
288,224,29682,2,0,L|448:224,1,140
480,64,30016,1,0,0:0:0:0:
288,224,30182,1,0,0:0:0:0:
448,288,30349,1,0,0:0:0:0:
384,64,30516,1,0,0:0:0:0:
256,288,30682,1,0,0:0:0:0:
128,32,30849,1,0,0:0:0:0:
256,32,31016,6,0,L|256:192,1,140
256,288,31349,1,0,0:0:0:0:
448,64,31516,1,0,0:0:0:0:
128,288,31683,1,0,0:0:0:0:
448,288,31849,1,0,0:0:0:0:
320,32,32016,1,0,0:0:0:0:
256,256,32183,1,0,0:0:0:0:
416,192,32349,6,0,L|416:32,1,140
160,96,32683,1,0,0:0:0:0:
320,256,32849,1,0,0:0:0:0:
384,32,33016,1,0,0:0:0:0:
160,160,33183,1,0,0:0:0:0:
384,256,33349,1,0,0:0:0:0:
320,32,33516,1,0,0:0:0:0:
128,288,33683,1,0,0:0:0:0:
384,64,33849,1,0,0:0:0:0:
96,224,34016,1,0,0:0:0:0:
416,128,34183,1,0,0:0:0:0:
192,320,34349,6,0,L|192:160,1,140
320,32,34683,1,0,0:0:0:0:
352,256,34849,1,0,0:0:0:0:
128,64,35016,1,0,0:0:0:0:
416,96,35183,1,0,0:0:0:0:
64,352,35349,1,0,0:0:0:0:
352,0,35516,1,0,0:0:0:0:
416,320,35683,1,0,0:0:0:0:
96,64,35849,1,0,0:0:0:0:
512,128,36016,1,0,0:0:0:0:
96,352,36183,1,0,0:0:0:0:
256,256,36349,6,0,B|256:32|256:128|256:320|256:352|256:64,1,420
384,256,37016,6,0,L|384:96,1,140
128,256,37349,2,0,L|128:96,1,140
256,256,37683,2,0,L|256:96,1,140
416,96,38016,2,0,L|416:288,1,140
256,64,38349,2,0,L|256:256,1,140
64,224,38683,2,0,L|64:64,1,140
448,64,39016,2,0,L|448:224,1,140
160,64,39349,2,0,B|256:64|256:128|160:224|96:224|320:224,1,280
384,224,39849,5,0,0:0:0:0:
64,32,40016,1,0,0:0:0:0:
416,64,40183,1,0,0:0:0:0:
128,288,40349,5,0,0:0:0:0:
160,32,40516,1,0,0:0:0:0:
288,288,40683,5,0,0:0:0:0:
352,32,40849,1,0,0:0:0:0:
32,352,41016,5,0,0:0:0:0:
416,32,41183,1,0,0:0:0:0:
128,384,41349,5,0,0:0:0:0:
512,32,41516,1,0,0:0:0:0:
224,384,41682,5,0,0:0:0:0:
352,32,41849,1,0,0:0:0:0:
384,192,42016,6,0,P|288:192|480:192,1,280
352,32,42516,1,0,0:0:0:0:
192,256,42682,1,0,0:0:0:0:
448,160,42849,1,0,0:0:0:0:
160,32,43016,1,0,0:0:0:0:
256,320,43182,1,0,0:0:0:0:
416,64,43349,1,0,0:0:0:0:
128,288,43516,1,0,0:0:0:0:
352,288,43682,5,0,0:0:0:0:
352,32,43849,1,0,0:0:0:0:
192,320,44016,5,0,0:0:0:0:
192,32,44182,1,0,0:0:0:0:
448,320,44349,5,0,0:0:0:0:
32,32,44516,1,0,0:0:0:0:
448,192,44682,6,0,P|320:192|480:192,1,280
256,64,45182,1,0,0:0:0:0:
288,288,45349,1,0,0:0:0:0:
416,64,45516,1,0,0:0:0:0:
128,256,45682,1,0,0:0:0:0:
128,256,45766,1,0,0:0:0:0:
128,256,45849,1,0,0:0:0:0:
288,192,46016,1,0,0:0:0:0:
288,192,46099,1,0,0:0:0:0:
288,192,46182,1,0,0:0:0:0:
384,96,46349,1,0,0:0:0:0:
384,96,46432,1,0,0:0:0:0:
384,96,46516,1,0,0:0:0:0:
288,192,46682,1,0,0:0:0:0:
288,192,46765,1,0,0:0:0:0:
288,192,46848,1,0,0:0:0:0:
128,256,47016,1,0,0:0:0:0:
128,256,47100,1,0,0:0:0:0:
128,256,47183,1,0,0:0:0:0:
384,288,47349,6,0,P|448:288|192:288,1,280
160,96,47849,5,0,0:0:0:0:
256,320,48016,1,0,0:0:0:0:
352,64,48182,5,0,0:0:0:0:
416,320,48349,1,0,0:0:0:0:
96,32,48516,5,0,0:0:0:0:
256,320,48682,1,0,0:0:0:0:
32,32,48849,5,0,0:0:0:0:
352,320,49016,1,0,0:0:0:0:
96,32,49182,5,0,0:0:0:0:
448,288,49349,1,0,0:0:0:0:
32,32,49516,5,0,0:0:0:0:
448,352,49682,1,0,0:0:0:0:
192,32,49849,5,0,0:0:0:0:
128,192,50016,6,0,P|320:192|224:192,1,280
352,320,50516,1,0,0:0:0:0:
256,32,50682,1,0,0:0:0:0:
352,320,50849,1,0,0:0:0:0:
320,32,51016,1,0,0:0:0:0:
352,320,51182,1,0,0:0:0:0:
384,32,51349,1,0,0:0:0:0:
352,320,51516,1,0,0:0:0:0:
480,32,51682,1,0,0:0:0:0:
352,320,51849,1,0,0:0:0:0:
384,32,52016,1,0,0:0:0:0:
352,320,52182,1,0,0:0:0:0:
288,32,52349,1,0,0:0:0:0:
128,192,52516,6,0,B|192:320|192:320|256:416|64:64|0:-32|0:-32,1,560
