osu file format v14

[General]
AudioFilename: audio.mp3
AudioLeadIn: 0
PreviewTime:87132
Countdown: 0
SampleSet: Soft
StackLeniency: 0.4
Mode: 0
LetterboxInBreaks: 0
WidescreenStoryboard: 1

[Editor]
DistanceSpacing: 1
BeatDivisor: 8
GridSize: 16
TimelineZoom: 5.45

[Metadata]
Title:Holy Wind
TitleUnicode:Holy Wind
Artist:69 de 74
ArtistUnicode:69 de 74
Creator:Sphaela
Version:Setu's Insane
Source:BMSをいっぱい作る2019
Tags:Be-Music Source いっぱい作る2019 Ippai Tsukuru Tukuru 2019 Starting Deck Package Event RENAISSANCE MUSH.T Videogame Video Game Electronic Instrumental featured artist fa Another Flower NM2 Setu __Ag
BeatmapID:4181759
BeatmapSetID:1957515

[Difficulty]
HPDrainRate:5
CircleSize:4
OverallDifficulty:8
ApproachRate:9
SliderMultiplier:1.6
SliderTickRate:1

[Events]
//Background and Video events
0,0,"bg.jpg",0,0
//Break Periods
//Storyboard Layer 0 (Background)
//Storyboard Layer 1 (Fail)
//Storyboard Layer 2 (Pass)
//Storyboard Layer 3 (Foreground)
//Storyboard Layer 4 (Overlay)
//Storyboard Sound Samples

[TimingPoints]
1364,335.195530726257,4,2,1,80,1,0
5721,-100,4,2,2,80,0,0
6056,-100,4,2,1,80,0,0
6391,-100,4,2,2,80,0,0
6727,-100,4,2,1,80,0,0
9743,-100,4,2,2,80,0,0
10079,-100,4,2,1,80,0,0
10414,-100,4,2,2,80,0,0
10749,-100,4,2,1,80,0,0
12090,-100,4,2,1,90,0,0
12425,-100,4,2,2,90,0,0
13095,-100,4,2,1,90,0,0
13766,-100,4,2,2,90,0,0
14436,-100,4,2,1,90,0,0
15107,-100,4,2,2,90,0,0
15777,-100,4,2,1,90,0,0
16447,-100,4,2,2,90,0,0
16782,-100,4,2,1,90,0,0
17118,-100,4,2,2,90,0,0
17453,-100,4,2,1,90,0,0
22816,-100,4,2,1,100,0,0
75986,-100,4,2,1,60,0,0
76112,-100,4,2,1,100,0,0
87174,-83.3333333333333,4,2,1,100,0,0
87341,-83.3333333333333,4,2,2,100,0,0
87844,-83.3333333333333,4,2,1,100,0,0
88682,-83.3333333333333,4,2,2,100,0,0
88850,-83.3333333333333,4,2,1,100,0,0
89017,-83.3333333333333,4,2,2,100,0,0
89185,-83.3333333333333,4,2,1,100,0,0
89352,-83.3333333333333,4,2,2,100,0,0
89520,-83.3333333333333,4,2,1,100,0,0
90023,-83.3333333333333,4,2,2,100,0,0
90526,-83.3333333333333,4,2,1,100,0,0
92704,-83.3333333333333,4,2,2,100,0,0
93207,-83.3333333333333,4,2,1,100,0,0
94045,-83.3333333333333,4,2,2,100,0,0
94548,-83.3333333333333,4,2,1,100,0,0
96769,-83.3333333333333,4,2,1,60,0,0
96894,-83.3333333333333,4,2,1,100,0,0
97439,-83.3333333333333,4,2,1,60,0,0
97565,-83.3333333333333,4,2,1,100,0,0
97900,-83.3333333333333,4,2,3,100,0,0
97942,-83.3333333333333,4,2,1,100,0,0
99073,-83.3333333333333,4,2,2,100,0,0
99241,-83.3333333333333,4,2,1,100,0,0
99408,-83.3333333333333,4,2,2,100,0,0
99576,-83.3333333333333,4,2,1,100,0,0
99743,-83.3333333333333,4,2,2,100,0,0
99911,-83.3333333333333,4,2,1,100,0,0
100079,-83.3333333333333,4,2,2,100,0,0
100246,-83.3333333333333,4,2,1,100,0,0
100749,-83.3333333333333,4,2,2,100,0,0
101252,-83.3333333333333,4,2,1,100,0,0
103431,-83.3333333333333,4,2,2,100,0,0
103933,-83.3333333333333,4,2,1,100,0,0
104771,-83.3333333333333,4,2,2,100,0,0
105274,-83.3333333333333,4,2,1,100,0,0
107327,-83.3333333333333,4,2,1,60,0,0
107453,-83.3333333333333,4,2,1,100,0,0
107830,-83.3333333333333,4,2,1,60,0,0
107956,-83.3333333333333,4,2,1,100,0,0
108333,-83.3333333333333,4,2,1,60,0,0
108458,-83.3333333333333,4,2,1,100,0,0
111643,-100,4,2,1,100,0,0
111685,-100,4,2,1,60,0,0
111810,-100,4,2,1,100,0,0
112565,-100,4,2,1,5,0,0

[Colours]
Combo1 : 188,243,253
Combo2 : 166,73,66
Combo3 : 216,157,114
Combo4 : 152,35,31

[HitObjects]
38,44,1364,6,0,L|89:53,1,40,6|0,3:2|0:2,0:2:0:0:
162,106,1531,2,0,L|111:115,1,40,2|0,3:2|0:2,0:2:0:0:
48,170,1699,2,0,L|40:117,3,40,2|0|0|0,0:2|0:2|0:2|0:2,0:2:0:0:
127,235,2034,2,0,L|135:182,3,40,2|0|0|0,0:2|0:2|0:2|0:2,0:2:0:0:
213,174,2369,2,0,L|311:189,1,80,6|0,3:2|0:2,0:2:0:0:
464,75,2704,6,0,B|478:56|478:56|472:25,1,40,6|0,3:2|0:2,0:2:0:0:
397,18,2872,2,0,B|383:37|383:37|389:68,1,40,2|0,3:2|0:2,0:2:0:0:
460,156,3039,2,0,L|516:146,3,40,2|0|0|0,0:2|0:2|0:2|0:2,0:2:0:0:
333,112,3375,2,0,L|277:102,3,40,2|0|0|0,0:2|0:2|0:2|0:2,0:2:0:0:
376,188,3710,2,0,L|388:269,1,80,6|0,3:2|0:2,0:2:0:0:
211,352,4045,6,0,L|152:341,1,40,6|0,3:2|0:2,0:2:0:0:
293,330,4213,2,0,L|352:319,1,40,2|0,3:2|0:2,0:2:0:0:
233,276,4380,2,0,B|221:256|221:256|222:223,3,40,2|0|0|0,0:2|0:2|0:2|0:2,0:2:0:0:
282,190,4715,2,0,B|294:170|294:170|293:137,3,40,2|0|0|0,0:2|0:2|0:2|0:2,0:2:0:0:
231,104,5051,2,0,L|133:120,1,80,6|0,3:2|0:2,0:2:0:0:
254,25,5386,6,0,P|279:33|304:59,1,40,6|0,3:2|0:2,0:2:0:0:
366,31,5553,2,0,P|366:57|349:89,1,40,2|0,3:2|0:2,0:2:0:0:
231,104,5721,1,2,0:2:0:0:
231,104,6057,6,0,P|206:112|181:138,1,40,6|0,3:2|0:2,0:2:0:0:
119,110,6224,2,0,P|118:136|135:168,1,40,2|0,3:2|0:2,0:2:0:0:
254,183,6392,1,2,0:2:0:0:
55,297,6727,6,0,L|-11:287,1,40,6|0,3:2|0:2,0:2:0:0:
46,218,6894,2,0,L|85:223,1,40,2|0,3:2|0:2,0:2:0:0:
127,338,7062,2,0,L|166:332,3,40,2|0|0|0,0:2|0:2|0:2|0:2,0:2:0:0:
221,276,7397,2,0,L|260:281,3,40,2|0|0|0,0:2|0:2|0:2|0:2,0:2:0:0:
339,315,7732,2,0,L|326:219,1,80,6|0,3:2|0:2,0:2:0:0:
197,35,8067,6,0,B|190:50|190:50|201:81,1,40,6|0,3:2|0:2,0:2:0:0:
273,104,8235,2,0,B|280:89|280:89|269:58,1,40,2|0,3:2|0:2,0:2:0:0:
194,148,8403,2,0,L|139:140,3,40,2|0|0|0,0:2|0:2|0:2|0:2,0:2:0:0:
268,193,8738,2,0,L|323:185,3,40,2|0|0|0,0:2|0:2|0:2|0:2,0:2:0:0:
193,233,9073,2,0,B|179:257|175:285|175:285|189:299|187:326,1,80,6|0,3:2|0:2,0:2:0:0:
334,358,9408,6,0,L|343:306,1,40,6|0,3:2|0:2,0:2:0:0:
409,373,9576,2,0,L|418:321,1,40,2|0,3:2|0:2,0:2:0:0:
330,354,9743,2,1,L|339:302,3,40,2|0|0|0,0:2|0:2|0:2|0:2,0:0:0:0:
471,244,10079,6,0,L|462:192,1,40,6|0,3:2|0:2,0:2:0:0:
396,259,10247,2,0,L|387:207,1,40,2|0,3:2|0:2,0:2:0:0:
475,240,10414,2,1,L|466:188,3,40,2|0|0|0,0:2|0:2|0:2|0:2,0:0:0:0:
407,146,10749,6,0,P|358:148|310:218,1,120,6|0,3:2|0:2,0:2:0:0:
275,265,11084,2,0,B|235:238|235:238|140:230,1,120,6|0,3:2|0:2,0:2:0:0:
98,193,11419,1,6,3:2:0:0:
203,318,11587,1,2,3:2:0:0:
38,382,11755,1,2,3:2:0:0:
38,382,11838,1,0,3:2:0:0:
38,382,11922,1,0,3:2:0:0:
38,382,12006,1,0,3:2:0:0:
38,382,12090,6,0,P|30:331|29:283,1,80,6|2,3:2|3:2,0:2:0:0:
98,193,12425,2,1,P|123:185|153:161,3,40,10|0|0|0,0:2|0:2|0:2|0:2,0:0:0:0:
220,196,12760,2,1,P|220:169|206:133,3,40,10|0|0|0,0:2|0:2|0:2|0:2,0:0:0:0:
260,81,13095,2,0,P|235:72|196:74,3,40,6|0|0|0,3:2|0:2|0:2|0:2,0:2:0:0:
160,9,13431,6,0,P|144:30|134:67,1,40,6|0,3:2|0:2,0:2:0:0:
220,196,13598,2,0,P|220:169|206:133,1,40,2|0,3:2|0:2,0:2:0:0:
331,42,13766,6,1,P|356:50|386:74,3,40,10|0|0|0,0:2|0:2|0:2|0:2,0:0:0:0:
453,39,14101,2,1,P|453:65|439:101,3,40,10|0|0|0,0:2|0:2|0:2|0:2,0:0:0:0:
493,154,14436,2,0,P|468:162|429:160,3,40,6|0|0|0,3:2|0:2|0:2|0:2,0:2:0:0:
393,226,14772,6,0,P|377:204|367:167,1,40,6|0,3:2|0:2,0:2:0:0:
453,39,14939,2,0,P|453:65|439:101,1,40,2|0,3:2|0:2,0:2:0:0:
303,150,15107,6,1,P|278:158|248:182,3,40,10|0|0|0,0:2|0:2|0:2|0:2,0:0:0:0:
181,147,15442,2,1,P|181:173|195:209,3,40,10|0|0|0,0:2|0:2|0:2|0:2,0:0:0:0:
141,262,15777,2,0,P|166:270|205:268,3,40,6|0|0|0,3:2|0:2|0:2|0:2,0:2:0:0:
241,334,16113,6,0,P|257:312|267:275,1,40,6|0,3:2|0:2,0:2:0:0:
303,150,16280,2,0,P|278:158|248:182,1,40,2|0,3:2|0:2,0:2:0:0:
141,262,16447,1,10,0:2:0:0:
141,262,16782,6,0,P|166:270|205:268,1,40,6|0,3:2|0:2,0:2:0:0:
337,265,16950,2,0,P|321:243|288:222,1,40,2|0,3:2|0:2,0:2:0:0:
181,147,17118,1,10,0:2:0:0:
181,147,17453,6,0,P|181:173|195:209,1,40,6|0,3:2|0:2,0:2:0:0:
303,150,17620,2,0,P|278:158|248:182,1,40,2|0,3:2|0:2,0:2:0:0:
141,262,17788,1,10,0:2:0:0:
141,262,17956,1,8,0:2:0:0:
241,334,18123,1,10,0:2:0:0:
241,334,18291,1,8,0:2:0:0:
337,265,18458,2,0,L|436:278,1,80,14|0,3:2|0:2,0:2:0:0:
487,139,18794,6,0,L|495:98,1,40,6|0,3:2|0:2,0:2:0:0:
446,5,18961,2,0,L|438:44,1,40,2|0,3:2|0:2,0:2:0:0:
307,154,19129,1,10,0:2:0:0:
307,154,19297,1,8,0:2:0:0:
408,184,19464,1,10,0:2:0:0:
408,184,19632,1,8,0:2:0:0:
299,73,19799,2,0,P|258:84|230:133,1,80,14|0,3:2|0:2,0:2:0:0:
298,192,20134,6,0,L|309:144,1,40,6|0,3:2|0:2,0:2:0:0:
224,246,20302,2,0,L|213:198,1,40,2|0,3:2|0:2,0:2:0:0:
302,278,20470,1,10,0:2:0:0:
321,277,20553,1,8,0:2:0:0:
341,281,20637,1,8,0:2:0:0:
358,292,20721,1,8,0:2:0:0:
374,307,20805,6,0,L|419:296,1,40,6|0,3:2|0:2,0:2:0:0:
496,207,20972,2,0,L|451:196,1,40,2|0,3:2|0:2,0:2:0:0:
356,136,21140,1,10,0:2:0:0:
345,119,21223,1,8,0:2:0:0:
338,100,21307,1,8,0:2:0:0:
338,80,21391,1,8,0:2:0:0:
346,58,21475,6,0,B|380:51|380:51|401:55|401:55|432:47,1,80,14|8,3:2|0:2,0:2:0:0:
493,89,21727,1,8,0:2:0:0:
493,89,21810,2,0,P|513:111|507:166,1,80,14|8,3:2|0:2,0:2:0:0:
381,222,22146,2,1,L|390:268,1,40,14|0,3:2|0:0,0:0:0:0:
497,338,22313,2,1,L|506:292,1,40,10|0,3:2|0:0,0:0:0:0:
374,212,22481,1,10,3:2:0:0:
344,205,22564,1,8,3:2:0:0:
315,209,22648,1,8,3:2:0:0:
289,225,22732,1,8,3:2:0:0:
271,248,22816,6,0,B|241:258|241:258|189:242,1,80,6|0,3:2|0:2,0:2:0:0:
161,270,23067,1,0,0:2:0:0:
161,270,23151,2,0,L|151:188,1,80,2|0,1:2|0:2,0:2:0:0:
225,84,23486,1,2,3:2:0:0:
108,125,23654,2,0,B|92:135|81:152|81:152|55:140|24:143,1,80,2|0,0:2|1:2,0:2:0:0:
230,79,23989,6,1,P|271:73|315:71,1,80,2|0,0:2|3:2,0:0:0:0:
417,0,24324,1,2,0:2:0:0:
417,0,24408,1,0,0:2:0:0:
417,0,24492,2,0,L|407:82,1,80,2|2,1:2|0:2,0:2:0:0:
453,300,24827,1,2,3:2:0:0:
509,222,24995,1,2,0:2:0:0:
453,144,25162,1,2,1:2:0:0:
361,174,25330,1,2,0:2:0:0:
361,270,25498,6,0,B|321:259|321:259|297:266|268:267,1,80,2|0,3:2|0:2,0:2:0:0:
255,235,25749,1,0,0:2:0:0:
255,235,25833,2,0,L|245:317,1,80,2|0,1:2|0:2,0:2:0:0:
323,379,26168,1,2,3:2:0:0:
186,361,26336,2,0,B|172:352|165:331|165:331|135:341|105:319,1,80,2|0,0:2|1:2,0:2:0:0:
176,223,26671,6,1,P|209:230|258:235,1,80,2|0,0:2|3:2,0:0:0:0:
360,73,27006,1,2,0:2:0:0:
360,73,27090,1,0,0:2:0:0:
360,73,27174,2,0,P|327:66|278:61,1,80,2|2,1:2|0:2,0:2:0:0:
85,194,27509,1,2,3:2:0:0:
85,97,27676,1,2,0:2:0:0:
176,67,27844,1,2,1:2:0:0:
233,145,28012,1,2,0:2:0:0:
176,223,28179,6,0,B|164:250|182:272|182:272|183:295|175:307,1,80,2|0,3:2|0:2,0:2:0:0:
154,331,28431,1,0,0:2:0:0:
154,331,28514,2,0,L|242:320,1,80,2|0,1:2|0:2,0:2:0:0:
345,360,28850,1,2,3:2:0:0:
323,219,29017,2,0,P|301:257|308:302,1,80,2|0,0:2|1:2,0:2:0:0:
442,236,29352,6,1,P|464:198|457:153,1,80,2|0,0:2|3:2,0:0:0:0:
336,79,29688,1,2,0:2:0:0:
336,79,29771,1,0,0:2:0:0:
336,79,29855,2,0,B|293:72|293:72|271:88|252:93,1,80,2|2,1:2|0:2,0:2:0:0:
150,212,30190,1,2,3:2:0:0:
150,212,30358,1,2,0:2:0:0:
119,14,30526,1,2,1:2:0:0:
119,14,30693,1,2,0:2:0:0:
252,106,30861,6,0,L|162:95,1,80,2|0,3:2|0:2,0:2:0:0:
70,202,31196,2,0,L|149:211,1,80,2|0,1:2|0:2,0:2:0:0:
223,337,31531,1,2,3:2:0:0:
223,337,31615,1,0,0:2:0:0:
223,337,31699,2,0,B|215:300|215:300|220:284|220:284|212:245,1,80,2|0,0:2|1:2,0:2:0:0:
266,92,32034,6,1,L|285:187,1,80,2|0,0:2|3:2,0:0:0:0:
389,269,32369,1,2,0:2:0:0:
389,269,32453,1,0,0:2:0:0:
389,269,32537,2,0,P|430:283|480:270,1,80,2|2,1:2|0:2,0:2:0:0:
501,182,32872,6,1,L|511:129,1,40,2|0,3:2|0:0,0:0:0:0:
496,177,33039,2,1,L|506:124,1,40,2|0,3:2|0:0,0:0:0:0:
405,23,33207,6,1,L|415:76,1,40,2|0,1:2|0:0,0:0:0:0:
395,33,33374,2,1,L|405:86,1,40,2|0,3:2|0:0,0:0:0:0:
314,188,33542,6,0,B|279:179|279:179|260:182|260:182|209:169,1,80,6|0,3:2|0:2,0:2:0:0:
208,148,33794,1,0,0:2:0:0:
208,148,33877,2,0,P|178:174|128:181,1,80,2|0,1:2|0:2,0:2:0:0:
7,274,34213,1,2,3:2:0:0:
59,145,34380,2,0,P|67:194|69:243,1,80,2|0,0:2|1:2,0:2:0:0:
142,326,34715,6,1,P|183:313|224:310,1,80,2|0,0:2|3:2,0:0:0:0:
371,235,35051,1,2,0:2:0:0:
371,235,35134,1,0,0:2:0:0:
371,235,35218,2,0,P|330:248|289:251,1,80,2|2,1:2|0:2,0:2:0:0:
185,113,35553,1,2,3:2:0:0:
185,113,35721,1,2,0:2:0:0:
315,171,35889,1,2,1:2:0:0:
315,171,36056,1,2,0:2:0:0:
219,309,36224,6,0,B|204:264|204:264|214:226,1,80,2|0,3:2|0:2,0:2:0:0:
329,92,36559,2,0,L|312:182,1,80,2|0,1:2|0:2,0:2:0:0:
135,227,36894,1,2,3:2:0:0:
135,227,36978,1,0,0:2:0:0:
135,227,37062,2,0,L|54:241,1,80,2|0,0:2|1:2,0:2:0:0:
219,309,37397,6,1,P|258:311|305:348,1,80,2|0,0:2|3:2,0:0:0:0:
427,245,37732,1,2,0:2:0:0:
427,245,37816,1,0,0:2:0:0:
427,245,37900,2,0,L|441:166,1,80,2|2,1:2|0:2,0:2:0:0:
350,1,38235,1,2,3:2:0:0:
258,31,38403,1,2,0:2:0:0:
258,127,38570,1,2,1:2:0:0:
350,157,38738,1,2,0:2:0:0:
406,79,38905,6,0,B|432:77|457:89|457:89|465:111|485:124,1,80,6|0,3:2|0:2,0:2:0:0:
354,231,39241,2,0,B|348:203|338:192|338:192|352:169|350:139,1,80,2|0,1:2|0:2,0:2:0:0:
506,203,39576,1,2,3:2:0:0:
506,203,39660,1,0,0:2:0:0:
506,203,39743,2,0,P|463:195|422:191,1,80,2|0,0:2|1:2,0:2:0:0:
277,240,40079,1,2,0:2:0:0:
323,83,40246,6,1,P|343:113|347:170,1,80,6|2,3:2|0:2,0:0:0:0:
303,312,40581,2,0,P|283:282|279:225,1,80,2|0,1:2|0:2,0:2:0:0:
158,138,40917,1,0,3:2:0:0:
141,149,41000,1,0,0:0:0:0:
123,156,41084,1,0,0:2:0:0:
103,160,41168,1,0,0:0:0:0:
83,162,41252,6,1,L|66:113,3,40,0|0|2|2,1:2|0:0|0:2|0:2,0:0:0:0:
58,184,41587,2,0,L|44:273,1,80,6|0,3:2|0:2,0:2:0:0:
217,341,41922,6,1,L|200:390,3,40,2|0|2|2,1:2|0:0|0:2|0:2,0:0:0:0:
192,319,42257,2,0,L|178:230,1,80,6|2,3:2|0:2,0:2:0:0:
245,116,42593,1,2,1:2:0:0:
245,116,42676,1,2,0:2:0:0:
245,116,42760,1,2,0:2:0:0:
326,112,42928,5,6,3:2:0:0:
270,190,43095,1,2,3:2:0:0:
178,160,43263,1,2,1:2:0:0:
178,64,43431,1,2,3:2:0:0:
270,34,43598,5,2,3:2:0:0:
294,51,43681,1,0,3:2:0:0:
322,61,43765,1,0,3:2:0:0:
352,62,43849,1,0,3:2:0:0:
381,54,43933,1,2,3:2:0:0:
409,46,44018,1,0,3:2:0:0:
439,47,44102,1,0,3:2:0:0:
467,57,44186,1,0,3:2:0:0:
492,74,44269,6,0,P|483:120|470:245,2,160,6|0|0,3:2|1:2|3:2,0:2:0:0:
279,134,45274,2,0,P|235:141|193:155,1,80,2|0,1:2|0:2,0:2:0:0:
142,102,45609,6,0,P|109:63|101:16,1,80,2|0,3:2|0:2,0:2:0:0:
129,193,45945,2,0,P|81:212|34:205,1,80,2|0,1:2|0:2,0:2:0:0:
215,238,46280,2,0,P|218:288|197:331,1,80,2|0,3:2|0:2,0:2:0:0:
291,176,46615,2,0,P|340:188|374:221,1,80,2|0,1:2|0:2,0:2:0:0:
492,74,46950,6,0,P|440:85|384:42,1,120,2|0,3:2|0:0,0:2:0:0:
366,18,47285,2,0,B|354:45|354:45|360:68|360:68|350:97,1,80,2|0,1:2|0:2,0:2:0:0:
291,176,47620,2,0,P|239:165|183:208,1,120,2|0,3:2|0:0,0:2:0:0:
165,232,47955,2,0,B|153:205|153:205|159:182|159:182|149:153,1,80,2|0,1:2|0:2,0:2:0:0:
10,35,48291,6,0,P|78:66|189:33,2,160,2|0|2,3:2|1:2|3:2,0:2:0:0:
165,232,49296,2,1,L|152:315,1,80,2|0,1:2|3:2,0:0:0:0:
122,160,49632,6,0,P|177:149|251:230,1,160,2|0,3:2|1:2,0:2:0:0:
310,322,50134,1,0,0:0:0:0:
310,322,50302,2,0,B|408:305|374:368|473:346,1,160,2|0,3:2|1:2,0:2:0:0:
492,111,50972,6,0,P|438:117|460:191,1,120,2|0,3:2|0:0,0:2:0:0:
391,237,51308,2,0,P|445:231|423:157,1,120,2|0,1:2|0:0,0:2:0:0:
336,174,51643,2,0,P|309:207|311:260,1,80,2|0,3:2|0:2,0:2:0:0:
177,357,51978,2,0,P|204:324|202:271,1,80,2|0,1:2|0:2,0:2:0:0:
142,180,52313,6,0,B|89:157|41:164|41:164|22:137|-9:122,2,160,2|0|0,3:2|1:2|3:2,0:2:0:0:
313,109,53319,2,0,P|330:70|309:20,1,80,2|0,1:2|0:2,0:2:0:0:
261,170,53654,2,0,B|310:131|366:152|366:152|336:167|328:205,1,160,2|0,3:2|1:2,0:2:0:0:
400,383,54157,1,0,0:0:0:0:
400,383,54324,1,0,3:2:0:0:
456,305,54491,1,0,3:2:0:0:
400,227,54659,1,0,1:2:0:0:
308,257,54827,1,0,3:2:0:0:
308,353,54995,6,0,B|191:335|191:335|137:350,2,160,6|0|0,3:2|1:2|3:2,0:2:0:0:
400,227,56000,2,0,P|421:189|410:128,1,80,2|0,1:2|0:2,0:2:0:0:
391,89,56336,6,0,B|426:98|426:98|437:108|437:108|473:114,1,80,2|0,3:2|0:2,0:2:0:0:
310,64,56671,2,0,B|329:33|329:33|342:26|342:26|359:-6,1,80,2|0,1:2|0:2,0:2:0:0:
255,122,57006,2,0,B|231:94|231:94|228:79|228:79|203:53,1,80,2|0,3:2|0:2,0:2:0:0:
299,191,57341,2,0,B|265:204|265:204|250:202|250:202|217:218,1,80,2|0,1:2|0:2,0:2:0:0:
102,342,57676,6,0,P|58:320|59:246,1,120,2|0,3:2|0:0,0:2:0:0:
70,237,58012,2,0,B|100:244|100:244|114:258|114:258|148:265,1,80,2|0,1:2|0:2,0:2:0:0:
192,110,58347,2,0,P|236:132|235:206,1,120,2|0,3:2|0:0,0:2:0:0:
224,215,58683,2,0,B|194:208|194:208|180:194|180:194|146:187,1,80,2|0,1:2|0:2,0:2:0:0:
14,67,59017,6,0,P|78:78|153:8,2,160,2|0|2,3:2|1:2|3:2,0:2:0:0:
192,110,60023,2,0,L|279:94,1,80,2|0,1:2|3:2,0:2:0:0:
360,51,60358,6,1,L|368:11,7,40,10|8|8|8|8|8|8|8,3:2|0:2|0:2|0:2|1:2|0:2|0:2|0:2,0:0:0:0:
339,44,61028,2,0,L|355:135,1,80,10|8,3:2|0:2,0:2:0:0:
467,230,61364,5,10,1:2:0:0:
452,216,61447,1,8,0:2:0:0:
435,205,61531,1,8,0:2:0:0:
416,200,61615,1,8,0:2:0:0:
394,200,61699,6,1,P|369:202|345:217,3,40,10|8|8|8,3:2|0:2|0:2|0:2,0:0:0:0:
291,325,62034,2,1,P|281:302|259:284,3,40,10|8|8|8,1:2|0:2|0:2|0:2,0:0:0:0:
139,266,62369,2,1,P|158:250|169:224,3,40,10|8|8|8,3:2|0:2|0:2|0:2,0:0:0:0:
149,104,62704,2,1,P|170:117|198:119,3,40,10|8|8|8,1:2|0:2|0:2|0:2,0:0:0:0:
306,63,63039,6,1,P|300:87|307:115,7,40,10|8|8|8|8|8|8|8,3:2|0:2|0:2|0:2|1:2|0:2|0:2|0:2,0:0:0:0:
244,168,63710,2,0,P|265:181|293:183,5,40,8|8|8|8|8|8,3:2|0:2|0:2|0:2|1:2|0:2,0:2:0:0:
329,258,64213,1,10,0:2:0:0:
329,258,64296,1,10,0:2:0:0:
329,258,64380,6,0,P|348:241|358:215,3,40,10|8|8|8,3:2|0:2|0:2|0:2,0:2:0:0:
436,207,64715,2,0,P|426:183|404:165,3,40,8|8|8|8,1:2|0:2|0:2|0:2,0:2:0:0:
386,71,65051,5,10,3:2:0:0:
357,61,65134,1,8,3:2:0:0:
328,62,65218,1,8,3:2:0:0:
300,74,65302,1,8,3:2:0:0:
280,95,65386,1,10,1:2:0:0:
259,116,65470,1,10,3:2:0:0:
232,128,65554,1,10,3:2:0:0:
202,129,65638,1,10,3:2:0:0:
175,118,65721,6,0,P|135:82|208:79,1,160,6|2,3:2|1:2,0:2:0:0:
175,203,66224,2,0,B|131:200|91:172|91:172|86:199|125:237,1,160,2|2,3:2|1:2,0:2:0:0:
202,290,66727,2,0,L|225:127,1,160,2|2,3:2|1:2,0:2:0:0:
312,65,67229,2,0,L|289:223,1,160,2|2,3:2|1:2,0:2:0:0:
339,331,67732,6,1,P|370:313|336:329,1,120,2|0,3:2|0:0,0:0:0:0:
291,229,68067,2,1,P|283:193|288:231,1,120,2|0,3:2|0:0,0:0:0:0:
382,222,68403,6,0,B|424:236|440:277|440:277|474:249|524:265,1,160,2|2,3:2|1:2,0:2:0:0:
339,331,68905,2,0,B|303:302|251:305|251:305|275:266|326:281,1,160,2|2,3:2|1:2,0:2:0:0:
369,73,69408,2,0,B|404:172|404:172|383:193|381:231,1,160,2|2,3:2|1:2,0:2:0:0:
268,221,69911,2,0,P|239:174|318:177,1,160,2|2,3:2|1:2,0:2:0:0:
202,280,70414,6,1,B|118:255|118:255|146:247|161:235,1,120,2|0,3:2|0:0,0:0:0:0:
49,145,70749,2,1,B|133:170|133:170|105:178|90:190,1,120,2|0,3:2|0:0,0:0:0:0:
46,318,71084,6,0,L|203:279,1,160,2|2,3:2|1:2,0:2:0:0:
123,144,71587,2,0,L|280:183,1,160,2|2,3:2|1:2,0:2:0:0:
409,98,72090,2,0,B|360:73|325:122|325:122|360:144|357:184,1,160,2|2,3:2|1:2,0:2:0:0:
390,253,72593,2,0,B|439:278|474:229|474:229|439:207|442:167,1,160,2|2,3:2|1:2,0:2:0:0:
354,165,73095,6,1,P|316:181|354:170,1,120,2|0,3:2|0:0,0:0:0:0:
257,60,73431,2,1,P|260:101|261:61,1,120,2|0,3:2|0:0,0:0:0:0:
97,129,73766,6,0,B|193:157|193:157|166:140|156:101,1,160,2|2,3:2|1:2,0:2:0:0:
54,56,74269,2,0,L|79:229,1,160,2|2,3:2|1:2,0:2:0:0:
16,284,74771,2,0,P|67:242|170:262,1,160,2|2,3:2|1:2,0:2:0:0:
270,337,75274,2,0,P|346:349|410:304,1,160,2|2,3:2|1:2,0:2:0:0:
512,168,75777,5,2,3:2:0:0:
408,228,75945,2,0,L|372:234,2,20,0|0|0,1:2|0:2|1:2,0:2:0:0:
484,268,76112,5,2,3:2:0:0:
408,228,76280,1,2,1:2:0:0:
332,188,76447,6,0,B|328:156|293:140|293:140|276:84|344:56,1,160,2|2,3:2|1:2,0:2:0:0:
417,54,76950,2,0,L|257:27,1,160,2|2,3:2|1:2,0:2:0:0:
258,214,77453,2,0,P|311:203|382:274,1,160,2|2,3:2|1:2,0:2:0:0:
234,299,77956,2,0,L|209:132,1,160,2|2,3:2|1:2,0:2:0:0:
333,45,78458,5,2,3:2:0:0:
323,78,78626,1,2,1:2:0:0:
218,47,78794,5,2,3:2:0:0:
246,142,78962,1,2,1:2:0:0:
120,8,79129,6,0,L|96:170,1,160,2|2,3:2|1:2,0:2:0:0:
36,217,79632,2,0,B|81:179|145:192|145:192|118:218|121:235,1,160,2|2,3:2|1:2,0:2:0:0:
243,326,80134,2,0,P|272:275|184:282,1,160,2|2,3:2|1:2,0:2:0:0:
84,348,80637,2,0,L|255:324,1,160,2|2,3:2|1:2,0:2:0:0:
347,255,81140,5,2,3:2:0:0:
356,213,81308,1,2,1:2:0:0:
268,289,81475,5,2,3:2:0:0:
245,181,81643,1,2,1:2:0:0:
176,248,81810,5,6,3:2:0:0:
176,248,81978,1,0,3:2:0:0:
105,109,82146,1,0,3:2:0:0:
105,109,82313,1,2,3:2:0:0:
245,181,82481,5,0,3:2:0:0:
245,181,82648,1,0,3:2:0:0:
90,203,82816,1,2,3:2:0:0:
201,94,82984,1,0,3:2:0:0:
201,94,83067,1,0,3:2:0:0:
201,94,83151,6,1,L|282:104,1,80,0|2,3:2|3:2,0:0:0:0:
418,42,83486,1,0,3:2:0:0:
418,42,83654,1,0,3:2:0:0:
336,166,83822,1,2,3:2:0:0:
336,166,83989,1,0,3:2:0:0:
489,286,84157,2,0,L|502:193,1,80,2|0,3:2|3:2,0:2:0:0:
406,243,84492,5,2,3:2:0:0:
406,243,84576,1,0,3:2:0:0:
406,243,84660,1,0,3:2:0:0:
406,243,84743,1,0,3:2:0:0:
406,243,84827,2,0,P|362:253|313:267,1,80,0|2,3:2|3:2,0:2:0:0:
135,220,85162,5,0,3:2:0:0:
163,214,85245,1,0,3:2:0:0:
190,226,85329,1,0,3:2:0:0:
204,252,85413,1,0,3:2:0:0:
200,281,85498,2,1,P|187:335|182:390,1,80,2|0,3:2|3:2,0:0:0:0:
18,214,85833,6,0,L|-1:151,5,40,10|8|8|8|8|8,0:2|0:2|0:2|0:2|0:2|0:2,0:2:0:0:
92,161,86336,2,0,L|111:98,5,40,10|8|8|8|8|8,0:2|0:2|0:2|0:2|0:2|0:2,0:2:0:0:
120,29,86838,5,2,1:2:0:0:
158,23,86921,1,2,1:2:0:0:
192,42,87005,1,2,1:2:0:0:
207,79,87089,1,2,1:2:0:0:
195,116,87174,6,0,B|136:106|136:106|97:127,1,95.9999970703126,6|0,3:2|0:2,0:2:0:0:
19,255,87509,1,0,1:2:0:0:
42,251,87592,1,0,0:2:0:0:
66,247,87676,1,0,0:2:0:0:
90,244,87760,1,0,0:2:0:0:
116,240,87844,2,0,B|150:248|150:248|167:270|167:270|211:280,1,95.9999970703126,2|0,3:2|0:2,0:2:0:0:
351,325,88179,2,0,L|336:216,1,95.9999970703126,2|0,1:2|0:0,0:2:0:0:
229,107,88514,5,2,3:2:0:0:
255,118,88597,1,0,0:0:0:0:
285,116,88681,1,0,0:2:0:0:
309,98,88765,1,0,0:2:0:0:
322,71,88849,1,2,1:2:0:0:
334,43,88934,1,0,0:2:0:0:
358,26,89018,1,0,0:2:0:0:
389,23,89102,1,0,0:2:0:0:
417,32,89185,6,0,P|429:43|434:82,3,47.9999985351563,2|0|0|0,3:2|0:2|0:2|0:2,0:2:0:0:
500,126,89520,2,0,P|493:140|457:157,3,47.9999985351563,2|0|0|0,1:2|0:2|0:2|0:2,0:2:0:0:
401,212,89855,5,2,3:2:0:0:
322,230,90023,1,0,0:2:0:0:
304,149,90191,1,0,1:2:0:0:
384,132,90358,1,0,0:2:0:0:
212,321,90526,6,0,L|156:313,1,47.9999985351563,2|0,3:2|0:2,0:2:0:0:
274,223,90693,2,0,L|330:231,1,47.9999985351563,2|0,0:2|0:0,0:2:0:0:
194,240,90861,2,1,L|202:184,1,47.9999985351563,2|0,1:2|0:0,0:0:0:0:
291,303,91028,2,1,L|283:359,1,47.9999985351563,2|0,0:2|0:0,0:0:0:0:
369,360,91196,6,0,B|413:326|477:335|477:335|446:303|455:257,1,191.999994140625,2|0,3:2|1:2,0:2:0:0:
512,183,91699,2,0,L|406:164,1,95.9999970703126,2|0,0:2|3:2,0:2:0:0:
312,102,92034,1,2,0:2:0:0:
308,125,92117,1,0,0:0:0:0:
304,149,92201,1,2,1:2:0:0:
300,173,92285,1,0,0:0:0:0:
296,197,92369,2,1,L|287:254,1,47.9999985351563,2|0,3:2|0:0,0:0:0:0:
212,287,92537,6,0,B|157:267|157:267|150:246|136:230,1,95.9999970703126,2|0,3:2|0:2,0:2:0:0:
113,209,92788,1,0,0:2:0:0:
113,209,92872,2,1,P|58:221|38:262,1,95.9999970703126,0|0,1:2|0:2,0:0:0:0:
86,327,93207,1,2,3:2:0:0:
113,209,93375,1,2,0:2:0:0:
140,91,93542,1,2,1:2:0:0:
140,91,93710,1,2,0:2:0:0:
313,56,93877,6,0,B|368:76|368:76|375:97|389:113,1,95.9999970703126,2|0,3:2|0:2,0:2:0:0:
412,134,94128,1,0,0:2:0:0:
412,134,94212,2,1,P|467:122|487:81,1,95.9999970703126,0|0,1:2|0:2,0:0:0:0:
439,16,94547,1,2,3:2:0:0:
412,134,94715,1,2,0:2:0:0:
385,252,94882,1,2,1:2:0:0:
385,252,95050,1,2,0:2:0:0:
202,355,95218,5,2,3:2:0:0:
174,243,95386,1,0,0:0:0:0:
285,215,95553,1,2,1:2:0:0:
313,327,95721,1,0,0:2:0:0:
176,350,95889,5,2,3:2:0:0:
179,217,96057,1,2,3:2:0:0:
310,219,96224,1,2,1:2:0:0:
307,352,96392,1,2,3:2:0:0:
90,275,96559,6,1,L|57:268,6,23.9999992675781,2|0|0|0|0|0|0,3:2|0:0|3:2|0:0|1:2|1:2|1:2,0:0:0:0:
106,292,96894,1,2,1:2:0:0:
156,100,97062,1,2,3:2:0:0:
162,81,97397,2,0,L|172:43,2,23.9999992675781,2|0|0,1:2|1:2|1:2,0:2:0:0:
82,149,97565,1,2,1:2:0:0:
82,149,97648,1,0,3:2:0:0:
82,149,97732,1,0,3:2:0:0:
82,149,97816,1,0,3:2:0:0:
82,149,97900,6,0,L|106:294,1,143.999995605469,2|0,3:2|0:2,0:2:0:0:
91,332,98235,2,0,B|116:322|130:300|130:300|162:316|192:307,1,95.9999970703126,6|0,1:2|0:0,0:2:0:0:
322,264,98570,2,1,L|420:277,1,95.9999970703126,0|0,3:2|0:0,0:0:0:0:
253,376,98905,2,1,B|245:339|245:339|253:316|253:316|242:273,1,95.9999970703126,2|0,1:2|0:2,0:0:0:0:
291,151,99241,5,2,3:2:0:0:
262,163,99324,1,0,0:2:0:0:
231,161,99408,1,0,0:2:0:0:
204,145,99492,1,0,0:2:0:0:
188,119,99576,1,2,1:2:0:0:
171,92,99660,1,0,0:2:0:0:
145,77,99744,1,0,0:2:0:0:
113,75,99828,1,0,0:2:0:0:
85,85,99911,6,0,P|71:102|68:139,3,47.9999985351563,2|0|0|0,3:2|0:2|0:2|0:2,0:2:0:0:
0,175,100246,2,0,P|11:193|46:207,3,47.9999985351563,2|0|0|0,1:2|0:2|0:2|0:2,0:2:0:0:
100,277,100581,5,2,3:2:0:0:
191,306,100749,1,0,0:2:0:0:
220,214,100916,1,0,1:2:0:0:
129,184,101084,1,0,0:2:0:0:
325,198,101252,6,0,L|392:220,1,47.9999985351563,2|0,3:2|0:2,0:2:0:0:
263,76,101419,2,0,L|196:54,1,47.9999985351563,2|0,0:2|0:0,0:2:0:0:
354,105,101587,2,1,L|376:38,1,47.9999985351563,2|0,1:2|0:0,0:0:0:0:
234,168,101755,2,1,L|212:235,1,47.9999985351563,2|0,0:2|0:0,0:0:0:0:
174,360,101922,6,0,P|122:368|99:256,1,191.999994140625,2|0,3:2|1:2,0:2:0:0:
183,128,102425,2,0,B|244:163|297:157|297:157|254:162|235:205,1,191.999994140625,2|2,0:2|0:2,0:2:0:0:
177,257,102928,1,2,1:2:0:0:
127,63,103095,1,2,3:2:0:0:
182,265,103263,6,0,L|169:321,3,47.9999985351563,2|8|8|8,3:2|0:2|0:2|0:2,0:2:0:0:
330,119,103598,2,1,L|343:63,3,47.9999985351563,8|8|8|8,1:2|0:2|0:2|0:2,0:0:0:0:
329,266,103933,2,0,L|385:279,3,47.9999985351563,10|0|2|0,3:2|0:2|0:2|0:0,0:2:0:0:
183,118,104269,2,1,L|127:105,3,47.9999985351563,2|0|2|0,1:2|0:0|3:2|0:0,0:0:0:0:
330,119,104604,5,2,3:2:0:0:
352,126,104687,1,8,0:2:0:0:
376,126,104771,1,8,0:2:0:0:
399,119,104855,1,8,0:2:0:0:
421,105,104939,2,1,P|431:75|412:43,3,47.9999985351563,8|8|8|8,1:2|0:2|0:2|0:2,0:0:0:0:
448,185,105274,2,0,P|479:185|504:157,3,47.9999985351563,10|0|2|0,3:2|0:2|3:2|0:0,0:2:0:0:
375,223,105609,2,1,P|384:253|418:267,3,47.9999985351563,2|0|2|0,1:2|0:0|3:2|0:0,0:0:0:0:
308,177,105945,5,2,3:2:0:0:
161,266,106112,1,0,3:2:0:0:
319,170,106280,1,2,1:2:0:0:
263,349,106447,1,0,3:2:0:0:
263,349,106531,1,0,3:2:0:0:
263,349,106615,2,1,L|246:244,1,95.9999970703126,2|2,3:2|3:2,0:0:0:0:
292,82,106950,2,1,L|309:187,1,95.9999970703126,2|2,1:2|3:2,0:0:0:0:
161,266,107285,6,0,L|171:227,2,23.9999992675781,2|0|0,1:2|1:2|1:2,0:2:0:0:
221,177,107453,1,0,3:2:0:0:
132,105,107620,1,2,3:2:0:0:
91,179,107788,6,0,L|52:169,2,23.9999992675781,2|0|0,1:2|1:2|1:2,0:2:0:0:
212,85,107956,1,0,3:2:0:0:
96,36,108123,1,2,3:2:0:0:
161,266,108291,5,6,1:2:0:0:
132,105,108458,1,0,3:2:0:0:
204,169,108626,5,2,3:2:0:0:
307,214,108794,1,2,3:2:0:0:
322,201,109128,5,2,3:2:0:0:
189,182,109296,1,2,3:2:0:0:
175,201,109632,5,2,3:2:0:0:
336,182,109800,1,2,3:2:0:0:
345,156,110134,5,2,3:2:0:0:
166,227,110302,1,2,3:2:0:0:
163,261,110637,5,2,3:2:0:0:
348,122,110805,1,2,3:2:0:0:
200,5,111140,5,2,3:2:0:0:
312,379,111475,5,2,3:2:0:0:
317,374,111559,1,0,0:0:0:0:
324,367,111643,2,0,L|318:341,4,20,2|0|0|0|2,1:2|1:2|1:2|1:2|1:2,0:2:0:0:
86,268,111978,5,2,3:2:0:0:
97,305,112061,1,2,3:2:0:0:
126,333,112145,1,2,3:2:0:0:
164,342,112229,1,2,3:2:0:0:
202,331,112313,1,2,1:2:0:0:
323,202,112481,1,6,3:2:0:0:
