osu file format v14

[General]
AudioFilename: audio.mp3
AudioLeadIn: 0
PreviewTime: 87132
Countdown: 0
SampleSet: Soft
StackLeniency: 0.7
Mode: 0
LetterboxInBreaks: 0
WidescreenStoryboard: 1

[Editor]
Bookmarks: 12090,22816,44269,65721,83151,87174,91699,108626
DistanceSpacing: 1
BeatDivisor: 2
GridSize: 16
TimelineZoom: 1.850004

[Metadata]
Title:Holy Wind
TitleUnicode:Holy Wind
Artist:69 de 74
ArtistUnicode:69 de 74
Creator:Sphaela
Version:Normal
Source:BMSをいっぱい作る2019
Tags:Be-Music Source いっぱい作る2019 Ippai Tsukuru Tukuru 2019 Starting Deck Package Event RENAISSANCE MUSH.T Videogame Video Game Electronic Instrumental featured artist fa Another Flower NM2 Setu __Ag
BeatmapID:4174793
BeatmapSetID:1957515

[Difficulty]
HPDrainRate:4
CircleSize:3.5
OverallDifficulty:4
ApproachRate:6
SliderMultiplier:1.2
SliderTickRate:1

[Events]
//Background and Video events
0,0,"bg.jpg",0,0
//Break Periods
//Storyboard Layer 0 (Background)
//Storyboard Layer 1 (Fail)
//Storyboard Layer 2 (Pass)
//Storyboard Layer 3 (Foreground)
//Storyboard Layer 4 (Overlay)
//Storyboard Sound Samples

[TimingPoints]
1364,335.195530726257,4,2,1,80,1,0
1364,-105.263157894737,4,2,1,80,0,0
5721,-105.263157894737,4,2,2,80,0,0
6056,-105.263157894737,4,2,1,80,0,0
6391,-105.263157894737,4,2,2,80,0,0
6727,-105.263157894737,4,2,1,80,0,0
9743,-105.263157894737,4,2,2,80,0,0
10079,-105.263157894737,4,2,1,80,0,0
10414,-105.263157894737,4,2,2,80,0,0
10749,-105.263157894737,4,2,1,80,0,0
12090,-105.263157894737,4,2,1,90,0,0
12425,-105.263157894737,4,2,2,90,0,0
13095,-105.263157894737,4,2,1,90,0,0
13766,-105.263157894737,4,2,2,90,0,0
14436,-105.263157894737,4,2,1,90,0,0
15107,-105.263157894737,4,2,2,90,0,0
15777,-105.263157894737,4,2,1,90,0,0
16447,-105.263157894737,4,2,2,90,0,0
16782,-105.263157894737,4,2,1,90,0,0
17118,-105.263157894737,4,2,2,90,0,0
17453,-105.263157894737,4,2,1,90,0,0
17956,-105.263157894737,4,2,4,90,0,0
18291,-105.263157894737,4,2,1,90,0,0
19296,-105.263157894737,4,2,4,90,0,0
19632,-105.263157894737,4,2,1,90,0,0
22816,-100,4,2,1,100,0,0
44269,-111.111111111111,4,2,1,100,0,0
65721,-105.263157894737,4,2,1,100,0,0
75986,-105.263157894737,4,2,1,60,0,0
76112,-105.263157894737,4,2,1,100,0,0
87174,-100,4,2,1,100,0,1
87341,-100,4,2,2,100,0,1
87844,-100,4,2,1,100,0,1
88682,-100,4,2,2,100,0,1
88850,-100,4,2,1,100,0,1
89017,-100,4,2,2,100,0,1
89185,-100,4,2,1,100,0,1
89352,-100,4,2,2,100,0,1
89520,-100,4,2,1,100,0,1
90023,-100,4,2,2,100,0,1
90526,-100,4,2,1,100,0,1
92704,-100,4,2,2,100,0,1
93207,-100,4,2,1,100,0,1
94045,-100,4,2,2,100,0,1
94548,-100,4,2,1,100,0,1
96769,-100,4,2,1,60,0,1
96894,-100,4,2,1,100,0,1
97439,-100,4,2,1,60,0,1
97565,-100,4,2,1,100,0,1
97900,-111.111111111111,4,2,3,100,0,0
98235,-111.111111111111,4,2,1,100,0,1
99073,-111.111111111111,4,2,2,100,0,1
99241,-100,4,2,1,100,0,1
99408,-100,4,2,2,100,0,1
99576,-100,4,2,1,100,0,1
99743,-100,4,2,2,100,0,1
99911,-100,4,2,1,100,0,1
100079,-100,4,2,2,100,0,1
100246,-100,4,2,1,100,0,1
100749,-100,4,2,2,100,0,1
101252,-100,4,2,1,100,0,1
103431,-100,4,2,2,100,0,1
103933,-100,4,2,1,100,0,1
104771,-100,4,2,2,100,0,1
105274,-100,4,2,1,100,0,1
107327,-100,4,2,1,60,0,1
107453,-100,4,2,1,100,0,1
107830,-100,4,2,1,60,0,1
107956,-100,4,2,1,100,0,1
108333,-100,4,2,1,60,0,1
108458,-100,4,2,1,100,0,1
111685,-100,4,2,1,60,0,1
111810,-100,4,2,1,100,0,1
112481,-100,4,2,1,100,0,0
112565,-100,4,2,1,5,0,0

[Colours]
Combo1 : 188,243,253
Combo2 : 166,73,66
Combo3 : 216,157,114
Combo4 : 152,35,31

[HitObjects]
48,80,1364,6,0,L|111:74,1,56.9999984779358,6|2,3:2|3:2,0:2:0:0:
388,99,2369,1,6,3:2:0:0:
388,99,2704,6,0,L|331:104,1,56.9999984779358,6|2,3:2|3:2,0:2:0:0:
59,179,3709,1,6,3:2:0:0:
59,179,4045,6,0,L|122:173,1,56.9999984779358,6|2,3:2|3:2,0:2:0:0:
404,199,5051,1,6,3:2:0:0:
404,199,5386,6,0,L|347:204,1,56.9999984779358,6|2,3:2|3:2,0:2:0:0:
188,267,6056,2,0,L|245:262,1,56.9999984779358,6|2,3:2|3:2,0:2:0:0:
388,354,6727,6,0,L|382:291,1,56.9999984779358,6|2,3:2|3:2,0:2:0:0:
301,29,7732,1,6,3:2:0:0:
301,29,8067,6,0,L|306:86,1,56.9999984779358,6|2,3:2|3:2,0:2:0:0:
276,372,9072,1,6,3:2:0:0:
276,372,9408,6,0,L|270:309,1,56.9999984779358,6|2,3:2|3:2,0:2:0:0:
199,159,10079,2,0,L|204:215,1,56.9999984779358,6|2,3:2|3:2,0:2:0:0:
61,309,10749,2,0,L|156:317,1,56.9999984779358,6|0,3:2|0:2,0:2:0:0:
165,344,11084,2,0,L|221:348,1,56.9999984779358,6|0,3:2|0:2,0:2:0:0:
274,370,11419,1,6,3:2:0:0:
387,384,11755,2,0,L|380:304,1,56.9999984779358,2|0,3:2|3:2,0:0:0:0:
343,284,12090,6,0,L|263:290,1,56.9999984779358,6|2,3:2|3:2,0:2:0:0:
233,266,12425,1,10,0:2:0:0:
119,277,12760,1,10,0:2:0:0:
213,212,13095,1,6,3:2:0:0:
266,111,13431,6,0,L|345:104,1,56.9999984779358,6|2,3:2|3:2,0:2:0:0:
376,129,13766,1,10,0:2:0:0:
490,118,14101,1,10,0:2:0:0:
396,183,14436,1,6,3:2:0:0:
340,282,14771,6,0,L|260:275,1,56.9999984779358,6|2,3:2|3:2,0:2:0:0:
235,245,15106,1,10,0:2:0:0:
120,236,15441,1,10,0:2:0:0:
224,189,15776,1,6,3:2:0:0:
329,145,16112,6,0,L|335:65,1,56.9999984779358,6|2,3:2|3:2,0:2:0:0:
339,31,16447,1,10,0:2:0:0:
430,99,16782,2,0,L|423:178,1,56.9999984779358,6|2,3:2|3:2,0:2:0:0:
420,213,17117,1,10,0:2:0:0:
494,299,17453,2,0,L|414:305,1,56.9999984779358,6|2,3:2|3:2,0:2:0:0:
390,335,17788,2,0,P|379:346|190:304,1,227.999993911743,10|14,0:2|3:2,0:0:0:0:
298,265,18794,2,0,L|354:260,1,56.9999984779358,6|2,3:2|3:2,0:2:0:0:
409,242,19129,2,0,P|449:196|320:113,1,227.999993911743,10|14,0:2|3:2,0:0:0:0:
284,180,20134,6,0,L|204:172,1,56.9999984779358,6|2,3:2|3:2,0:2:0:0:
170,170,20469,1,10,0:2:0:0:
93,253,20804,2,0,L|172:259,1,56.9999984779358,6|2,3:2|3:2,0:2:0:0:
207,263,21139,1,10,0:2:0:0:
318,319,21475,1,14,3:2:0:0:
318,319,21810,1,14,3:2:0:0:
318,319,22146,2,0,L|309:223,1,56.9999984779358,14|10,3:2|3:2,0:2:0:0:
307,205,22481,1,10,3:2:0:0:
326,86,22816,6,0,P|375:60|466:120,1,120,6|2,3:2|1:2,0:2:0:0:
484,184,23486,1,2,3:2:0:0:
424,178,23654,1,0,0:2:0:0:
307,205,23989,1,0,0:2:0:0:
247,211,24157,2,0,L|183:216,2,60,0|2|2,3:2|0:2|1:2,0:0:0:0:
335,292,24827,2,0,L|398:297,1,60,2|2,3:2|0:2,0:0:0:0:
430,345,25162,2,0,L|493:350,1,60,2|2,1:2|0:2,0:0:0:0:
487,289,25498,6,0,P|466:238|380:206,1,120,2|2,3:2|1:2,0:2:0:0:
335,292,26168,1,2,3:2:0:0:
329,352,26336,1,0,0:2:0:0:
225,291,26671,1,0,0:2:0:0:
219,230,26839,2,0,L|213:167,2,60,0|2|2,3:2|0:2|1:2,0:0:0:0:
205,350,27509,2,0,L|125:342,1,60,2|2,3:2|0:2,0:0:0:0:
96,379,27844,2,0,L|16:371,1,60,2|2,1:2|0:2,0:0:0:0:
54,315,28179,6,0,P|60:275|34:196,1,120,2|2,3:2|1:2,0:2:0:0:
153,231,28850,1,2,3:2:0:0:
139,172,29017,2,0,P|133:132|159:53,1,120,0|0,0:2|0:2,0:2:0:0:
209,83,29520,2,0,L|273:89,2,60,0|2|2,3:2|0:2|1:2,0:0:0:0:
277,181,30190,2,0,L|356:174,1,60,2|2,3:2|0:2,0:0:0:0:
397,170,30526,1,2,1:2:0:0:
457,273,30861,6,0,P|406:285|306:255,1,120,2|2,3:2|1:2,0:2:0:0:
225,239,31531,1,2,3:2:0:0:
243,298,31699,2,0,P|184:286|126:298,1,120,0|0,0:2|0:2,0:2:0:0:
72,325,32201,2,0,L|66:389,2,60,0|2|2,3:2|0:2|1:2,0:0:0:0:
46,207,32872,1,2,3:2:0:0:
7,161,33039,1,2,3:2:0:0:
55,124,33207,1,2,1:2:0:0:
162,176,33542,5,6,3:2:0:0:
278,149,33877,2,0,P|331:150|390:207,1,120,2|2,1:2|3:2,0:0:0:0:
336,229,34380,1,0,0:2:0:0:
254,317,34715,1,0,0:2:0:0:
313,323,34883,2,0,L|377:329,2,60,0|2|2,3:2|0:2|1:2,0:0:0:0:
193,312,35553,1,2,3:2:0:0:
73,301,35889,1,2,1:2:0:0:
142,203,36224,5,2,3:2:0:0:
137,83,36559,2,0,P|186:52|253:55,1,120,2|2,1:2|3:2,0:0:0:0:
240,111,37062,1,0,0:2:0:0:
314,205,37397,1,0,0:2:0:0:
308,264,37565,2,0,L|302:328,2,60,0|2|2,3:2|0:2|1:2,0:0:0:0:
319,144,38235,1,2,3:2:0:0:
433,107,38571,1,2,1:2:0:0:
463,55,38738,1,2,0:2:0:0:
415,17,38905,6,0,P|344:58|256:43,1,120,6|2,3:2|1:2,0:2:0:0:
200,5,39576,2,0,P|141:13|92:47,1,120,2|0,3:2|1:2,0:0:0:0:
187,121,40246,2,0,P|220:179|209:243,1,120,6|2,3:2|1:2,0:0:0:0:
132,317,40917,2,0,P|99:259|110:195,1,120,0|0,3:2|1:2,0:2:0:0:
187,121,41587,6,0,L|266:127,1,60,6|0,3:2|0:2,0:2:0:0:
306,132,41922,1,2,1:2:0:0:
391,215,42257,2,0,L|331:209,1,60,6|2,3:2|0:2,0:2:0:0:
271,204,42592,1,2,1:2:0:0:
177,279,42928,2,0,L|256:272,1,60,6|2,3:2|3:2,0:2:0:0:
294,291,43263,2,0,L|353:285,1,60,2|2,1:2|3:2,0:2:0:0:
410,304,43598,2,0,P|471:268|482:202,1,120,2|2,3:2|3:2,0:0:0:0:
469,116,44269,6,0,B|427:46|442:152|320:166|250:63,1,215.999993408203,6|0,3:2|3:2,0:2:0:0:
360,32,45274,1,2,1:2:0:0:
360,32,45609,2,0,P|363:94|368:159,1,107.999996704102,2|2,3:2|1:2,0:2:0:0:
424,231,46280,2,0,P|429:293|432:358,1,107.999996704102,2|2,3:2|1:2,0:2:0:0:
331,381,46950,6,0,P|276:381|220:359,3,107.999996704102,2|2|2|2,3:2|1:2|3:2|1:2,0:2:0:0:
164,275,48291,2,0,P|215:257|269:263,1,107.999996704102,2|0,3:2|1:2,0:2:0:0:
239,374,48961,1,2,3:2:0:0:
239,374,49296,1,2,1:2:0:0:
239,374,49632,6,0,P|182:371|108:354,1,107.999996704102,2|0,3:2|1:2,0:2:0:0:
95,259,50302,2,0,P|147:261|203:277,1,107.999996704102,2|0,3:2|1:2,0:2:0:0:
309,280,50972,2,0,P|364:276|423:250,3,107.999996704102,2|2|2|2,3:2|1:2|3:2|1:2,0:2:0:0:
487,335,52313,6,0,P|399:376|246:377,1,215.999993408203,2|0,3:2|3:2,0:2:0:0:
220,176,53654,2,0,P|308:135|461:134,1,215.999993408203,2|0,3:2|3:2,0:2:0:0:
258,264,54995,6,0,B|256:340|184:217|75:350,1,215.999993408203,6|0,3:2|3:2,0:2:0:0:
184,370,56000,1,2,1:2:0:0:
184,370,56335,2,0,P|175:310|152:245,1,107.999996704102,2|2,3:2|1:2,0:2:0:0:
66,209,57006,2,0,P|54:149|55:80,1,107.999996704102,2|2,3:2|1:2,0:2:0:0:
122,16,57676,6,0,P|167:-4|252:13,3,107.999996704102,2|2|2|2,3:2|1:2|3:2|1:2,0:2:0:0:
294,82,59017,2,0,P|238:109|178:103,1,107.999996704102,2|0,3:2|1:2,0:2:0:0:
143,205,59688,1,2,3:2:0:0:
143,205,60023,1,2,1:2:0:0:
143,205,60358,6,0,L|254:195,1,107.999996704102,10|8,3:2|1:2,0:0:0:0:
328,285,61028,1,10,3:2:0:0:
328,285,61364,1,10,1:2:0:0:
328,285,61699,2,0,L|220:294,3,107.999996704102,10|10|10|10,3:2|1:2|3:2|1:2,0:0:0:0:
154,208,63039,6,0,P|281:183|396:192,1,215.999993408203,10|8,3:2|3:2,0:0:0:0:
494,361,64380,2,0,P|367:386|252:377,1,215.999993408203,10|10,3:2|3:2,0:2:0:0:
177,361,65386,1,10,1:2:0:0:
177,361,65721,6,0,L|161:185,1,170.999995433807,6|2,3:2|3:2,0:2:0:0:
231,33,66727,2,0,L|246:208,1,170.999995433807,2|2,3:2|3:2,0:2:0:0:
219,372,67732,1,2,3:2:0:0:
331,343,68067,1,2,3:2:0:0:
444,357,68403,6,0,L|428:181,1,170.999995433807,2|2,3:2|3:2,0:2:0:0:
498,35,69409,2,0,L|513:210,1,170.999995433807,2|2,3:2|3:2,0:2:0:0:
492,375,70414,1,2,3:2:0:0:
390,325,70749,1,2,3:2:0:0:
342,222,71084,6,0,L|166:237,1,170.999995433807,2|2,3:2|3:2,0:2:0:0:
16,168,72090,2,0,L|191:152,1,170.999995433807,2|2,3:2|3:2,0:2:0:0:
355,175,73095,1,2,3:2:0:0:
437,245,73430,1,2,3:2:0:0:
380,345,73766,6,0,L|204:360,1,170.999995433807,2|2,3:2|3:2,0:2:0:0:
54,291,74772,2,0,L|229:275,1,170.999995433807,2|2,3:2|3:2,0:2:0:0:
373,192,75777,2,0,L|453:192,2,56.9999984779358,2|0|2,3:2|1:2|3:2,0:0:0:0:
384,80,76447,6,0,L|192:80,1,170.999995433807,2|2,3:2|3:2,0:2:0:0:
64,160,77453,2,0,L|235:160,1,170.999995433807,2|2,3:2|3:2,0:2:0:0:
400,160,78458,1,2,3:2:0:0:
481,243,78794,1,2,3:2:0:0:
368,272,79129,2,0,L|176:272,1,170.999995433807,2|2,3:2|3:2,0:2:0:0:
48,352,80135,2,0,L|219:352,1,170.999995433807,2|2,3:2|3:2,0:2:0:0:
388,382,81140,1,2,3:2:0:0:
445,283,81475,1,2,3:2:0:0:
338,245,81810,6,0,L|338:69,1,170.999995433807,6|2,3:2|3:2,0:0:0:0:
176,0,82816,2,0,L|176:208,1,170.999995433807,2|2,3:2|3:2,0:0:0:0:
80,320,83822,2,0,L|80:256,2,56.9999984779358,2|0|2,3:2|3:2|3:2,0:2:0:0:
195,331,84492,6,0,L|323:342,1,113.999996955872,2|0,3:2|3:2,0:0:0:0:
366,347,84995,2,0,L|311:230,1,113.999996955872,2|0,3:2|3:2,0:0:0:0:
293,192,85498,1,2,3:2:0:0:
227,285,85833,6,0,L|99:296,1,113.999996955872,10|8,0:2|0:2,0:2:0:0:
57,301,86336,2,0,L|111:184,1,113.999996955872,10|8,0:2|0:2,0:2:0:0:
130,146,86838,1,10,0:2:0:0:
203,236,87174,6,0,P|261:265|342:265,1,120,6|0,3:2|1:2,0:2:0:0:
410,342,87844,2,0,P|352:371|271:371,1,120,2|2,3:2|1:2,0:2:0:0:
178,365,88514,2,0,L|114:359,1,60,2|0,3:2|0:2,0:0:0:0:
79,313,88850,2,0,L|19:318,1,60,2|0,1:2|0:2,0:2:0:0:
9,258,89185,2,0,L|-2:130,1,120,2|2,3:2|1:2,0:2:0:0:
103,79,89855,6,0,P|167:66|257:79,1,120,2|0,3:2|1:2,0:2:0:0:
337,99,90526,1,2,3:2:0:0:
396,104,90693,2,0,L|459:109,2,60,2|2|2,0:2|1:2|0:2,0:2:0:0:
389,163,91196,2,0,P|412:224|412:297,1,120,2|0,3:2|1:2,0:2:0:0:
335,368,91866,2,0,P|312:307|312:234,1,120,0|2,3:2|1:2,0:0:0:0:
317,193,92369,1,2,3:2:0:0:
344,139,92537,6,0,L|224:134,2,120,2|0|2,3:2|1:2|3:2,0:2:0:0:
293,35,93542,1,2,1:2:0:0:
293,35,93877,2,0,L|413:40,2,120,2|0|2,3:2|1:2|3:2,0:2:0:0:
224,134,94883,1,2,1:2:0:0:
224,134,95218,6,0,L|104:129,2,120,2|2|2,3:2|1:2|3:2,0:2:0:0:
290,234,96224,1,2,1:2:0:0:
219,323,96559,2,0,L|139:330,1,60,2|0,3:2|1:2,0:0:0:0:
127,379,96894,2,0,L|47:385,1,60,2|2,1:2|3:2,0:2:0:0:
46,264,97397,2,0,L|-17:264,2,60,2|2|0,1:2|1:2|3:2,0:2:0:0:
97,246,97900,6,0,P|148:236|219:203,1,107.999996704102,2|6,3:2|1:2,0:2:0:0:
351,29,98905,1,2,1:2:0:0:
460,79,99241,2,0,L|454:143,1,60,2|0,3:2|0:2,0:2:0:0:
408,178,99577,2,0,L|413:238,1,60,2|0,1:2|0:2,0:2:0:0:
416,297,99912,2,0,P|350:322|289:319,1,120,2|2,3:2|1:2,0:2:0:0:
331,205,100581,6,0,P|271:206|216:229,1,120,2|0,3:2|1:2,0:2:0:0:
144,326,101252,1,2,3:2:0:0:
203,334,101419,2,0,L|266:339,2,60,2|2|2,0:2|1:2|0:2,0:2:0:0:
203,273,101922,2,0,P|130:247|83:271,1,120,2|0,3:2|1:2,0:2:0:0:
12,172,102593,2,0,P|72:134|129:144,1,120,0|2,3:2|1:2,0:0:0:0:
134,81,103095,1,2,3:2:0:0:
194,81,103263,6,0,L|322:81,2,120,2|8|10,3:2|1:2|3:2,0:2:0:0:
193,201,104269,1,2,1:2:0:0:
312,201,104604,2,0,L|432:201,2,120,2|8|10,3:2|1:2|3:2,0:2:0:0:
310,318,105609,1,2,1:2:0:0:
191,320,105945,6,0,L|63:320,2,120,2|2|2,3:2|1:2|3:2,0:2:0:0:
310,318,106950,1,2,1:2:0:0:
432,320,107285,2,0,L|432:208,1,60,2|0,1:2|3:2,0:2:0:0:
430,139,107788,2,0,L|430:79,1,60,2|0,1:2|3:2,0:2:0:0:
337,2,108291,2,0,L|277:7,1,60,6|0,1:2|3:2,0:2:0:0:
254,62,108626,6,0,L|194:67,1,60,2|2,3:2|3:2,0:2:0:0:
103,145,109129,2,0,L|162:139,1,60,2|2,3:2|3:2,0:2:0:0:
265,202,109632,2,0,L|205:207,1,60,2|2,3:2|3:2,0:2:0:0:
114,285,110135,2,0,L|173:279,1,60,2|2,3:2|3:2,0:2:0:0:
293,275,110637,2,0,L|352:269,1,60,2|2,3:2|3:2,0:2:0:0:
472,257,111140,1,2,3:2:0:0:
461,137,111475,5,2,3:2:0:0:
456,76,111643,2,0,L|449:-8,1,60,2|2,1:2|1:2,0:2:0:0:
390,12,111978,2,0,P|309:34|268:97,1,120,2|2,3:2|1:2,0:0:0:0:
324,104,112481,1,6,3:2:0:0:
256,192,112648,12,0,115330,0:2:0:0:
