osu file format v14

[General]
AudioFilename: audio.mp3
AudioLeadIn: 0
PreviewTime: 98144
Countdown: 0
SampleSet: Normal
StackLeniency: 0.7
Mode: 1
LetterboxInBreaks: 0
WidescreenStoryboard: 1

[Editor]
Bookmarks: 17077,34144,46944,64011,81077,98144,115211
DistanceSpacing: 1.2
BeatDivisor: 4
GridSize: 32
TimelineZoom: 1.8

[Metadata]
Title:DESPERATE DEATHPARADE
TitleUnicode:DESPERATE DEATHPARADE
Artist:69 de 74
ArtistUnicode:69 de 74
Creator:op45667
Version:ONI
Source:BOFU2017 - LEGENDA EST A MYTH -
Tags:MTNTWarz TaikOseania electronic instrumental featured artist fa breakcore speedcore amen break classical renaissance BMS of Fighters Ultimate mappers' mappers guild mpg mg
BeatmapID:3636463
BeatmapSetID:1774311

[Difficulty]
HPDrainRate:5
CircleSize:5
OverallDifficulty:6
ApproachRate:5
SliderMultiplier:1.4
SliderTickRate:1

[Events]
//Background and Video events
0,0,"sample_5068a406d6a2e8af9c184b3b86eccf37f450a9f9_auto_x2.jpg",0,0
//Break Periods
//Storyboard Layer 0 (Background)
//Storyboard Layer 1 (Fail)
//Storyboard Layer 2 (Pass)
//Storyboard Layer 3 (Foreground)
//Storyboard Layer 4 (Overlay)
//Storyboard Sound Samples

[TimingPoints]
211,266.666666666667,4,1,0,80,1,0
211,-111.111111111111,4,1,0,80,0,0
16744,-111.111111111111,4,1,0,80,0,0
16811,-110.344827586207,4,1,0,80,0,0
16877,-109.58904109589,4,1,0,80,0,0
16944,-108.843537414966,4,1,0,80,0,0
17011,-108.108108108108,4,1,0,80,0,0
17144,-106.666666666667,4,1,0,80,0,0
17211,-105.960264900662,4,1,0,80,0,0
17277,-105.263157894737,4,1,0,90,0,0
24211,-105.263157894737,4,1,0,90,0,0
24411,-104.577569366302,4,1,0,90,0,0
24611,-103.900745695652,4,1,0,90,0,0
24744,-103.454447454969,4,1,0,90,0,0
24877,-103.011966900195,4,1,0,90,0,0
24944,-102.792142979759,4,1,0,90,0,0
25011,-102.573255254571,4,1,0,90,0,0
25144,-102.138160246602,4,1,0,90,0,0
25211,-101.922045942381,4,1,0,90,0,0
25277,-101.706844260378,4,1,0,90,0,0
25344,-101.492549431946,4,1,0,90,0,0
25411,-101.279155736958,4,1,0,90,0,0
25544,-100.855049106323,4,1,0,90,0,0
25611,-100.644223675748,4,1,0,90,0,0
25677,-100.434378687825,4,1,0,90,0,0
25744,-100.225406940209,4,1,0,90,0,0
25811,-100,4,1,0,90,0,0
26011,-99.7586837440232,4,1,0,90,0,0
26211,-99.5184303157023,4,1,0,90,0,0
26477,-99.1999523840229,4,1,0,90,0,0
26611,-99.0415746818042,4,1,0,90,0,0
26744,-98.8836041096026,4,1,0,90,0,0
26877,-98.7261366586929,4,1,0,90,0,0
27077,-98.490825087189,4,1,0,90,0,0
27277,-98.2567291120933,4,1,0,90,0,0
27544,-97.946262762398,4,1,0,90,0,0
27677,-97.7917641732049,4,1,0,90,0,0
27811,-97.6377522227234,4,1,0,90,0,0
27944,-97.4843196471847,4,1,0,90,0,0
28144,-97.2548836539827,4,1,0,90,0,0
28344,-97.026619252992,4,1,0,90,0,0
28611,-96.7238659368529,4,1,0,90,0,0
28744,-96.5731966886982,4,1,0,90,0,0
28877,-96.422996113189,4,1,0,90,0,0
29011,-96.2732620269373,4,1,0,90,0,0
29211,-96.0495769496383,4,1,0,90,0,0
29411,-95.8269289002518,4,1,0,90,0,0
29677,-95.5316047207898,4,1,0,90,0,0
29811,-95.3846241893499,4,1,0,90,0,0
29944,-95.2380952380952,4,1,0,90,0,0
30077,-90.9090909090909,4,1,0,90,0,0
32877,-90.9090909090909,4,1,0,90,0,0
33011,-92.04585724608,4,1,0,90,0,0
33144,-93.2114128053839,4,1,0,90,0,0
33277,-94.4068652672422,4,1,0,90,0,0
33344,-95.0161194846706,4,1,0,90,0,0
33411,-95.6333798749115,4,1,0,90,0,0
33477,-96.2586199594174,4,1,0,90,0,0
33544,-96.8921832231185,4,1,0,90,0,0
33677,-98.184470947706,4,1,0,90,0,0
33744,-98.8437260921738,4,1,0,90,0,0
33811,-99.5117951330771,4,1,0,90,0,0
33944,-100.875498451057,4,1,0,90,0,0
34077,-102.277097294157,4,1,0,90,0,0
34344,266.666666666667,3,1,0,80,1,0
34344,-105.200480555795,4,1,0,80,0,0
43411,-105.263157894737,4,1,0,80,0,0
43544,-105.011903099216,4,1,0,80,0,0
43677,-104.76195464855,4,1,0,80,0,0
43811,-104.513083992985,4,1,0,80,0,0
43944,-104.265392960626,4,1,0,80,0,0
44011,-104.142041413124,4,1,0,80,0,0
44077,-104.018873184351,4,1,0,80,0,0
44211,-103.773624065519,4,1,0,80,0,0
44344,-103.529421508651,4,1,0,80,0,0
44477,-103.286365580025,4,1,0,80,0,0
44611,-103.044448222741,4,1,0,80,0,0
44744,-102.803767141243,4,1,0,80,0,0
44877,-102.564102564103,4,1,0,80,0,0
45011,-102.325552839381,4,1,0,80,0,0
45144,-102.088214426086,4,1,0,80,0,0
45277,-101.851870713309,4,1,0,80,0,0
45411,-101.616618788303,4,1,0,80,0,0
45544,-101.382451103244,4,1,0,80,0,0
45677,-101.149462491756,4,1,0,80,0,0
45811,-100.917440451141,4,1,0,80,0,0
45944,-100.686480423528,4,1,0,80,0,0
46077,-100.456575133984,4,1,0,80,0,0
46144,-100.342066103346,4,1,0,80,0,0
46211,-100.227817829927,4,1,0,80,0,0
46277,-100.113729196367,4,1,0,80,0,0
46344,-100,4,1,0,80,0,0
46611,-98.0392156862745,4,1,0,80,0,0
46877,-96.1538461538461,4,1,0,80,0,0
47011,-95.6937799043062,4,1,0,80,0,0
47144,266.666666666667,4,1,0,90,1,0
47144,-95.2380952380952,4,1,0,90,0,0
63944,-111.111111111111,4,1,0,90,0,0
64011,-106.666666666667,4,1,0,90,0,0
64077,-102.564102564103,4,1,0,90,0,0
64144,-98.7654320987654,4,1,0,90,0,0
64210,-95.2380952380952,4,1,0,90,0,0
78877,-95.2380952380952,4,1,0,90,0,0
79011,-94.9867873378813,4,1,0,90,0,0
79077,-94.861630083279,4,1,0,90,0,0
79144,-94.7368022160833,4,1,0,90,0,0
79277,-94.4882187364469,4,1,0,90,0,0
79344,-94.3643710331578,4,1,0,90,0,0
79411,-94.2408475644867,4,1,0,90,0,0
79544,-93.9947682511991,4,1,0,90,0,0
79611,-93.8722098832418,4,1,0,90,0,0
79677,-93.7499707031342,4,1,0,90,0,0
79744,-93.6280494655711,4,1,0,90,0,0
79811,-93.5065323663511,4,1,0,90,0,0
79944,-93.2642680340452,4,1,0,90,0,0
80211,-92.7834860240235,4,1,0,90,0,0
80277,-92.6640640419879,4,1,0,90,0,0
80344,-92.544949081769,4,1,0,90,0,0
80411,-92.4262253868962,4,1,0,90,0,0
80477,-92.3077207100679,4,1,0,90,0,0
80611,-92.0716206722886,4,1,0,90,0,0
80677,-91.9540229885058,4,1,0,90,0,0
80744,-91.8367253227831,4,1,0,90,0,0
80811,-91.7197265284634,4,1,0,90,0,0
80877,-91.6030254647251,4,1,0,90,0,0
81011,-91.3705954804449,4,1,0,90,0,0
81077,-91.2547806098192,4,1,0,90,0,0
81144,-91.1392589649132,4,1,0,90,0,0
81277,-90.9090909090909,4,1,0,90,0,0
81544,-111.111111111111,4,1,0,80,0,0
89811,-111.111111111111,4,1,0,80,0,0
90077,-110.891053975112,4,1,0,80,0,0
90344,-110.671989251536,4,1,0,80,0,0
90477,-110.562720019813,4,1,0,80,0,0
90611,-110.453666343774,4,1,0,80,0,0
90744,-110.344827586207,4,1,0,80,0,0
90877,-110.236203112409,4,1,0,80,0,0
91011,-110.127792290174,4,1,0,80,0,0
91144,-110.019594489779,4,1,0,80,0,0
91277,-109.911729889726,4,1,0,80,0,0
91411,-109.803956016927,4,1,0,80,0,0
91544,-109.696393292285,4,1,0,80,0,0
91677,-109.58904109589,4,1,0,80,0,0
91811,-109.48189881026,4,1,0,80,0,0
91944,-109.374965820323,4,1,0,80,0,0
92211,-109.161844442188,4,1,0,80,0,0
92477,-108.949433299523,4,1,0,80,0,0
92611,-108.843537414966,4,1,0,80,0,0
92744,-108.737847186354,4,1,0,80,0,0
92877,-108.632362015174,4,1,0,80,0,0
93011,-108.527081305233,4,1,0,80,0,0
93144,-108.422122016088,4,1,0,80,0,0
93277,-108.317248221972,4,1,0,80,0,0
93411,-108.212577114988,4,1,0,80,0,0
93544,-108.108108108108,4,1,0,80,0,0
93811,-107.899774057873,4,1,0,80,0,0
94077,-107.692357396473,4,1,0,80,0,0
94344,-107.485621111036,4,1,0,80,0,0
94611,-107.27967704526,4,1,0,80,0,0
94744,-107.177000673072,4,1,0,80,0,0
94877,-107.07452065414,4,1,0,80,0,0
95011,-106.972350856474,4,1,0,80,0,0
95144,-106.870261639775,4,1,0,80,0,0
95277,-106.76836709527,4,1,0,80,0,0
95411,-106.666666666667,4,1,0,80,0,0
95544,-106.565159799785,4,1,0,80,0,0
95677,-106.463845942556,4,1,0,80,0,0
95944,-106.261907975062,4,1,0,80,0,0
96211,-106.060622130397,4,1,0,80,0,0
96344,-105.960264900662,4,1,0,80,0,0
96477,-105.860097412462,4,1,0,80,0,0
96611,-105.760119128198,4,1,0,80,0,0
96744,-105.660329512304,4,1,0,80,0,0
97011,-105.461425374441,4,1,0,80,0,0
97277,-105.263157894737,4,1,0,80,0,0
97811,-111.111111111111,4,1,0,80,0,0
97877,-108.843537414966,4,1,0,80,0,0
97944,-106.666666666667,4,1,0,80,0,0
98077,-102.564102564103,4,1,0,80,0,0
98144,-100.62893081761,4,1,0,80,0,0
98211,-98.7654320987654,4,1,0,80,0,0
98277,-96.969696969697,4,1,0,80,0,0
98344,-95.2380952380952,4,1,0,100,0,1
112477,-95.2380952380952,4,1,0,100,0,1
112611,-94.9161937467313,4,1,0,100,0,1
112744,-94.5964609572027,4,1,0,100,0,1
112811,-94.437445580422,4,1,0,100,0,1
112877,-94.2789639118982,4,1,0,100,0,1
112944,-94.1209246816125,4,1,0,100,0,1
113011,-93.9635026962827,4,1,0,100,0,1
113144,-93.6501455323262,4,1,0,100,0,1
113277,-93.3388714397054,4,1,0,100,0,1
113344,-93.1840524812584,4,1,0,100,0,1
113411,-93.0296597161107,4,1,0,100,0,1
113477,-92.8758639777247,4,1,0,100,0,1
113544,-92.7224899326557,4,1,0,100,0,1
113677,-92.4174273391082,4,1,0,100,0,1
113811,-92.1142806611595,4,1,0,100,0,1
113877,-91.9634095985889,4,1,0,100,0,1
113944,-91.8131162381596,4,1,0,100,0,1
114077,-91.5139146907287,4,1,0,100,0,1
114144,-91.365085746133,4,1,0,100,0,1
114211,-91.2166568912816,4,1,0,100,0,1
114277,-91.0687924551327,4,1,0,100,0,1
114344,-90.921323959951,4,1,0,100,0,1
115410,-111.111111111111,4,1,0,50,0,0
123408,-111.111111111111,4,1,0,100,0,0
123474,-108.843537414966,4,1,0,100,0,0
123541,-106.666666666667,4,1,0,100,0,0
123674,-102.564102564103,4,1,0,100,0,0
123741,-100.62893081761,4,1,0,100,0,0
123808,-98.7654320987654,4,1,0,100,0,0
123874,-96.969696969697,4,1,0,100,0,0
123941,-95.2380952380952,4,1,0,100,0,0

[HitObjects]
144,171,211,5,8,0:0:0:0:
225,115,744,1,0,0:0:0:0:
225,115,877,1,8,0:0:0:0:
225,115,1011,1,8,0:0:0:0:
193,209,1144,1,0,0:0:0:0:
308,303,1277,1,8,0:0:0:0:
308,303,1811,1,0,0:0:0:0:
225,115,1944,1,8,0:0:0:0:
308,303,2077,1,0,0:0:0:0:
193,209,2211,1,8,0:0:0:0:
308,303,2344,1,8,0:0:0:0:
308,303,2877,1,8,0:0:0:0:
225,115,3011,1,8,0:0:0:0:
308,303,3144,1,0,0:0:0:0:
193,209,3277,1,8,0:0:0:0:
308,303,3411,1,0,0:0:0:0:
254,102,4477,1,0,0:0:0:0:
180,121,5011,1,0,0:0:0:0:
180,121,5144,1,8,0:0:0:0:
254,102,5277,1,8,0:0:0:0:
167,206,5411,1,8,0:0:0:0:
254,102,5544,1,0,0:0:0:0:
254,102,6077,1,8,0:0:0:0:
180,121,6211,1,8,0:0:0:0:
254,102,6344,1,0,0:0:0:0:
167,206,6477,1,8,0:0:0:0:
254,102,6611,1,0,0:0:0:0:
145,80,7144,1,8,0:0:0:0:
145,80,7277,1,0,0:0:0:0:
123,79,7411,1,8,0:0:0:0:
167,206,7544,1,0,0:0:0:0:
254,102,7677,1,8,0:0:0:0:
254,102,8211,1,8,0:0:0:0:
254,102,8744,1,0,0:0:0:0:
254,102,9277,1,8,0:0:0:0:
55,175,9411,1,8,0:0:0:0:
176,93,9544,1,0,0:0:0:0:
167,206,9677,1,0,0:0:0:0:
176,93,9811,1,8,0:0:0:0:
126,172,10344,1,0,0:0:0:0:
126,172,10477,1,8,0:0:0:0:
126,172,10611,1,8,0:0:0:0:
167,206,10744,1,0,0:0:0:0:
176,93,10877,1,8,0:0:0:0:
195,97,11411,1,8,0:0:0:0:
126,172,11544,1,0,0:0:0:0:
195,97,11677,1,8,0:0:0:0:
87,160,11811,1,8,0:0:0:0:
195,97,11944,1,0,0:0:0:0:
195,97,13011,1,0,0:0:0:0:
195,97,13277,1,0,0:0:0:0:
117,186,13411,1,8,0:0:0:0:
195,97,13544,1,8,0:0:0:0:
126,172,13677,1,8,0:0:0:0:
195,97,13811,1,0,0:0:0:0:
117,186,13944,1,0,0:0:0:0:
195,97,14077,1,8,0:0:0:0:
126,172,14344,1,0,0:0:0:0:
84,66,14611,1,0,0:0:0:0:
126,172,14744,1,8,0:0:0:0:
195,97,14877,1,0,0:0:0:0:
117,186,15011,1,0,0:0:0:0:
195,97,15144,1,8,0:0:0:0:
126,172,15411,1,0,0:0:0:0:
84,66,15677,1,8,0:0:0:0:
84,66,15944,1,0,0:0:0:0:
84,66,16211,1,8,0:0:0:0:
346,264,16744,1,8,0:0:0:0:
346,264,16811,1,8,0:0:0:0:
346,264,16877,1,8,0:0:0:0:
346,264,16944,1,8,0:0:0:0:
346,264,17011,1,0,0:0:0:0:
259,242,17144,1,8,0:0:0:0:
259,242,17211,1,8,0:0:0:0:
208,210,17277,1,4,0:0:0:0:
361,86,17477,1,12,0:0:0:0:
281,122,17677,1,4,0:0:0:0:
361,86,17944,1,4,0:0:0:0:
281,122,18077,1,12,0:0:0:0:
255,88,18211,1,4,0:0:0:0:
479,266,18344,1,8,0:0:0:0:
479,266,18477,1,0,0:0:0:0:
296,171,18544,1,0,0:0:0:0:
366,138,18611,1,8,0:0:0:0:
328,233,18744,1,0,0:0:0:0:
296,171,18811,1,8,0:0:0:0:
296,171,18877,1,8,0:0:0:0:
343,197,19011,1,0,0:0:0:0:
296,171,19077,1,0,0:0:0:0:
366,138,19144,1,8,0:0:0:0:
175,208,19277,1,0,0:0:0:0:
175,208,19411,1,8,0:0:0:0:
175,208,19477,1,8,0:0:0:0:
175,208,19544,1,8,0:0:0:0:
175,208,19611,1,8,0:0:0:0:
281,122,19677,1,4,0:0:0:0:
151,114,19944,1,12,0:0:0:0:
188,142,20144,1,4,0:0:0:0:
301,140,20344,1,12,0:0:0:0:
255,273,20477,1,0,0:0:0:0:
255,273,20544,1,8,0:0:0:0:
339,257,20611,1,0,0:0:0:0:
255,273,20677,1,0,0:0:0:0:
261,102,20744,1,8,0:0:0:0:
244,271,20877,1,8,0:0:0:0:
168,222,20944,1,8,0:0:0:0:
168,222,21011,1,0,0:0:0:0:
244,271,21144,1,8,0:0:0:0:
311,144,21277,1,0,0:0:0:0:
215,177,21344,1,0,0:0:0:0:
215,177,21411,1,0,0:0:0:0:
215,177,21477,1,0,0:0:0:0:
455,283,21544,1,12,0:0:0:0:
246,78,21744,1,4,0:0:0:0:
293,44,21944,1,12,0:0:0:0:
332,115,22211,1,4,0:0:0:0:
293,44,22344,1,12,0:0:0:0:
246,83,22477,1,4,0:0:0:0:
354,151,22611,1,8,0:0:0:0:
354,151,22744,1,8,0:0:0:0:
354,151,22811,1,0,0:0:0:0:
420,278,22877,1,8,0:0:0:0:
420,278,23011,1,0,0:0:0:0:
354,151,23077,1,8,0:0:0:0:
354,151,23144,1,8,0:0:0:0:
420,278,23277,1,0,0:0:0:0:
354,151,23344,1,0,0:0:0:0:
420,278,23411,1,8,0:0:0:0:
211,134,23544,1,0,0:0:0:0:
211,134,23677,1,8,0:0:0:0:
211,134,23744,1,8,0:0:0:0:
211,134,23811,1,0,0:0:0:0:
211,134,23877,1,0,0:0:0:0:
397,173,23944,1,12,0:0:0:0:
277,247,24211,1,4,0:0:0:0:
319,101,24411,1,12,0:0:0:0:
277,247,24611,1,12,0:0:0:0:
177,129,24744,1,8,0:0:0:0:
225,280,24877,1,0,0:0:0:0:
177,129,24944,1,0,0:0:0:0:
225,280,25011,1,8,0:0:0:0:
171,113,25144,1,8,0:0:0:0:
163,92,25211,1,8,0:0:0:0:
163,92,25277,1,0,0:0:0:0:
171,113,25344,1,8,0:0:0:0:
163,92,25411,1,8,0:0:0:0:
163,92,25544,1,0,0:0:0:0:
163,92,25611,1,8,0:0:0:0:
163,92,25677,1,8,0:0:0:0:
163,92,25744,1,8,0:0:0:0:
330,246,25811,1,4,0:0:0:0:
246,122,26011,1,12,0:0:0:0:
330,246,26211,1,4,0:0:0:0:
245,85,26477,1,0,0:0:0:0:
194,32,26611,1,8,0:0:0:0:
128,98,26744,1,0,0:0:0:0:
245,85,26877,1,4,0:0:0:0:
124,44,27077,1,12,0:0:0:0:
124,44,27277,1,12,0:0:0:0:
124,44,27544,1,0,0:0:0:0:
124,44,27677,1,8,0:0:0:0:
279,169,27811,1,8,0:0:0:0:
332,109,27944,1,4,0:0:0:0:
124,44,28144,1,12,0:0:0:0:
124,44,28344,1,4,0:0:0:0:
109,67,28611,1,8,0:0:0:0:
124,44,28744,1,0,0:0:0:0:
355,111,28877,1,8,0:0:0:0:
109,67,29011,1,4,0:0:0:0:
124,44,29211,1,12,0:0:0:0:
109,67,29411,1,4,0:0:0:0:
109,67,29677,1,8,0:0:0:0:
124,44,29811,1,0,0:0:0:0:
355,111,29944,1,8,0:0:0:0:
109,67,30077,1,12,0:0:0:0:
441,220,30344,1,12,0:0:0:0:
234,150,30477,1,0,0:0:0:0:
366,255,30611,1,12,0:0:0:0:
441,220,30877,1,4,0:0:0:0:
166,76,31011,1,8,0:0:0:0:
452,266,31144,1,4,0:0:0:0:
370,217,31411,1,12,0:0:0:0:
214,45,31544,1,8,0:0:0:0:
341,79,31677,1,4,0:0:0:0:
169,53,31811,1,0,0:0:0:0:
169,53,31944,1,12,0:0:0:0:
169,53,32077,1,8,0:0:0:0:
169,53,32211,1,4,0:0:0:0:
341,79,32411,1,12,0:0:0:0:
341,79,32611,1,12,0:0:0:0:
240,75,32877,1,4,0:0:0:0:
240,75,33011,1,12,0:0:0:0:
341,79,33144,1,4,0:0:0:0:
469,324,33277,1,8,0:0:0:0:
306,292,33344,1,8,0:0:0:0:
306,292,33411,1,0,0:0:0:0:
306,292,33477,1,0,0:0:0:0:
306,292,33544,1,8,0:0:0:0:
306,292,33677,1,0,0:0:0:0:
306,292,33744,1,0,0:0:0:0:
306,292,33811,1,8,0:0:0:0:
306,292,33944,1,0,0:0:0:0:
286,82,34077,1,8,0:0:0:0:
286,82,34344,1,4,0:0:0:0:
288,312,34477,1,0,0:0:0:0:
381,117,34611,1,8,0:0:0:0:
381,117,34744,1,0,0:0:0:0:
96,340,34877,1,8,0:0:0:0:
403,298,35011,1,0,0:0:0:0:
310,217,35144,1,8,0:0:0:0:
96,340,35411,1,0,0:0:0:0:
381,182,35544,1,8,0:0:0:0:
272,112,35677,1,0,0:0:0:0:
239,112,35811,1,0,0:0:0:0:
179,102,35944,1,8,0:0:0:0:
239,112,36211,1,0,0:0:0:0:
239,112,36344,1,8,0:0:0:0:
310,217,36477,1,8,0:0:0:0:
401,309,36611,1,8,0:0:0:0:
172,233,36744,1,0,0:0:0:0:
174,57,36877,1,0,0:0:0:0:
252,229,37011,1,8,0:0:0:0:
174,57,37144,1,0,0:0:0:0:
252,229,37277,1,0,0:0:0:0:
137,252,37344,1,8,0:0:0:0:
252,229,37411,1,0,0:0:0:0:
250,181,37477,1,0,0:0:0:0:
290,90,37544,1,8,0:0:0:0:
214,34,37811,1,8,0:0:0:0:
214,34,37944,1,8,0:0:0:0:
163,202,38077,1,8,0:0:0:0:
214,34,38211,1,0,0:0:0:0:
214,34,38344,1,0,0:0:0:0:
290,90,38611,1,8,0:0:0:0:
214,34,38744,1,8,0:0:0:0:
227,67,38877,1,8,0:0:0:0:
227,67,39011,1,0,0:0:0:0:
290,90,39144,1,8,0:0:0:0:
214,34,39277,1,0,0:0:0:0:
245,179,39411,1,8,0:0:0:0:
313,237,39544,1,8,0:0:0:0:
290,90,39677,1,0,0:0:0:0:
228,101,39811,1,0,0:0:0:0:
290,90,39944,1,8,0:0:0:0:
313,237,40077,1,8,0:0:0:0:
102,111,40211,1,0,0:0:0:0:
313,237,40344,1,8,0:0:0:0:
102,111,40477,1,8,0:0:0:0:
313,237,40544,1,0,0:0:0:0:
102,111,40611,1,8,0:0:0:0:
313,237,40677,1,8,0:0:0:0:
232,91,40744,1,0,0:0:0:0:
254,55,41011,1,8,0:0:0:0:
319,216,41144,1,0,0:0:0:0:
319,216,41211,1,8,0:0:0:0:
228,101,41277,1,0,0:0:0:0:
228,101,41411,1,8,0:0:0:0:
221,198,41544,1,8,0:0:0:0:
235,177,41677,1,0,0:0:0:0:
277,295,41811,1,8,0:0:0:0:
245,51,41944,1,0,0:0:0:0:
141,57,42077,1,8,0:0:0:0:
137,82,42211,1,0,0:0:0:0:
277,295,42344,1,0,0:0:0:0:
245,51,42477,1,0,0:0:0:0:
141,57,42611,1,8,0:0:0:0:
284,272,42744,1,0,0:0:0:0:
235,56,42877,1,0,0:0:0:0:
245,51,43011,1,8,0:0:0:0:
221,65,43144,1,0,0:0:0:0:
284,272,43411,1,8,0:0:0:0:
284,272,43544,1,0,0:0:0:0:
284,272,43677,1,8,0:0:0:0:
284,272,43811,1,8,0:0:0:0:
284,272,43944,1,0,0:0:0:0:
79,286,44011,1,0,0:0:0:0:
79,286,44077,1,8,0:0:0:0:
141,57,44211,1,8,0:0:0:0:
245,51,44344,1,0,0:0:0:0:
179,275,44477,1,8,0:0:0:0:
179,275,44611,1,8,0:0:0:0:
179,275,44744,1,8,0:0:0:0:
179,275,44877,1,0,0:0:0:0:
141,57,45011,1,0,0:0:0:0:
245,51,45144,1,0,0:0:0:0:
174,33,45277,1,8,0:0:0:0:
191,270,45411,1,8,0:0:0:0:
191,270,45544,1,0,0:0:0:0:
191,270,45677,1,8,0:0:0:0:
185,95,45811,1,0,0:0:0:0:
143,61,45944,1,0,0:0:0:0:
143,61,46077,1,8,0:0:0:0:
276,213,46144,1,8,0:0:0:0:
276,213,46211,1,8,0:0:0:0:
276,213,46277,1,8,0:0:0:0:
174,33,46344,1,4,0:0:0:0:
175,113,46611,1,4,0:0:0:0:
248,62,46877,1,12,0:0:0:0:
343,281,47011,1,8,0:0:0:0:
174,33,47144,1,4,0:0:0:0:
370,300,47411,1,8,0:0:0:0:
215,264,47544,1,0,0:0:0:0:
206,130,47611,1,8,0:0:0:0:
206,130,47677,1,0,0:0:0:0:
215,264,47811,1,0,0:0:0:0:
370,300,47944,1,8,0:0:0:0:
215,264,48077,1,8,0:0:0:0:
370,300,48211,1,0,0:0:0:0:
352,191,48344,1,0,0:0:0:0:
370,300,48477,1,8,0:0:0:0:
215,264,48611,1,0,0:0:0:0:
352,191,48877,1,8,0:0:0:0:
352,191,48944,1,0,0:0:0:0:
352,191,49011,1,8,0:0:0:0:
352,191,49144,1,8,0:0:0:0:
173,224,49277,1,0,0:0:0:0:
352,191,49411,1,0,0:0:0:0:
173,224,49544,1,8,0:0:0:0:
215,264,49677,1,0,0:0:0:0:
298,202,49944,1,0,0:0:0:0:
173,224,50077,1,8,0:0:0:0:
215,264,50211,1,8,0:0:0:0:
173,224,50344,1,0,0:0:0:0:
298,202,50477,1,8,0:0:0:0:
298,202,50544,1,0,0:0:0:0:
298,202,50611,1,8,0:0:0:0:
211,191,50744,1,0,0:0:0:0:
298,202,50877,1,8,0:0:0:0:
298,202,50944,1,8,0:0:0:0:
298,202,51011,1,0,0:0:0:0:
211,191,51144,1,8,0:0:0:0:
211,191,51277,1,0,0:0:0:0:
173,224,51411,1,0,0:0:0:0:
205,83,51677,1,0,0:0:0:0:
205,83,51811,1,8,0:0:0:0:
238,130,51877,1,0,0:0:0:0:
263,240,51944,1,8,0:0:0:0:
238,130,52077,1,0,0:0:0:0:
415,155,52211,1,8,0:0:0:0:
187,132,52344,1,0,0:0:0:0:
228,162,52477,1,0,0:0:0:0:
253,286,52744,1,8,0:0:0:0:
187,132,52877,1,0,0:0:0:0:
238,130,52944,1,8,0:0:0:0:
263,240,53011,1,0,0:0:0:0:
263,240,53144,1,0,0:0:0:0:
263,240,53277,1,8,0:0:0:0:
263,240,53411,1,0,0:0:0:0:
225,73,53544,1,0,0:0:0:0:
197,173,53811,1,8,0:0:0:0:
126,104,53944,1,8,0:0:0:0:
197,173,54077,1,0,0:0:0:0:
126,104,54211,1,0,0:0:0:0:
238,130,54277,1,0,0:0:0:0:
126,104,54344,1,8,0:0:0:0:
197,173,54477,1,8,0:0:0:0:
126,104,54611,1,0,0:0:0:0:
126,104,54744,1,8,0:0:0:0:
219,209,54811,1,8,0:0:0:0:
126,104,54877,1,0,0:0:0:0:
126,104,55011,1,0,0:0:0:0:
219,209,55077,1,0,0:0:0:0:
126,104,55144,1,8,0:0:0:0:
219,209,55211,1,8,0:0:0:0:
286,230,55277,1,0,0:0:0:0:
225,73,55411,1,8,0:0:0:0:
126,104,55544,1,8,0:0:0:0:
174,33,55677,1,4,0:0:0:0:
370,300,55944,1,8,0:0:0:0:
215,264,56077,1,0,0:0:0:0:
206,130,56144,1,8,0:0:0:0:
206,130,56211,1,0,0:0:0:0:
215,264,56344,1,0,0:0:0:0:
279,169,56411,1,0,0:0:0:0:
370,300,56477,1,8,0:0:0:0:
215,264,56611,1,8,0:0:0:0:
370,300,56744,1,0,0:0:0:0:
352,191,56877,1,0,0:0:0:0:
370,300,57011,1,8,0:0:0:0:
215,264,57144,1,0,0:0:0:0:
352,191,57411,1,8,0:0:0:0:
352,191,57477,1,0,0:0:0:0:
352,191,57544,1,8,0:0:0:0:
352,191,57677,1,8,0:0:0:0:
173,224,57811,1,0,0:0:0:0:
352,191,57944,1,0,0:0:0:0:
423,249,58011,1,0,0:0:0:0:
173,224,58077,1,8,0:0:0:0:
215,264,58211,1,0,0:0:0:0:
298,202,58477,1,0,0:0:0:0:
173,224,58611,1,8,0:0:0:0:
215,264,58744,1,8,0:0:0:0:
173,224,58877,1,0,0:0:0:0:
298,202,59011,1,8,0:0:0:0:
298,202,59077,1,0,0:0:0:0:
298,202,59144,1,8,0:0:0:0:
211,191,59277,1,0,0:0:0:0:
251,131,59344,1,8,0:0:0:0:
298,202,59411,1,8,0:0:0:0:
298,202,59477,1,8,0:0:0:0:
298,202,59544,1,0,0:0:0:0:
211,191,59677,1,8,0:0:0:0:
211,191,59811,1,0,0:0:0:0:
173,224,59944,1,4,0:0:0:0:
205,83,60211,1,0,0:0:0:0:
205,83,60344,1,8,0:0:0:0:
238,130,60411,1,0,0:0:0:0:
225,31,60477,1,8,0:0:0:0:
215,105,60544,1,8,0:0:0:0:
238,130,60611,1,0,0:0:0:0:
415,155,60744,1,8,0:0:0:0:
187,132,60877,1,0,0:0:0:0:
228,162,61011,1,4,0:0:0:0:
253,286,61277,1,8,0:0:0:0:
187,132,61411,1,0,0:0:0:0:
238,130,61477,1,8,0:0:0:0:
263,240,61544,1,0,0:0:0:0:
215,105,61611,1,8,0:0:0:0:
263,240,61677,1,0,0:0:0:0:
263,240,61811,1,8,0:0:0:0:
263,240,61944,1,0,0:0:0:0:
225,73,62077,1,4,0:0:0:0:
197,173,62344,1,8,0:0:0:0:
126,104,62477,1,8,0:0:0:0:
197,173,62611,1,0,0:0:0:0:
126,104,62744,1,0,0:0:0:0:
238,130,62811,1,0,0:0:0:0:
126,104,62877,1,8,0:0:0:0:
215,105,62944,1,0,0:0:0:0:
197,173,63011,1,8,0:0:0:0:
126,104,63144,1,4,0:0:0:0:
126,104,63277,1,0,0:0:0:0:
126,104,63411,1,8,0:0:0:0:
277,49,63477,1,8,0:0:0:0:
277,49,63544,1,0,0:0:0:0:
204,97,63610,1,0,0:0:0:0:
126,104,63677,1,12,0:0:0:0:
225,73,63944,1,8,0:0:0:0:
212,66,64011,1,0,0:0:0:0:
126,104,64077,1,8,0:0:0:0:
212,66,64144,1,8,0:0:0:0:
174,33,64211,1,4,0:0:0:0:
225,324,64477,1,8,0:0:0:0:
335,215,64611,1,0,0:0:0:0:
335,215,64744,1,8,0:0:0:0:
335,215,64811,1,8,0:0:0:0:
225,324,64877,1,0,0:0:0:0:
225,324,65011,1,8,0:0:0:0:
503,269,65144,1,0,0:0:0:0:
225,324,65277,1,12,0:0:0:0:
225,324,65411,1,0,0:0:0:0:
330,151,65544,1,8,0:0:0:0:
225,324,65677,1,4,0:0:0:0:
465,233,65944,1,0,0:0:0:0:
465,233,66077,1,8,0:0:0:0:
465,233,66211,1,8,0:0:0:0:
465,233,66277,1,8,0:0:0:0:
206,83,66344,1,4,0:0:0:0:
465,233,66477,1,8,0:0:0:0:
261,130,66611,1,8,0:0:0:0:
261,130,66744,1,0,0:0:0:0:
261,130,66877,1,8,0:0:0:0:
261,130,67011,1,8,0:0:0:0:
465,233,67144,1,0,0:0:0:0:
261,130,67277,1,8,0:0:0:0:
261,130,67411,1,4,0:0:0:0:
261,130,67677,1,12,0:0:0:0:
261,130,67944,1,4,0:0:0:0:
221,241,68077,1,8,0:0:0:0:
261,130,68211,1,4,0:0:0:0:
279,191,68344,1,8,0:0:0:0:
174,33,68477,1,4,0:0:0:0:
225,324,68744,1,8,0:0:0:0:
221,241,68877,1,8,0:0:0:0:
225,324,69011,1,0,0:0:0:0:
101,166,69077,1,8,0:0:0:0:
225,324,69144,1,0,0:0:0:0:
225,324,69277,1,8,0:0:0:0:
101,166,69411,1,8,0:0:0:0:
225,324,69544,1,4,0:0:0:0:
225,324,69677,1,8,0:0:0:0:
421,303,69811,1,8,0:0:0:0:
225,324,69944,1,4,0:0:0:0:
101,166,70211,1,0,0:0:0:0:
101,166,70344,1,8,0:0:0:0:
259,136,70477,1,8,0:0:0:0:
259,136,70544,1,8,0:0:0:0:
244,75,70611,1,4,0:0:0:0:
271,119,70744,1,0,0:0:0:0:
244,75,70877,1,8,0:0:0:0:
244,75,71011,1,8,0:0:0:0:
119,215,71077,1,8,0:0:0:0:
119,215,71144,1,0,0:0:0:0:
119,215,71211,1,8,0:0:0:0:
244,75,71277,1,0,0:0:0:0:
244,75,71411,1,8,0:0:0:0:
244,75,71677,1,4,0:0:0:0:
186,86,71811,1,8,0:0:0:0:
186,86,71877,1,0,0:0:0:0:
244,75,71944,1,8,0:0:0:0:
244,75,72077,1,0,0:0:0:0:
421,292,72144,1,0,0:0:0:0:
244,75,72211,1,8,0:0:0:0:
244,75,72344,1,8,0:0:0:0:
244,75,72477,1,0,0:0:0:0:
386,267,72611,1,8,0:0:0:0:
174,33,72744,1,4,0:0:0:0:
225,324,73011,1,8,0:0:0:0:
335,215,73144,1,0,0:0:0:0:
335,215,73277,1,8,0:0:0:0:
335,215,73344,1,8,0:0:0:0:
225,324,73411,1,0,0:0:0:0:
105,157,73477,1,8,0:0:0:0:
225,324,73544,1,8,0:0:0:0:
503,269,73677,1,0,0:0:0:0:
225,324,73811,1,12,0:0:0:0:
225,324,73944,1,0,0:0:0:0:
330,151,74077,1,8,0:0:0:0:
225,324,74211,1,4,0:0:0:0:
465,233,74477,1,0,0:0:0:0:
465,233,74611,1,8,0:0:0:0:
465,233,74744,1,8,0:0:0:0:
465,233,74811,1,8,0:0:0:0:
206,83,74877,1,4,0:0:0:0:
465,233,75011,1,8,0:0:0:0:
261,130,75144,1,8,0:0:0:0:
261,130,75277,1,0,0:0:0:0:
319,168,75344,1,0,0:0:0:0:
261,130,75411,1,8,0:0:0:0:
261,130,75544,1,8,0:0:0:0:
465,233,75677,1,0,0:0:0:0:
261,130,75811,1,8,0:0:0:0:
261,130,75944,1,4,0:0:0:0:
261,130,76211,1,12,0:0:0:0:
261,130,76477,1,4,0:0:0:0:
221,241,76611,1,8,0:0:0:0:
261,130,76744,1,4,0:0:0:0:
279,191,76877,1,8,0:0:0:0:
174,33,77011,1,4,0:0:0:0:
225,324,77277,1,8,0:0:0:0:
221,241,77411,1,8,0:0:0:0:
225,324,77544,1,0,0:0:0:0:
101,166,77611,1,8,0:0:0:0:
225,324,77677,1,0,0:0:0:0:
225,324,77811,1,8,0:0:0:0:
101,166,77944,1,8,0:0:0:0:
225,324,78077,1,4,0:0:0:0:
225,324,78211,1,8,0:0:0:0:
421,303,78344,1,8,0:0:0:0:
225,324,78477,1,4,0:0:0:0:
101,166,78744,1,0,0:0:0:0:
101,166,78877,1,8,0:0:0:0:
259,136,79011,1,8,0:0:0:0:
259,136,79077,1,8,0:0:0:0:
244,75,79144,1,4,0:0:0:0:
271,119,79277,1,0,0:0:0:0:
241,211,79344,1,0,0:0:0:0:
244,75,79411,1,8,0:0:0:0:
244,75,79544,1,8,0:0:0:0:
119,215,79611,1,8,0:0:0:0:
119,215,79677,1,0,0:0:0:0:
119,215,79744,1,8,0:0:0:0:
244,75,79811,1,0,0:0:0:0:
244,75,79944,1,8,0:0:0:0:
244,75,80211,1,0,0:0:0:0:
285,114,80277,1,0,0:0:0:0:
186,86,80344,1,8,0:0:0:0:
186,86,80411,1,0,0:0:0:0:
244,75,80477,1,8,0:0:0:0:
261,87,80611,1,8,0:0:0:0:
421,292,80677,1,0,0:0:0:0:
269,84,80744,1,0,0:0:0:0:
260,87,80811,1,0,0:0:0:0:
244,75,80877,1,8,0:0:0:0:
244,75,81011,1,0,0:0:0:0:
134,66,81077,1,8,0:0:0:0:
386,267,81144,1,8,0:0:0:0:
174,33,81277,1,4,0:0:0:0:
225,115,81811,1,0,0:0:0:0:
225,115,81944,1,8,0:0:0:0:
225,115,82077,1,8,0:0:0:0:
137,273,82211,1,0,0:0:0:0:
308,303,82344,1,8,0:0:0:0:
308,303,82877,1,0,0:0:0:0:
225,115,83011,1,8,0:0:0:0:
308,303,83144,1,0,0:0:0:0:
137,273,83277,1,8,0:0:0:0:
308,303,83411,1,8,0:0:0:0:
308,303,83944,1,8,0:0:0:0:
225,115,84077,1,8,0:0:0:0:
308,303,84211,1,0,0:0:0:0:
137,273,84344,1,8,0:0:0:0:
308,303,84477,1,0,0:0:0:0:
254,102,85544,1,0,0:0:0:0:
180,121,86077,1,0,0:0:0:0:
180,121,86211,1,8,0:0:0:0:
254,102,86344,1,8,0:0:0:0:
137,273,86477,1,8,0:0:0:0:
254,102,86611,1,0,0:0:0:0:
254,102,87144,1,8,0:0:0:0:
180,121,87277,1,8,0:0:0:0:
254,102,87411,1,0,0:0:0:0:
137,273,87544,1,8,0:0:0:0:
254,102,87677,1,0,0:0:0:0:
145,80,88211,1,8,0:0:0:0:
145,80,88344,1,0,0:0:0:0:
123,79,88477,1,8,0:0:0:0:
137,273,88611,1,0,0:0:0:0:
254,102,88744,1,8,0:0:0:0:
254,102,89277,1,8,0:0:0:0:
254,102,89811,1,4,0:0:0:0:
272,225,90077,1,0,0:0:0:0:
254,102,90344,1,8,0:0:0:0:
55,175,90477,1,8,0:0:0:0:
176,93,90611,1,0,0:0:0:0:
219,132,90744,1,0,0:0:0:0:
176,93,90877,1,8,0:0:0:0:
272,225,91011,1,8,0:0:0:0:
272,225,91144,1,0,0:0:0:0:
272,225,91277,1,0,0:0:0:0:
272,225,91411,1,8,0:0:0:0:
159,160,91544,1,0,0:0:0:0:
159,160,91677,1,8,0:0:0:0:
159,160,91811,1,8,0:0:0:0:
194,204,91944,1,0,0:0:0:0:
194,204,92211,1,0,0:0:0:0:
194,204,92477,1,8,0:0:0:0:
155,175,92611,1,0,0:0:0:0:
155,175,92744,1,8,0:0:0:0:
159,160,92877,1,8,0:0:0:0:
155,175,93011,1,0,0:0:0:0:
155,175,93144,1,8,0:0:0:0:
155,175,93277,1,0,0:0:0:0:
155,175,93411,1,0,0:0:0:0:
155,175,93544,1,8,0:0:0:0:
283,176,93811,1,8,0:0:0:0:
155,175,94077,1,4,0:0:0:0:
214,117,94344,1,0,0:0:0:0:
214,117,94611,1,8,0:0:0:0:
214,117,94744,1,0,0:0:0:0:
214,117,94877,1,8,0:0:0:0:
214,117,95011,1,8,0:0:0:0:
214,117,95144,1,4,0:0:0:0:
237,117,95277,1,8,0:0:0:0:
214,117,95411,1,0,0:0:0:0:
237,117,95544,1,0,0:0:0:0:
214,117,95677,1,8,0:0:0:0:
214,117,95944,1,8,0:0:0:0:
214,117,96211,1,12,0:0:0:0:
237,117,96344,1,0,0:0:0:0:
214,117,96477,1,0,0:0:0:0:
214,117,96611,1,0,0:0:0:0:
214,117,96744,1,12,0:0:0:0:
214,117,97011,1,0,0:0:0:0:
214,117,97277,1,12,0:0:0:0:
228,197,97811,1,0,0:0:0:0:
277,78,97877,1,0,0:0:0:0:
277,78,97944,1,8,0:0:0:0:
250,114,98077,1,0,0:0:0:0:
221,87,98144,1,0,0:0:0:0:
206,115,98211,1,8,0:0:0:0:
221,87,98277,1,8,0:0:0:0:
214,117,98344,1,4,0:0:0:0:
309,203,98611,1,8,0:0:0:0:
431,220,98677,1,8,0:0:0:0:
431,220,98744,1,0,0:0:0:0:
431,220,98811,1,0,0:0:0:0:
431,220,98877,1,8,0:0:0:0:
325,300,99011,1,0,0:0:0:0:
325,300,99144,1,8,0:0:0:0:
424,322,99211,1,0,0:0:0:0:
325,300,99277,1,8,0:0:0:0:
325,300,99411,1,0,0:0:0:0:
325,300,99677,1,8,0:0:0:0:
219,187,99744,1,0,0:0:0:0:
193,130,99811,1,0,0:0:0:0:
219,187,99877,1,0,0:0:0:0:
219,187,99944,1,8,0:0:0:0:
128,238,100077,1,8,0:0:0:0:
128,238,100211,1,0,0:0:0:0:
225,233,100277,1,8,0:0:0:0:
128,238,100344,1,0,0:0:0:0:
128,238,100477,1,8,0:0:0:0:
265,80,100744,1,8,0:0:0:0:
219,187,100811,1,0,0:0:0:0:
219,187,100877,1,8,0:0:0:0:
219,187,100944,1,8,0:0:0:0:
265,80,101011,1,0,0:0:0:0:
265,80,101144,1,8,0:0:0:0:
128,238,101277,1,0,0:0:0:0:
128,238,101411,1,8,0:0:0:0:
303,221,101477,1,8,0:0:0:0:
128,238,101544,1,0,0:0:0:0:
194,161,101677,1,0,0:0:0:0:
194,161,101811,1,8,0:0:0:0:
194,161,101877,1,8,0:0:0:0:
194,161,101944,1,0,0:0:0:0:
221,44,102077,1,8,0:0:0:0:
316,180,102144,1,8,0:0:0:0:
316,180,102211,1,0,0:0:0:0:
130,172,102344,1,8,0:0:0:0:
316,180,102411,1,0,0:0:0:0:
130,172,102477,1,8,0:0:0:0:
130,172,102611,1,4,0:0:0:0:
130,299,102877,1,8,0:0:0:0:
271,264,103011,1,0,0:0:0:0:
130,299,103144,1,8,0:0:0:0:
271,264,103211,1,0,0:0:0:0:
130,299,103277,1,8,0:0:0:0:
130,299,103411,1,0,0:0:0:0:
130,299,103544,1,8,0:0:0:0:
44,224,103677,1,0,0:0:0:0:
188,193,103811,1,8,0:0:0:0:
354,290,103877,1,0,0:0:0:0:
44,224,103944,1,8,0:0:0:0:
44,224,104077,1,0,0:0:0:0:
314,297,104211,1,0,0:0:0:0:
314,297,104277,1,8,0:0:0:0:
44,224,104344,1,0,0:0:0:0:
117,197,104477,1,8,0:0:0:0:
217,101,104744,1,0,0:0:0:0:
185,186,104811,1,8,0:0:0:0:
185,186,104877,1,8,0:0:0:0:
185,186,104944,1,8,0:0:0:0:
185,186,105011,1,0,0:0:0:0:
190,191,105144,1,8,0:0:0:0:
239,46,105277,1,0,0:0:0:0:
217,95,105411,1,0,0:0:0:0:
217,95,105544,1,8,0:0:0:0:
271,119,105611,1,8,0:0:0:0:
217,95,105677,1,0,0:0:0:0:
217,95,105811,1,12,0:0:0:0:
217,95,106077,1,0,0:0:0:0:
217,95,106211,1,12,0:0:0:0:
193,80,106477,1,0,0:0:0:0:
193,80,106611,1,12,0:0:0:0:
250,89,106744,1,8,0:0:0:0:
193,80,106877,1,4,0:0:0:0:
170,227,107144,1,8,0:0:0:0:
272,97,107277,1,0,0:0:0:0:
272,97,107411,1,12,0:0:0:0:
200,150,107611,1,4,0:0:0:0:
223,144,107811,1,4,0:0:0:0:
223,144,107944,1,12,0:0:0:0:
229,146,108144,1,4,0:0:0:0:
208,224,108344,1,4,0:0:0:0:
185,78,108477,1,12,0:0:0:0:
229,146,108611,1,4,0:0:0:0:
159,84,108744,1,12,0:0:0:0:
229,146,108877,1,12,0:0:0:0:
229,146,109011,1,4,0:0:0:0:
365,253,109277,1,8,0:0:0:0:
365,253,109344,1,8,0:0:0:0:
365,253,109411,1,0,0:0:0:0:
213,200,109477,1,8,0:0:0:0:
213,200,109544,1,0,0:0:0:0:
337,244,109677,1,0,0:0:0:0:
337,244,109811,1,8,0:0:0:0:
213,200,109944,1,8,0:0:0:0:
337,244,110077,1,0,0:0:0:0:
213,200,110144,1,0,0:0:0:0:
337,244,110211,1,8,0:0:0:0:
213,200,110277,1,0,0:0:0:0:
337,244,110344,1,8,0:0:0:0:
337,244,110477,1,0,0:0:0:0:
112,171,110544,1,0,0:0:0:0:
112,171,110611,1,8,0:0:0:0:
112,171,110677,1,8,0:0:0:0:
248,173,110744,1,0,0:0:0:0:
337,244,110877,1,8,0:0:0:0:
337,244,111011,1,8,0:0:0:0:
337,244,111144,1,4,0:0:0:0:
337,244,111411,1,8,0:0:0:0:
410,355,111544,1,0,0:0:0:0:
337,244,111677,1,8,0:0:0:0:
494,363,111744,1,0,0:0:0:0:
337,244,111811,1,0,0:0:0:0:
494,363,111877,1,0,0:0:0:0:
337,244,111944,1,8,0:0:0:0:
337,244,112077,1,0,0:0:0:0:
337,244,112211,1,12,0:0:0:0:
337,244,112477,1,8,0:0:0:0:
337,244,112611,1,0,0:0:0:0:
274,115,112744,1,0,0:0:0:0:
265,144,112811,1,8,0:0:0:0:
337,244,112877,1,0,0:0:0:0:
244,148,112944,1,0,0:0:0:0:
337,244,113011,1,8,0:0:0:0:
244,148,113144,1,8,0:0:0:0:
244,148,113277,1,0,0:0:0:0:
244,148,113344,1,0,0:0:0:0:
244,148,113411,1,0,0:0:0:0:
244,148,113477,1,0,0:0:0:0:
244,148,113544,1,8,0:0:0:0:
310,260,113677,1,8,0:0:0:0:
310,260,113811,1,0,0:0:0:0:
310,260,113877,1,8,0:0:0:0:
310,260,113944,1,0,0:0:0:0:
388,317,114077,1,8,0:0:0:0:
243,218,114144,1,8,0:0:0:0:
388,317,114211,1,8,0:0:0:0:
238,82,114277,1,8,0:0:0:0:
193,217,114344,1,4,0:0:0:0:
289,164,114611,1,12,0:0:0:0:
289,164,114877,1,4,0:0:0:0:
144,171,115410,1,8,0:0:0:0:
225,115,115944,1,0,0:0:0:0:
225,115,116077,1,8,0:0:0:0:
225,115,116211,1,8,0:0:0:0:
296,292,116344,1,0,0:0:0:0:
308,303,116477,1,8,0:0:0:0:
308,303,117011,1,0,0:0:0:0:
225,115,117144,1,8,0:0:0:0:
308,303,117277,1,0,0:0:0:0:
296,292,117411,1,8,0:0:0:0:
308,303,117544,1,8,0:0:0:0:
308,303,118077,1,8,0:0:0:0:
225,115,118211,1,8,0:0:0:0:
308,303,118344,1,0,0:0:0:0:
296,292,118477,1,8,0:0:0:0:
308,303,118611,1,0,0:0:0:0:
245,245,119677,1,8,0:0:0:0:
245,245,119944,1,0,0:0:0:0:
301,297,120077,1,8,0:0:0:0:
180,121,120211,1,0,0:0:0:0:
180,121,120344,1,8,0:0:0:0:
254,102,120477,1,8,0:0:0:0:
301,297,120611,1,0,0:0:0:0:
215,203,120744,1,8,0:0:0:0:
187,272,121011,1,0,0:0:0:0:
254,102,121277,1,8,0:0:0:0:
215,203,121411,1,0,0:0:0:0:
215,203,121544,1,8,0:0:0:0:
176,224,121677,1,0,0:0:0:0:
176,224,121811,1,8,0:0:0:0:
368,292,122077,1,0,0:0:0:0:
145,80,122344,1,8,0:0:0:0:
179,177,122477,1,8,0:0:0:0:
179,177,122611,1,0,0:0:0:0:
176,224,122744,1,0,0:0:0:0:
254,102,122877,1,8,0:0:0:0:
254,102,123410,1,8,0:0:0:0:
330,283,123477,1,0,0:0:0:0:
187,272,123544,1,8,0:0:0:0:
187,272,123677,1,8,0:0:0:0:
330,283,123744,1,8,0:0:0:0:
187,272,123811,1,8,0:0:0:0:
330,283,123877,1,8,0:0:0:0:
254,102,123944,1,4,0:0:0:0:
