osu file format v14

[General]
AudioFilename: audio.mp3
AudioLeadIn: 0
PreviewTime: 98144
Countdown: 0
SampleSet: Normal
StackLeniency: 0.7
Mode: 1
LetterboxInBreaks: 0
WidescreenStoryboard: 1

[Editor]
Bookmarks: 17077,34144,46944,64011,81077,98144,115211
DistanceSpacing: 1.2
BeatDivisor: 4
GridSize: 32
TimelineZoom: 2.999999

[Metadata]
Title:DESPERATE DEATHPARADE
TitleUnicode:DESPERATE DEATHPARADE
Artist:69 de 74
ArtistUnicode:69 de 74
Creator:op45667
Version:MTNT'S MUZUKASHII
Source:BOFU2017 - LEGENDA EST A MYTH -
Tags:MTNTWarz TaikOseania electronic instrumental featured artist fa breakcore speedcore amen break classical renaissance BMS of Fighters Ultimate mappers' mappers guild mpg mg
BeatmapID:3654164
BeatmapSetID:1774311

[Difficulty]
HPDrainRate:6
CircleSize:5
OverallDifficulty:5
ApproachRate:5
SliderMultiplier:1.4
SliderTickRate:1

[Events]
//Background and Video events
0,0,"sample_5068a406d6a2e8af9c184b3b86eccf37f450a9f9_auto_x2.jpg",0,0
//Break Periods
//Storyboard Layer 0 (Background)
//Storyboard Layer 1 (Fail)
//Storyboard Layer 2 (Pass)
//Storyboard Layer 3 (Foreground)
//Storyboard Layer 4 (Overlay)
//Storyboard Sound Samples

[TimingPoints]
211,266.666666666667,4,1,0,80,1,0
211,-105.263157894737,4,1,0,80,0,0
17277,-105.263157894737,4,1,0,90,0,0
34344,266.666666666667,3,1,0,80,1,0
34344,-105.263157894737,4,1,0,80,0,0
47144,266.666666666667,4,1,0,90,1,0
47144,-105.263157894737,4,1,0,90,0,0
64211,-105.263157894737,4,1,0,90,0,0
81277,-105.263157894737,4,1,0,80,0,0
98344,-105.263157894737,4,1,0,100,0,1
115410,-105.263157894737,4,1,0,50,0,0
123411,-105.263157894737,4,1,0,100,0,0
123944,-105.263157894737,4,1,0,100,0,0
125010,-105.263157894737,4,1,0,80,0,0
126077,-105.263157894737,4,1,0,60,0,0
127144,-105.263157894737,4,1,0,40,0,0
128210,-105.263157894737,4,1,0,20,0,0

[HitObjects]
256,192,211,5,8,0:0:0:0:
256,192,744,1,8,0:0:0:0:
256,192,877,1,8,0:0:0:0:
256,192,1011,1,8,0:0:0:0:
256,192,1144,1,0,0:0:0:0:
256,192,1277,1,8,0:0:0:0:
256,192,1811,1,8,0:0:0:0:
256,192,1944,1,8,0:0:0:0:
256,192,2077,1,0,0:0:0:0:
256,192,2211,1,0,0:0:0:0:
256,192,2344,1,8,0:0:0:0:
256,192,2877,1,0,0:0:0:0:
256,192,3011,1,8,0:0:0:0:
256,192,3144,1,0,0:0:0:0:
256,192,3277,1,8,0:0:0:0:
256,192,3411,1,0,0:0:0:0:
256,192,4477,1,0,0:0:0:0:
256,192,5011,1,0,0:0:0:0:
256,192,5144,1,8,0:0:0:0:
256,192,5277,1,8,0:0:0:0:
256,192,5411,1,0,0:0:0:0:
256,192,5544,1,0,0:0:0:0:
256,192,6077,1,8,0:0:0:0:
256,192,6211,1,0,0:0:0:0:
256,192,6344,1,0,0:0:0:0:
256,192,6477,1,8,0:0:0:0:
256,192,6611,1,0,0:0:0:0:
256,192,7144,1,8,0:0:0:0:
256,192,7277,1,0,0:0:0:0:
256,192,7411,1,8,0:0:0:0:
256,192,7544,1,0,0:0:0:0:
256,192,7677,1,0,0:0:0:0:
256,192,8211,1,8,0:0:0:0:
256,192,8744,1,0,0:0:0:0:
256,192,9277,1,0,0:0:0:0:
256,192,9411,1,8,0:0:0:0:
256,192,9544,1,0,0:0:0:0:
256,192,9677,1,8,0:0:0:0:
256,192,9811,1,0,0:0:0:0:
256,192,10344,1,0,0:0:0:0:
256,192,10477,1,8,0:0:0:0:
256,192,10611,1,0,0:0:0:0:
256,192,10744,1,0,0:0:0:0:
256,192,10877,1,0,0:0:0:0:
256,192,11411,1,0,0:0:0:0:
256,192,11544,1,8,0:0:0:0:
256,192,11677,1,0,0:0:0:0:
256,192,11811,1,0,0:0:0:0:
256,192,11944,1,8,0:0:0:0:
256,192,13011,1,0,0:0:0:0:
256,192,13277,1,0,0:0:0:0:
256,192,13544,1,8,0:0:0:0:
256,192,13677,1,0,0:0:0:0:
256,192,13811,1,8,0:0:0:0:
256,192,13944,1,8,0:0:0:0:
256,192,14077,1,8,0:0:0:0:
256,192,14344,1,0,0:0:0:0:
256,192,14611,1,0,0:0:0:0:
256,192,14877,1,8,0:0:0:0:
256,192,15144,1,8,0:0:0:0:
256,192,15411,1,0,0:0:0:0:
256,192,15677,1,8,0:0:0:0:
256,192,15944,1,0,0:0:0:0:
256,192,16211,1,8,0:0:0:0:
224,192,16744,2,0,L|317:192,3,66.4999982242585
256,192,17277,5,8,0:0:0:0:
256,192,17477,1,8,0:0:0:0:
256,192,17677,1,8,0:0:0:0:
256,192,17944,1,0,0:0:0:0:
256,192,18077,1,8,0:0:0:0:
256,192,18211,1,0,0:0:0:0:
256,192,18344,1,0,0:0:0:0:
256,192,18477,1,8,0:0:0:0:
256,192,18544,1,8,0:0:0:0:
256,192,18611,1,8,0:0:0:0:
256,192,18744,1,0,0:0:0:0:
256,192,18877,1,0,0:0:0:0:
256,192,18944,1,0,0:0:0:0:
256,192,19011,1,0,0:0:0:0:
256,192,19144,1,8,0:0:0:0:
256,192,19677,1,8,0:0:0:0:
256,192,19944,1,0,0:0:0:0:
256,192,20144,1,0,0:0:0:0:
256,192,20344,1,8,0:0:0:0:
256,192,20611,1,8,0:0:0:0:
256,192,20744,1,0,0:0:0:0:
256,192,20877,1,0,0:0:0:0:
256,192,20944,1,0,0:0:0:0:
256,192,21011,1,0,0:0:0:0:
256,192,21144,1,8,0:0:0:0:
256,192,21277,1,0,0:0:0:0:
256,192,21344,1,0,0:0:0:0:
256,192,21411,1,0,0:0:0:0:
256,192,21544,1,8,0:0:0:0:
256,192,21744,1,8,0:0:0:0:
256,192,21944,1,8,0:0:0:0:
256,192,22211,1,0,0:0:0:0:
256,192,22344,1,8,0:0:0:0:
256,192,22477,1,0,0:0:0:0:
256,192,22611,1,0,0:0:0:0:
256,192,22744,1,8,0:0:0:0:
256,192,22811,1,8,0:0:0:0:
256,192,22877,1,8,0:0:0:0:
256,192,23011,1,0,0:0:0:0:
256,192,23144,1,0,0:0:0:0:
256,192,23211,1,0,0:0:0:0:
256,192,23277,1,0,0:0:0:0:
256,192,23411,1,8,0:0:0:0:
256,192,23944,1,8,0:0:0:0:
256,192,24211,1,0,0:0:0:0:
256,192,24411,1,8,0:0:0:0:
256,192,24611,1,8,0:0:0:0:
256,192,24877,1,8,0:0:0:0:
256,192,25011,1,0,0:0:0:0:
256,192,25144,1,0,0:0:0:0:
256,192,25211,1,0,0:0:0:0:
256,192,25277,1,0,0:0:0:0:
256,192,25411,1,8,0:0:0:0:
256,192,25544,1,0,0:0:0:0:
256,192,25611,1,0,0:0:0:0:
256,192,25677,1,0,0:0:0:0:
256,192,25811,1,8,0:0:0:0:
256,192,26011,1,8,0:0:0:0:
256,192,26211,1,8,0:0:0:0:
256,192,26477,1,0,0:0:0:0:
256,192,26611,1,8,0:0:0:0:
256,192,26744,1,0,0:0:0:0:
256,192,26877,1,8,0:0:0:0:
256,192,27077,1,8,0:0:0:0:
256,192,27277,1,8,0:0:0:0:
256,192,27544,1,0,0:0:0:0:
256,192,27677,1,8,0:0:0:0:
256,192,27744,1,8,0:0:0:0:
256,192,27811,1,8,0:0:0:0:
256,192,27944,1,0,0:0:0:0:
256,192,28144,1,8,0:0:0:0:
256,192,28344,1,8,0:0:0:0:
256,192,28611,1,0,0:0:0:0:
256,192,28744,1,8,0:0:0:0:
256,192,28877,1,0,0:0:0:0:
256,192,29011,1,8,0:0:0:0:
256,192,29211,1,8,0:0:0:0:
256,192,29411,1,8,0:0:0:0:
256,192,29677,1,0,0:0:0:0:
256,192,29811,1,0,0:0:0:0:
256,192,29877,1,0,0:0:0:0:
256,192,29944,1,0,0:0:0:0:
256,192,30077,1,8,0:0:0:0:
256,192,30344,1,0,0:0:0:0:
256,192,30611,1,8,0:0:0:0:
256,192,30744,1,0,0:0:0:0:
256,192,30877,1,8,0:0:0:0:
256,192,31144,1,0,0:0:0:0:
256,192,31277,1,0,0:0:0:0:
256,192,31411,1,8,0:0:0:0:
256,192,31544,1,0,0:0:0:0:
256,192,31611,1,0,0:0:0:0:
256,192,31677,1,0,0:0:0:0:
256,192,31811,1,0,0:0:0:0:
256,192,31944,1,8,0:0:0:0:
256,192,32211,1,0,0:0:0:0:
256,192,32411,1,8,0:0:0:0:
256,192,32611,1,8,0:0:0:0:
256,192,32877,1,8,0:0:0:0:
256,192,33011,1,8,0:0:0:0:
256,192,33144,1,0,0:0:0:0:
256,192,33277,12,0,34077,0:0:0:0:
256,192,34344,5,4,0:0:0:0:
256,192,34611,1,0,0:0:0:0:
256,192,34877,1,8,0:0:0:0:
256,192,35144,1,8,0:0:0:0:
256,192,35411,1,8,0:0:0:0:
256,192,35544,1,8,0:0:0:0:
256,192,35677,1,0,0:0:0:0:
256,192,35811,1,8,0:0:0:0:
256,192,35944,1,0,0:0:0:0:
256,192,36211,1,8,0:0:0:0:
256,192,36344,1,0,0:0:0:0:
256,192,36477,1,8,0:0:0:0:
256,192,36744,1,0,0:0:0:0:
256,192,37277,1,0,0:0:0:0:
256,192,37344,1,0,0:0:0:0:
256,192,37411,1,0,0:0:0:0:
256,192,37544,1,8,0:0:0:0:
256,192,37811,1,0,0:0:0:0:
256,192,38077,1,8,0:0:0:0:
256,192,38344,1,0,0:0:0:0:
256,192,38611,1,8,0:0:0:0:
256,192,38744,1,8,0:0:0:0:
256,192,38877,1,0,0:0:0:0:
256,192,39011,1,0,0:0:0:0:
256,192,39144,1,8,0:0:0:0:
256,192,39411,1,0,0:0:0:0:
256,192,39544,1,8,0:0:0:0:
256,192,39677,1,0,0:0:0:0:
256,192,39944,1,0,0:0:0:0:
256,192,40211,1,8,0:0:0:0:
256,192,40344,1,0,0:0:0:0:
256,192,40477,1,8,0:0:0:0:
256,192,40544,1,8,0:0:0:0:
256,192,40611,1,8,0:0:0:0:
256,192,40744,1,0,0:0:0:0:
256,192,41011,1,8,0:0:0:0:
256,192,41144,1,0,0:0:0:0:
256,192,41411,1,8,0:0:0:0:
256,192,41811,1,0,0:0:0:0:
256,192,41944,1,0,0:0:0:0:
256,192,42077,1,8,0:0:0:0:
256,192,42344,1,0,0:0:0:0:
256,192,42477,1,0,0:0:0:0:
256,192,42611,1,8,0:0:0:0:
256,192,42744,1,0,0:0:0:0:
256,192,42877,1,0,0:0:0:0:
256,192,43011,1,8,0:0:0:0:
256,192,43411,1,0,0:0:0:0:
256,192,43477,1,0,0:0:0:0:
256,192,43544,1,0,0:0:0:0:
256,192,43677,1,8,0:0:0:0:
256,192,43811,1,8,0:0:0:0:
256,192,43944,1,0,0:0:0:0:
256,192,44211,1,8,0:0:0:0:
256,192,44344,1,0,0:0:0:0:
256,192,44611,1,8,0:0:0:0:
256,192,45011,1,0,0:0:0:0:
256,192,45144,1,0,0:0:0:0:
256,192,45277,1,8,0:0:0:0:
256,192,45544,1,0,0:0:0:0:
256,192,45677,1,0,0:0:0:0:
256,192,45811,1,8,0:0:0:0:
256,192,45944,1,0,0:0:0:0:
256,192,46077,1,8,0:0:0:0:
256,192,46144,1,8,0:0:0:0:
256,192,46211,1,8,0:0:0:0:
256,192,46344,1,4,0:0:0:0:
256,192,46611,1,4,0:0:0:0:
256,192,46877,1,4,0:0:0:0:
256,192,47144,1,8,0:0:0:0:
256,192,47411,1,8,0:0:0:0:
256,192,47544,1,0,0:0:0:0:
256,192,47811,1,0,0:0:0:0:
256,192,47877,1,0,0:0:0:0:
256,192,47944,1,0,0:0:0:0:
256,192,48077,1,8,0:0:0:0:
256,192,48211,1,0,0:0:0:0:
256,192,48344,1,0,0:0:0:0:
256,192,48477,1,8,0:0:0:0:
256,192,48611,1,0,0:0:0:0:
256,192,48877,1,0,0:0:0:0:
256,192,49011,1,8,0:0:0:0:
256,192,49144,1,8,0:0:0:0:
256,192,49277,1,0,0:0:0:0:
256,192,49544,1,8,0:0:0:0:
256,192,49677,1,0,0:0:0:0:
256,192,49744,1,0,0:0:0:0:
256,192,49811,1,0,0:0:0:0:
256,192,49944,1,0,0:0:0:0:
256,192,50077,1,8,0:0:0:0:
256,192,50211,1,8,0:0:0:0:
256,192,50277,1,8,0:0:0:0:
256,192,50344,1,8,0:0:0:0:
256,192,50477,1,0,0:0:0:0:
256,192,50744,1,0,0:0:0:0:
256,192,50811,1,0,0:0:0:0:
256,192,50877,1,0,0:0:0:0:
256,192,51011,1,0,0:0:0:0:
256,192,51144,1,8,0:0:0:0:
256,192,51411,1,0,0:0:0:0:
256,192,51677,1,8,0:0:0:0:
256,192,52077,1,0,0:0:0:0:
256,192,52211,1,8,0:0:0:0:
256,192,52477,1,0,0:0:0:0:
256,192,52611,1,0,0:0:0:0:
256,192,52744,1,8,0:0:0:0:
256,192,52877,1,0,0:0:0:0:
256,192,52944,1,0,0:0:0:0:
256,192,53011,1,0,0:0:0:0:
256,192,53144,1,8,0:0:0:0:
256,192,53277,1,8,0:0:0:0:
256,192,53344,1,8,0:0:0:0:
256,192,53411,1,8,0:0:0:0:
256,192,53544,1,0,0:0:0:0:
256,192,53677,1,0,0:0:0:0:
256,192,53811,1,8,0:0:0:0:
256,192,54211,1,0,0:0:0:0:
256,192,54344,1,8,0:0:0:0:
256,192,54477,1,0,0:0:0:0:
256,192,54544,1,0,0:0:0:0:
256,192,54611,1,0,0:0:0:0:
256,192,54744,1,0,0:0:0:0:
256,192,54877,1,8,0:0:0:0:
256,192,55011,1,0,0:0:0:0:
256,192,55077,1,0,0:0:0:0:
256,192,55144,1,0,0:0:0:0:
256,192,55277,1,0,0:0:0:0:
256,192,55411,1,8,0:0:0:0:
256,192,55677,1,8,0:0:0:0:
256,192,55944,1,8,0:0:0:0:
256,192,56077,1,0,0:0:0:0:
256,192,56344,1,0,0:0:0:0:
256,192,56411,1,0,0:0:0:0:
256,192,56477,1,0,0:0:0:0:
256,192,56611,1,8,0:0:0:0:
256,192,56744,1,0,0:0:0:0:
256,192,56877,1,0,0:0:0:0:
256,192,57011,1,8,0:0:0:0:
256,192,57144,1,0,0:0:0:0:
256,192,57411,1,0,0:0:0:0:
256,192,57544,1,8,0:0:0:0:
256,192,57677,1,8,0:0:0:0:
256,192,57811,1,0,0:0:0:0:
256,192,58077,1,8,0:0:0:0:
256,192,58211,1,0,0:0:0:0:
256,192,58277,1,0,0:0:0:0:
256,192,58344,1,0,0:0:0:0:
256,192,58477,1,0,0:0:0:0:
256,192,58611,1,8,0:0:0:0:
256,192,58744,1,8,0:0:0:0:
256,192,58811,1,8,0:0:0:0:
256,192,58877,1,8,0:0:0:0:
256,192,59011,1,0,0:0:0:0:
256,192,59277,1,0,0:0:0:0:
256,192,59344,1,0,0:0:0:0:
256,192,59411,1,0,0:0:0:0:
256,192,59544,1,0,0:0:0:0:
256,192,59677,1,8,0:0:0:0:
256,192,59944,1,0,0:0:0:0:
256,192,60211,1,8,0:0:0:0:
256,192,60611,1,0,0:0:0:0:
256,192,60744,1,8,0:0:0:0:
256,192,61011,1,0,0:0:0:0:
256,192,61144,1,0,0:0:0:0:
256,192,61277,1,8,0:0:0:0:
256,192,61411,1,0,0:0:0:0:
256,192,61477,1,0,0:0:0:0:
256,192,61544,1,0,0:0:0:0:
256,192,61677,1,8,0:0:0:0:
256,192,61811,1,8,0:0:0:0:
256,192,61877,1,8,0:0:0:0:
256,192,61944,1,8,0:0:0:0:
256,192,62077,1,0,0:0:0:0:
256,192,62211,1,0,0:0:0:0:
256,192,62344,1,8,0:0:0:0:
256,192,62611,1,8,0:0:0:0:
256,192,62744,1,8,0:0:0:0:
256,192,62877,1,0,0:0:0:0:
256,192,62944,1,0,0:0:0:0:
256,192,63011,1,0,0:0:0:0:
256,192,63144,1,8,0:0:0:0:
256,192,63277,1,0,0:0:0:0:
256,192,63411,1,8,0:0:0:0:
256,192,63477,1,8,0:0:0:0:
256,192,63544,1,8,0:0:0:0:
256,192,63677,1,0,0:0:0:0:
256,192,63944,1,8,0:0:0:0:
256,192,64011,1,8,0:0:0:0:
256,192,64077,1,8,0:0:0:0:
256,192,64211,1,0,0:0:0:0:
256,192,64477,1,8,0:0:0:0:
256,192,64744,1,0,0:0:0:0:
256,192,64811,1,0,0:0:0:0:
256,192,64877,1,0,0:0:0:0:
256,192,65011,1,8,0:0:0:0:
256,192,65144,1,0,0:0:0:0:
256,192,65277,1,8,0:0:0:0:
256,192,65411,1,0,0:0:0:0:
256,192,65677,1,8,0:0:0:0:
256,192,66077,1,8,0:0:0:0:
256,192,66211,1,0,0:0:0:0:
256,192,66344,1,0,0:0:0:0:
256,192,66411,1,0,0:0:0:0:
256,192,66477,1,0,0:0:0:0:
256,192,66611,1,8,0:0:0:0:
256,192,66744,1,0,0:0:0:0:
256,192,66811,1,0,0:0:0:0:
256,192,66877,1,0,0:0:0:0:
256,192,67011,1,8,0:0:0:0:
256,192,67144,1,0,0:0:0:0:
256,192,67411,1,8,0:0:0:0:
256,192,67677,1,0,0:0:0:0:
256,192,67944,1,8,0:0:0:0:
256,192,68077,1,0,0:0:0:0:
256,192,68211,1,8,0:0:0:0:
256,192,68344,1,0,0:0:0:0:
256,192,68477,1,8,0:0:0:0:
256,192,68744,1,8,0:0:0:0:
256,192,69011,1,0,0:0:0:0:
256,192,69077,1,0,0:0:0:0:
256,192,69144,1,0,0:0:0:0:
256,192,69277,1,8,0:0:0:0:
256,192,69411,1,0,0:0:0:0:
256,192,69544,1,8,0:0:0:0:
256,192,69677,1,0,0:0:0:0:
256,192,69944,1,8,0:0:0:0:
256,192,70344,1,8,0:0:0:0:
256,192,70477,1,0,0:0:0:0:
256,192,70544,1,0,0:0:0:0:
256,192,70611,1,0,0:0:0:0:
256,192,70744,1,0,0:0:0:0:
256,192,70877,1,8,0:0:0:0:
256,192,70944,1,8,0:0:0:0:
256,192,71011,1,8,0:0:0:0:
256,192,71144,1,0,0:0:0:0:
256,192,71277,1,0,0:0:0:0:
256,192,71411,1,8,0:0:0:0:
256,192,71677,1,0,0:0:0:0:
256,192,71944,1,0,0:0:0:0:
256,192,72077,1,8,0:0:0:0:
256,192,72144,1,8,0:0:0:0:
256,192,72211,1,8,0:0:0:0:
256,192,72344,1,8,0:0:0:0:
256,192,72477,1,0,0:0:0:0:
256,192,72544,1,0,0:0:0:0:
256,192,72611,1,0,0:0:0:0:
256,192,72744,1,8,0:0:0:0:
256,192,73011,1,8,0:0:0:0:
256,192,73277,1,0,0:0:0:0:
256,192,73344,1,0,0:0:0:0:
256,192,73411,1,0,0:0:0:0:
256,192,73544,1,8,0:0:0:0:
256,192,73677,1,0,0:0:0:0:
256,192,73811,1,8,0:0:0:0:
256,192,73944,1,0,0:0:0:0:
256,192,74211,1,8,0:0:0:0:
256,192,74611,1,8,0:0:0:0:
256,192,74744,1,0,0:0:0:0:
256,192,74877,1,0,0:0:0:0:
256,192,74944,1,0,0:0:0:0:
256,192,75011,1,0,0:0:0:0:
256,192,75144,1,8,0:0:0:0:
256,192,75277,1,0,0:0:0:0:
256,192,75344,1,0,0:0:0:0:
256,192,75411,1,0,0:0:0:0:
256,192,75544,1,8,0:0:0:0:
256,192,75677,1,0,0:0:0:0:
256,192,75944,1,8,0:0:0:0:
256,192,76211,1,0,0:0:0:0:
256,192,76477,1,8,0:0:0:0:
256,192,76611,1,0,0:0:0:0:
256,192,76744,1,8,0:0:0:0:
256,192,76877,1,0,0:0:0:0:
256,192,77011,1,8,0:0:0:0:
256,192,77277,1,8,0:0:0:0:
256,192,77544,1,0,0:0:0:0:
256,192,77611,1,0,0:0:0:0:
256,192,77677,1,0,0:0:0:0:
256,192,77811,1,8,0:0:0:0:
256,192,77944,1,0,0:0:0:0:
256,192,78077,1,8,0:0:0:0:
256,192,78211,1,0,0:0:0:0:
256,192,78477,1,8,0:0:0:0:
256,192,78877,1,8,0:0:0:0:
256,192,79011,1,0,0:0:0:0:
256,192,79077,1,0,0:0:0:0:
256,192,79144,1,0,0:0:0:0:
256,192,79277,1,0,0:0:0:0:
256,192,79411,1,8,0:0:0:0:
256,192,79477,1,8,0:0:0:0:
256,192,79544,1,8,0:0:0:0:
256,192,79677,1,0,0:0:0:0:
256,192,79811,1,0,0:0:0:0:
256,192,79944,1,8,0:0:0:0:
256,192,80077,1,8,0:0:0:0:
256,192,80211,1,0,0:0:0:0:
256,192,80477,1,0,0:0:0:0:
256,192,80611,1,0,0:0:0:0:
256,192,80744,1,8,0:0:0:0:
256,192,80811,1,8,0:0:0:0:
256,192,80877,1,8,0:0:0:0:
256,192,81011,1,8,0:0:0:0:
256,192,81077,1,8,0:0:0:0:
256,192,81144,1,8,0:0:0:0:
256,192,81277,1,4,0:0:0:0:
256,192,81811,1,0,0:0:0:0:
256,192,81944,1,8,0:0:0:0:
256,192,82077,1,0,0:0:0:0:
256,192,82211,1,8,0:0:0:0:
256,192,82344,1,0,0:0:0:0:
256,192,82877,1,0,0:0:0:0:
256,192,83011,1,8,0:0:0:0:
256,192,83144,1,0,0:0:0:0:
256,192,83277,1,0,0:0:0:0:
256,192,83411,1,0,0:0:0:0:
256,192,83944,1,0,0:0:0:0:
256,192,84077,1,8,0:0:0:0:
256,192,84211,1,0,0:0:0:0:
256,192,84344,1,0,0:0:0:0:
256,192,84477,1,8,0:0:0:0:
256,192,85544,1,0,0:0:0:0:
256,192,86077,1,0,0:0:0:0:
256,192,86211,1,8,0:0:0:0:
256,192,86344,1,8,0:0:0:0:
256,192,86477,1,0,0:0:0:0:
256,192,86611,1,0,0:0:0:0:
256,192,87144,1,8,0:0:0:0:
256,192,87277,1,0,0:0:0:0:
256,192,87411,1,0,0:0:0:0:
256,192,87544,1,8,0:0:0:0:
256,192,87677,1,0,0:0:0:0:
256,192,88211,1,8,0:0:0:0:
256,192,88344,1,0,0:0:0:0:
256,192,88477,1,8,0:0:0:0:
256,192,88611,1,0,0:0:0:0:
256,192,88744,1,0,0:0:0:0:
256,192,89277,1,8,0:0:0:0:
256,192,89811,1,0,0:0:0:0:
256,192,90077,1,0,0:0:0:0:
256,192,90344,1,8,0:0:0:0:
256,192,90611,1,0,0:0:0:0:
256,192,90744,1,8,0:0:0:0:
256,192,90877,1,0,0:0:0:0:
256,192,91011,1,8,0:0:0:0:
256,192,91144,1,0,0:0:0:0:
256,192,91277,1,0,0:0:0:0:
256,192,91411,1,8,0:0:0:0:
256,192,91677,1,0,0:0:0:0:
256,192,91811,1,8,0:0:0:0:
256,192,91944,1,0,0:0:0:0:
256,192,92211,1,0,0:0:0:0:
256,192,92477,1,8,0:0:0:0:
256,192,92744,1,0,0:0:0:0:
256,192,92877,1,8,0:0:0:0:
256,192,93011,1,0,0:0:0:0:
256,192,93144,1,8,0:0:0:0:
256,192,93277,1,0,0:0:0:0:
256,192,93411,1,0,0:0:0:0:
256,192,93544,1,8,0:0:0:0:
256,192,93811,1,0,0:0:0:0:
256,192,93944,1,0,0:0:0:0:
256,192,94077,1,8,0:0:0:0:
256,192,94344,1,0,0:0:0:0:
256,192,94611,1,8,0:0:0:0:
256,192,94877,1,0,0:0:0:0:
256,192,95011,1,0,0:0:0:0:
256,192,95144,1,8,0:0:0:0:
256,192,95411,1,0,0:0:0:0:
256,192,95677,1,0,0:0:0:0:
256,192,95944,1,8,0:0:0:0:
256,192,96211,1,8,0:0:0:0:
256,192,96477,1,0,0:0:0:0:
256,192,96611,1,0,0:0:0:0:
256,192,96744,1,8,0:0:0:0:
256,192,97011,1,0,0:0:0:0:
256,192,97144,1,0,0:0:0:0:
256,192,97277,5,12,0:0:0:0:
256,192,97811,2,0,L|317:192,6,33.2499991121292
256,192,98344,1,0,0:0:0:0:
256,192,98477,1,0,0:0:0:0:
256,192,98611,1,8,0:0:0:0:
256,192,98877,1,0,0:0:0:0:
256,192,98944,1,0,0:0:0:0:
256,192,99011,1,0,0:0:0:0:
256,192,99144,1,8,0:0:0:0:
256,192,99277,1,0,0:0:0:0:
256,192,99411,1,8,0:0:0:0:
256,192,99677,1,8,0:0:0:0:
256,192,99944,1,0,0:0:0:0:
256,192,100011,1,0,0:0:0:0:
256,192,100077,1,0,0:0:0:0:
256,192,100211,1,8,0:0:0:0:
256,192,100344,1,8,0:0:0:0:
256,192,100477,1,0,0:0:0:0:
256,192,100544,1,0,0:0:0:0:
256,192,100611,1,0,0:0:0:0:
256,192,100744,1,8,0:0:0:0:
256,192,101011,1,0,0:0:0:0:
256,192,101144,1,8,0:0:0:0:
256,192,101211,1,8,0:0:0:0:
256,192,101277,1,8,0:0:0:0:
256,192,101411,1,8,0:0:0:0:
256,192,101544,1,0,0:0:0:0:
256,192,101677,1,8,0:0:0:0:
256,192,101744,1,8,0:0:0:0:
256,192,101811,1,8,0:0:0:0:
256,192,101944,1,0,0:0:0:0:
256,192,102077,1,0,0:0:0:0:
256,192,102144,1,0,0:0:0:0:
256,192,102211,1,0,0:0:0:0:
256,192,102344,1,8,0:0:0:0:
256,192,102611,1,0,0:0:0:0:
256,192,102877,1,8,0:0:0:0:
256,192,103144,1,0,0:0:0:0:
256,192,103277,1,8,0:0:0:0:
256,192,103411,1,8,0:0:0:0:
256,192,103544,1,8,0:0:0:0:
256,192,103677,1,0,0:0:0:0:
256,192,103744,1,0,0:0:0:0:
256,192,103811,1,0,0:0:0:0:
256,192,104077,1,0,0:0:0:0:
256,192,104211,1,8,0:0:0:0:
256,192,104277,1,8,0:0:0:0:
256,192,104344,1,8,0:0:0:0:
256,192,104477,1,8,0:0:0:0:
256,192,104611,1,0,0:0:0:0:
256,192,104744,1,0,0:0:0:0:
256,192,104811,1,0,0:0:0:0:
256,192,104877,1,0,0:0:0:0:
256,192,105011,1,8,0:0:0:0:
256,192,105277,1,0,0:0:0:0:
256,192,105344,1,0,0:0:0:0:
256,192,105411,1,0,0:0:0:0:
256,192,105544,1,8,0:0:0:0:
256,192,105677,1,0,0:0:0:0:
256,192,105811,1,12,0:0:0:0:
256,192,106077,1,0,0:0:0:0:
256,192,106211,1,12,0:0:0:0:
256,192,106611,1,8,0:0:0:0:
256,192,106677,1,8,0:0:0:0:
256,192,106744,1,8,0:0:0:0:
256,192,106877,1,0,0:0:0:0:
256,192,107144,1,0,0:0:0:0:
256,192,107211,1,0,0:0:0:0:
256,192,107277,1,0,0:0:0:0:
256,192,107411,1,8,0:0:0:0:
256,192,107611,1,8,0:0:0:0:
256,192,107811,1,8,0:0:0:0:
256,192,107944,1,0,0:0:0:0:
256,192,108144,1,8,0:0:0:0:
256,192,108344,1,8,0:0:0:0:
256,192,108477,1,0,0:0:0:0:
256,192,108611,1,0,0:0:0:0:
256,192,108744,1,8,0:0:0:0:
256,192,108877,1,8,0:0:0:0:
256,192,109011,1,0,0:0:0:0:
256,192,109277,1,8,0:0:0:0:
256,192,109344,1,8,0:0:0:0:
256,192,109411,1,8,0:0:0:0:
256,192,109544,1,0,0:0:0:0:
256,192,109677,1,0,0:0:0:0:
256,192,109811,1,8,0:0:0:0:
256,192,109944,1,8,0:0:0:0:
256,192,110077,1,0,0:0:0:0:
256,192,110144,1,0,0:0:0:0:
256,192,110211,1,0,0:0:0:0:
256,192,110344,1,8,0:0:0:0:
256,192,110611,1,0,0:0:0:0:
256,192,110677,1,0,0:0:0:0:
256,192,110744,1,0,0:0:0:0:
256,192,110877,1,0,0:0:0:0:
256,192,111011,1,0,0:0:0:0:
256,192,111144,1,8,0:0:0:0:
256,192,111411,1,0,0:0:0:0:
256,192,111677,1,8,0:0:0:0:
256,192,111811,1,8,0:0:0:0:
256,192,111944,1,0,0:0:0:0:
256,192,112077,1,0,0:0:0:0:
256,192,112211,1,8,0:0:0:0:
256,192,112477,1,0,0:0:0:0:
256,192,112744,1,0,0:0:0:0:
256,192,112877,1,8,0:0:0:0:
256,192,113011,1,8,0:0:0:0:
256,192,113144,1,8,0:0:0:0:
256,192,113277,1,0,0:0:0:0:
256,192,113344,1,0,0:0:0:0:
256,192,113411,1,0,0:0:0:0:
256,192,113544,1,8,0:0:0:0:
256,192,113677,1,8,0:0:0:0:
256,192,113944,1,8,0:0:0:0:
256,192,114077,1,8,0:0:0:0:
256,192,114144,1,8,0:0:0:0:
256,192,114211,1,8,0:0:0:0:
256,192,114344,1,0,0:0:0:0:
256,192,114477,1,8,0:0:0:0:
256,192,114611,1,0,0:0:0:0:
256,192,114677,1,0,0:0:0:0:
256,192,114744,1,0,0:0:0:0:
256,192,114877,1,12,0:0:0:0:
256,192,115410,1,4,0:0:0:0:
256,192,115944,1,0,0:0:0:0:
256,192,116077,1,8,0:0:0:0:
256,192,116211,1,0,0:0:0:0:
256,192,116344,1,8,0:0:0:0:
256,192,116477,1,0,0:0:0:0:
256,192,117011,1,0,0:0:0:0:
256,192,117144,1,8,0:0:0:0:
256,192,117277,1,0,0:0:0:0:
256,192,117411,1,0,0:0:0:0:
256,192,117544,1,0,0:0:0:0:
256,192,118077,1,0,0:0:0:0:
256,192,118211,1,8,0:0:0:0:
256,192,118344,1,0,0:0:0:0:
256,192,118477,1,0,0:0:0:0:
256,192,118611,1,8,0:0:0:0:
256,192,119677,1,0,0:0:0:0:
256,192,119944,1,0,0:0:0:0:
256,192,120211,1,8,0:0:0:0:
256,192,120344,1,0,0:0:0:0:
256,192,120477,1,8,0:0:0:0:
256,192,120611,1,8,0:0:0:0:
256,192,120744,1,8,0:0:0:0:
256,192,121011,1,0,0:0:0:0:
256,192,121277,1,0,0:0:0:0:
256,192,121544,1,8,0:0:0:0:
256,192,121811,1,8,0:0:0:0:
256,192,122077,1,0,0:0:0:0:
256,192,122344,1,8,0:0:0:0:
256,192,122611,1,0,0:0:0:0:
256,192,122877,1,8,0:0:0:0:
256,192,123411,1,8,0:0:0:0:
256,192,123477,1,8,0:0:0:0:
256,192,123544,1,8,0:0:0:0:
256,192,123677,1,8,0:0:0:0:
256,192,123744,1,8,0:0:0:0:
256,192,123811,1,8,0:0:0:0:
256,192,123944,12,0,128211,0:0:0:0:
