osu file format v14

[General]
AudioFilename: audio.mp3
AudioLeadIn: 0
PreviewTime: 98144
Countdown: 0
SampleSet: Normal
StackLeniency: 0.7
Mode: 1
LetterboxInBreaks: 0
WidescreenStoryboard: 0

[Editor]
Bookmarks: 17077,34144,46944,64011,81077,98144,115211
DistanceSpacing: 1.2
BeatDivisor: 2
GridSize: 32
TimelineZoom: 1.8

[Metadata]
Title:DESPERATE DEATHPARADE
TitleUnicode:DESPERATE DEATHPARADE
Artist:69 de 74
ArtistUnicode:69 de 74
Creator:op45667
Version:FUTSUU
Source:BOFU2017 - LEGENDA EST A MYTH -
Tags:MTNTWarz TaikOseania electronic instrumental featured artist fa breakcore speedcore amen break classical renaissance BMS of Fighters Ultimate mappers' mappers guild mpg mg
BeatmapID:3632937
BeatmapSetID:1774311

[Difficulty]
HPDrainRate:7
CircleSize:5
OverallDifficulty:4
ApproachRate:5
SliderMultiplier:1.4
SliderTickRate:1

[Events]
//Background and Video events
0,0,"sample_5068a406d6a2e8af9c184b3b86eccf37f450a9f9_auto_x2.jpg",0,0
//Break Periods
//Storyboard Layer 0 (Background)
//Storyboard Layer 1 (Fail)
//Storyboard Layer 2 (Pass)
//Storyboard Layer 3 (Foreground)
//Storyboard Layer 4 (Overlay)
//Storyboard Sound Samples

[TimingPoints]
211,266.666666666667,4,1,0,80,1,0
211,-111.111111111111,4,1,0,80,0,0
34077,-111.111111111111,4,1,0,90,0,0
34344,266.666666666667,3,1,0,80,1,0
34344,-111.111111111111,4,1,0,80,0,0
47144,266.666666666667,4,1,0,90,1,0
47144,-111.111111111111,4,1,0,90,0,0
64211,-111.111111111111,4,1,0,90,0,0
81277,-111.111111111111,4,1,0,80,0,0
98344,-111.111111111111,4,1,0,100,0,1
115410,-111.111111111111,4,1,0,50,0,0
123411,-111.111111111111,4,1,0,100,0,0

[HitObjects]
144,171,211,5,8,0:0:0:0:
225,115,744,1,0,0:0:0:0:
225,115,877,1,8,0:0:0:0:
225,115,1011,1,8,0:0:0:0:
308,303,1277,1,8,0:0:0:0:
308,303,1811,1,0,0:0:0:0:
225,115,1944,1,8,0:0:0:0:
308,303,2077,1,0,0:0:0:0:
308,303,2344,1,8,0:0:0:0:
308,303,2877,1,8,0:0:0:0:
225,115,3011,1,8,0:0:0:0:
308,303,3144,1,0,0:0:0:0:
308,303,3411,1,0,0:0:0:0:
254,102,4477,1,0,0:0:0:0:
180,121,5011,1,0,0:0:0:0:
180,121,5144,1,8,0:0:0:0:
254,102,5277,1,8,0:0:0:0:
254,102,5544,1,0,0:0:0:0:
254,102,6077,1,8,0:0:0:0:
180,121,6211,1,8,0:0:0:0:
254,102,6344,1,0,0:0:0:0:
254,102,6611,1,0,0:0:0:0:
145,80,7144,1,8,0:0:0:0:
145,80,7277,1,0,0:0:0:0:
123,79,7411,1,8,0:0:0:0:
254,102,7677,1,8,0:0:0:0:
254,102,8211,1,8,0:0:0:0:
254,102,8744,1,0,0:0:0:0:
254,102,9277,1,8,0:0:0:0:
55,175,9411,1,8,0:0:0:0:
176,93,9544,1,0,0:0:0:0:
176,93,9811,1,8,0:0:0:0:
126,172,10344,1,0,0:0:0:0:
126,172,10477,1,8,0:0:0:0:
126,172,10611,1,8,0:0:0:0:
176,93,10877,1,8,0:0:0:0:
195,97,11411,1,8,0:0:0:0:
126,172,11544,1,0,0:0:0:0:
195,97,11677,1,8,0:0:0:0:
195,97,11944,1,0,0:0:0:0:
195,97,13011,1,0,0:0:0:0:
195,97,13277,1,0,0:0:0:0:
195,97,13544,1,8,0:0:0:0:
126,172,13677,1,8,0:0:0:0:
195,97,13811,1,0,0:0:0:0:
195,97,14077,1,8,0:0:0:0:
126,172,14344,1,0,0:0:0:0:
84,66,14611,1,0,0:0:0:0:
195,97,14877,1,0,0:0:0:0:
195,97,15144,1,8,0:0:0:0:
126,172,15411,1,0,0:0:0:0:
84,66,15677,1,8,0:0:0:0:
84,66,15944,1,0,0:0:0:0:
84,66,16211,1,8,0:0:0:0:
257,283,16744,1,0,0:0:0:0:
257,283,16877,1,0,0:0:0:0:
223,240,17011,1,8,0:0:0:0:
208,210,17277,1,4,0:0:0:0:
361,86,17477,1,12,0:0:0:0:
281,122,17677,1,4,0:0:0:0:
361,86,17944,1,4,0:0:0:0:
281,122,18077,1,12,0:0:0:0:
255,88,18211,1,4,0:0:0:0:
366,138,18611,1,8,0:0:0:0:
328,233,18744,1,0,0:0:0:0:
343,197,19011,1,0,0:0:0:0:
366,138,19144,1,8,0:0:0:0:
281,122,19677,1,4,0:0:0:0:
151,114,19944,1,12,0:0:0:0:
188,142,20144,1,4,0:0:0:0:
301,140,20344,1,12,0:0:0:0:
339,257,20611,1,0,0:0:0:0:
261,102,20744,1,8,0:0:0:0:
182,12,21011,1,0,0:0:0:0:
182,12,21144,1,8,0:0:0:0:
311,144,21277,1,0,0:0:0:0:
455,283,21544,1,12,0:0:0:0:
246,78,21744,1,4,0:0:0:0:
293,44,21944,1,12,0:0:0:0:
332,115,22211,1,4,0:0:0:0:
293,44,22344,1,12,0:0:0:0:
246,83,22477,1,4,0:0:0:0:
420,278,22877,1,8,0:0:0:0:
420,278,23011,1,0,0:0:0:0:
420,278,23277,1,0,0:0:0:0:
420,278,23411,1,8,0:0:0:0:
397,173,23944,1,12,0:0:0:0:
277,247,24211,1,4,0:0:0:0:
319,101,24411,1,12,0:0:0:0:
277,247,24611,1,12,0:0:0:0:
225,280,24877,1,0,0:0:0:0:
225,280,25011,1,8,0:0:0:0:
225,280,25277,1,8,0:0:0:0:
225,280,25411,1,0,0:0:0:0:
330,246,25544,1,8,0:0:0:0:
330,246,25811,1,4,0:0:0:0:
246,122,26011,1,12,0:0:0:0:
330,246,26211,1,4,0:0:0:0:
245,85,26477,1,0,0:0:0:0:
194,32,26611,1,8,0:0:0:0:
245,85,26877,1,4,0:0:0:0:
124,44,27077,1,12,0:0:0:0:
124,44,27277,1,12,0:0:0:0:
124,44,27544,1,0,0:0:0:0:
124,44,27677,1,8,0:0:0:0:
332,109,27944,1,4,0:0:0:0:
124,44,28144,1,12,0:0:0:0:
124,44,28344,1,4,0:0:0:0:
109,67,28611,1,8,0:0:0:0:
124,44,28744,1,0,0:0:0:0:
109,67,29011,1,4,0:0:0:0:
124,44,29211,1,12,0:0:0:0:
109,67,29411,1,4,0:0:0:0:
109,67,29677,1,8,0:0:0:0:
124,44,29811,1,0,0:0:0:0:
109,67,30077,1,12,0:0:0:0:
366,255,30611,1,12,0:0:0:0:
185,82,30877,1,12,0:0:0:0:
452,266,31144,1,4,0:0:0:0:
195,117,31411,1,4,0:0:0:0:
341,79,31677,1,12,0:0:0:0:
185,82,31944,1,4,0:0:0:0:
341,79,32211,1,12,0:0:0:0:
341,79,32411,1,4,0:0:0:0:
341,79,32611,1,12,0:0:0:0:
240,75,32877,1,4,0:0:0:0:
240,75,33011,1,12,0:0:0:0:
341,79,33144,1,4,0:0:0:0:
286,82,34077,1,8,0:0:0:0:
286,82,34344,1,4,0:0:0:0:
381,117,34611,1,8,0:0:0:0:
381,117,34744,1,0,0:0:0:0:
96,340,34877,1,8,0:0:0:0:
310,217,35144,1,8,0:0:0:0:
96,340,35411,1,0,0:0:0:0:
381,182,35544,1,8,0:0:0:0:
272,112,35677,1,0,0:0:0:0:
179,102,35944,1,8,0:0:0:0:
252,229,36211,1,0,0:0:0:0:
310,217,36477,1,8,0:0:0:0:
401,309,36611,1,8,0:0:0:0:
172,233,36744,1,0,0:0:0:0:
252,229,37277,1,0,0:0:0:0:
252,229,37411,1,0,0:0:0:0:
290,90,37544,1,8,0:0:0:0:
163,202,37811,1,0,0:0:0:0:
163,202,38077,1,8,0:0:0:0:
192,99,38344,1,0,0:0:0:0:
192,99,38611,1,8,0:0:0:0:
227,67,38877,1,8,0:0:0:0:
227,67,39011,1,0,0:0:0:0:
290,90,39144,1,8,0:0:0:0:
72,58,39411,1,8,0:0:0:0:
290,90,39677,1,0,0:0:0:0:
228,101,39811,1,0,0:0:0:0:
290,90,39944,1,8,0:0:0:0:
102,111,40477,1,8,0:0:0:0:
102,111,40611,1,8,0:0:0:0:
232,91,40744,1,0,0:0:0:0:
254,55,41011,1,8,0:0:0:0:
228,101,41277,1,0,0:0:0:0:
228,101,41411,1,8,0:0:0:0:
235,177,41677,1,0,0:0:0:0:
277,295,41811,1,8,0:0:0:0:
245,51,41944,1,0,0:0:0:0:
141,57,42077,1,8,0:0:0:0:
277,295,42344,1,0,0:0:0:0:
245,51,42477,1,0,0:0:0:0:
141,57,42611,1,8,0:0:0:0:
235,56,42877,1,0,0:0:0:0:
245,51,43011,1,8,0:0:0:0:
221,65,43144,1,0,0:0:0:0:
245,51,43677,1,8,0:0:0:0:
141,57,43944,1,0,0:0:0:0:
141,57,44211,1,8,0:0:0:0:
245,51,44344,1,0,0:0:0:0:
245,51,44611,1,8,0:0:0:0:
324,89,44744,1,0,0:0:0:0:
141,57,45011,1,0,0:0:0:0:
245,51,45144,1,0,0:0:0:0:
174,33,45277,1,8,0:0:0:0:
245,51,45544,1,8,0:0:0:0:
245,51,45677,1,0,0:0:0:0:
185,95,45811,1,0,0:0:0:0:
143,61,45944,1,0,0:0:0:0:
143,61,46077,1,8,0:0:0:0:
174,33,46344,1,4,0:0:0:0:
175,113,46611,1,4,0:0:0:0:
248,62,46877,1,12,0:0:0:0:
174,33,47144,1,4,0:0:0:0:
370,300,47411,1,8,0:0:0:0:
215,264,47544,1,0,0:0:0:0:
215,264,47811,1,0,0:0:0:0:
370,300,47944,1,8,0:0:0:0:
215,264,48077,1,8,0:0:0:0:
370,300,48211,1,0,0:0:0:0:
370,300,48477,1,8,0:0:0:0:
215,264,48611,1,0,0:0:0:0:
173,224,49277,1,0,0:0:0:0:
173,224,49544,1,8,0:0:0:0:
215,264,49677,1,0,0:0:0:0:
215,264,49944,1,8,0:0:0:0:
173,224,50077,1,8,0:0:0:0:
215,264,50211,1,8,0:0:0:0:
173,224,50344,1,0,0:0:0:0:
175,80,50611,1,0,0:0:0:0:
215,264,50744,1,8,0:0:0:0:
173,224,51411,1,0,0:0:0:0:
205,83,51677,1,0,0:0:0:0:
205,83,51811,1,8,0:0:0:0:
187,132,52077,1,8,0:0:0:0:
415,155,52211,1,8,0:0:0:0:
187,132,52344,1,0,0:0:0:0:
228,162,52477,1,0,0:0:0:0:
253,286,52744,1,8,0:0:0:0:
187,132,52877,1,0,0:0:0:0:
225,73,53544,1,0,0:0:0:0:
225,73,53811,1,0,0:0:0:0:
126,104,53944,1,8,0:0:0:0:
126,104,54211,1,0,0:0:0:0:
126,104,54344,1,8,0:0:0:0:
126,104,54611,1,0,0:0:0:0:
126,104,54744,1,8,0:0:0:0:
126,104,54877,1,0,0:0:0:0:
126,104,55011,1,0,0:0:0:0:
126,104,55144,1,8,0:0:0:0:
225,73,55411,1,8,0:0:0:0:
126,104,55544,1,8,0:0:0:0:
174,33,55677,1,4,0:0:0:0:
370,300,55944,1,8,0:0:0:0:
215,264,56077,1,0,0:0:0:0:
215,264,56344,1,0,0:0:0:0:
370,300,56477,1,8,0:0:0:0:
215,264,56610,1,8,0:0:0:0:
370,300,56744,1,0,0:0:0:0:
370,300,57010,1,8,0:0:0:0:
215,264,57144,1,0,0:0:0:0:
173,224,57810,1,0,0:0:0:0:
173,224,58077,1,8,0:0:0:0:
215,264,58210,1,0,0:0:0:0:
215,264,58477,1,8,0:0:0:0:
173,224,58610,1,8,0:0:0:0:
161,56,58744,1,0,0:0:0:0:
173,224,58877,1,0,0:0:0:0:
175,80,59144,1,0,0:0:0:0:
215,264,59277,1,8,0:0:0:0:
173,224,59944,1,12,0:0:0:0:
225,73,60210,1,8,0:0:0:0:
187,132,60344,1,0,0:0:0:0:
187,132,60610,1,8,0:0:0:0:
415,155,60744,1,8,0:0:0:0:
187,132,60877,1,8,0:0:0:0:
228,162,61011,1,4,0:0:0:0:
253,286,61277,1,8,0:0:0:0:
187,132,61410,1,0,0:0:0:0:
225,73,62077,1,4,0:0:0:0:
225,73,62344,1,8,0:0:0:0:
126,104,62477,1,0,0:0:0:0:
225,73,62610,1,8,0:0:0:0:
126,104,62744,1,0,0:0:0:0:
126,104,62877,1,8,0:0:0:0:
126,104,63144,1,4,0:0:0:0:
126,104,63277,1,8,0:0:0:0:
126,104,63410,1,8,0:0:0:0:
126,104,63544,1,0,0:0:0:0:
126,104,63677,1,12,0:0:0:0:
225,73,63944,1,8,0:0:0:0:
126,104,64077,1,8,0:0:0:0:
174,33,64210,1,4,0:0:0:0:
225,324,64477,1,8,0:0:0:0:
225,324,64744,1,0,0:0:0:0:
225,324,64877,1,0,0:0:0:0:
225,324,65011,1,8,0:0:0:0:
225,324,65277,1,12,0:0:0:0:
225,324,65411,1,0,0:0:0:0:
330,151,65544,1,8,0:0:0:0:
225,324,65677,1,4,0:0:0:0:
206,83,66344,1,4,0:0:0:0:
261,130,66611,1,8,0:0:0:0:
261,130,66744,1,0,0:0:0:0:
261,130,66877,1,8,0:0:0:0:
261,130,67011,1,8,0:0:0:0:
261,130,67277,1,8,0:0:0:0:
261,130,67411,1,4,0:0:0:0:
261,130,67677,1,4,0:0:0:0:
261,130,67944,1,12,0:0:0:0:
261,130,68211,1,12,0:0:0:0:
279,191,68344,1,8,0:0:0:0:
174,33,68477,1,4,0:0:0:0:
225,324,68744,1,8,0:0:0:0:
225,324,69011,1,0,0:0:0:0:
225,324,69144,1,0,0:0:0:0:
225,324,69278,1,8,0:0:0:0:
225,324,69544,1,4,0:0:0:0:
225,324,69678,1,8,0:0:0:0:
421,303,69811,1,8,0:0:0:0:
225,324,69944,1,4,0:0:0:0:
244,75,70611,1,4,0:0:0:0:
244,75,70877,1,8,0:0:0:0:
244,75,71011,1,8,0:0:0:0:
244,75,71144,1,0,0:0:0:0:
244,75,71277,1,8,0:0:0:0:
244,75,71411,1,0,0:0:0:0:
244,75,71677,1,4,0:0:0:0:
244,75,71944,1,8,0:0:0:0:
244,75,72077,1,0,0:0:0:0:
244,75,72211,1,8,0:0:0:0:
244,75,72344,1,8,0:0:0:0:
244,75,72477,1,0,0:0:0:0:
174,33,72744,1,4,0:0:0:0:
225,324,73011,1,8,0:0:0:0:
225,324,73278,1,0,0:0:0:0:
225,324,73411,1,0,0:0:0:0:
225,324,73545,1,8,0:0:0:0:
225,324,73811,1,12,0:0:0:0:
225,324,73945,1,0,0:0:0:0:
330,151,74078,1,8,0:0:0:0:
225,324,74211,1,4,0:0:0:0:
206,83,74878,1,4,0:0:0:0:
261,130,75145,1,8,0:0:0:0:
261,130,75278,1,0,0:0:0:0:
261,130,75411,1,8,0:0:0:0:
261,130,75545,1,8,0:0:0:0:
261,130,75811,1,8,0:0:0:0:
261,130,75945,1,4,0:0:0:0:
261,130,76211,1,4,0:0:0:0:
261,130,76478,1,12,0:0:0:0:
261,130,76745,1,12,0:0:0:0:
279,191,76878,1,8,0:0:0:0:
174,33,77011,1,4,0:0:0:0:
225,324,77278,1,8,0:0:0:0:
225,324,77545,1,0,0:0:0:0:
225,324,77678,1,0,0:0:0:0:
225,324,77810,1,8,0:0:0:0:
225,324,78077,1,4,0:0:0:0:
225,324,78210,1,8,0:0:0:0:
421,303,78345,1,0,0:0:0:0:
225,324,78478,1,12,0:0:0:0:
395,325,79144,1,0,0:0:0:0:
395,325,79277,1,0,0:0:0:0:
395,325,79411,1,8,0:0:0:0:
395,325,79544,1,0,0:0:0:0:
395,325,79677,1,8,0:0:0:0:
395,325,79811,1,8,0:0:0:0:
395,325,79944,1,0,0:0:0:0:
395,325,80211,1,8,0:0:0:0:
395,325,80477,1,8,0:0:0:0:
395,325,80611,1,8,0:0:0:0:
395,325,80744,1,8,0:0:0:0:
395,325,80877,1,8,0:0:0:0:
210,91,81011,1,8,0:0:0:0:
210,91,81144,1,8,0:0:0:0:
144,171,81277,1,4,0:0:0:0:
225,115,81810,1,0,0:0:0:0:
225,115,81943,1,8,0:0:0:0:
225,115,82077,1,8,0:0:0:0:
308,303,82343,1,8,0:0:0:0:
308,303,82877,1,0,0:0:0:0:
225,115,83010,1,8,0:0:0:0:
308,303,83143,1,0,0:0:0:0:
308,303,83410,1,8,0:0:0:0:
308,303,83943,1,8,0:0:0:0:
225,115,84077,1,8,0:0:0:0:
308,303,84210,1,0,0:0:0:0:
308,303,84477,1,0,0:0:0:0:
254,102,85543,1,0,0:0:0:0:
180,121,86077,1,0,0:0:0:0:
180,121,86210,1,8,0:0:0:0:
254,102,86343,1,8,0:0:0:0:
254,102,86610,1,0,0:0:0:0:
254,102,87143,1,8,0:0:0:0:
180,121,87277,1,8,0:0:0:0:
254,102,87410,1,0,0:0:0:0:
254,102,87677,1,0,0:0:0:0:
145,80,88210,1,8,0:0:0:0:
145,80,88343,1,0,0:0:0:0:
123,79,88477,1,8,0:0:0:0:
254,102,88743,1,8,0:0:0:0:
254,102,89277,1,8,0:0:0:0:
254,102,89810,1,4,0:0:0:0:
272,225,90077,1,0,0:0:0:0:
254,102,90343,1,8,0:0:0:0:
55,175,90477,1,8,0:0:0:0:
176,93,90610,1,0,0:0:0:0:
176,93,90877,1,8,0:0:0:0:
272,225,91011,1,8,0:0:0:0:
272,225,91144,1,0,0:0:0:0:
272,225,91277,1,0,0:0:0:0:
272,225,91411,1,8,0:0:0:0:
194,204,91944,1,0,0:0:0:0:
194,204,92211,1,0,0:0:0:0:
194,204,92477,1,8,0:0:0:0:
155,175,92611,1,0,0:0:0:0:
155,175,92744,1,8,0:0:0:0:
155,175,93011,1,0,0:0:0:0:
155,175,93144,1,8,0:0:0:0:
155,175,93277,1,0,0:0:0:0:
155,175,93411,1,0,0:0:0:0:
155,175,93544,1,8,0:0:0:0:
155,175,94077,1,4,0:0:0:0:
214,117,94344,1,0,0:0:0:0:
214,117,94611,1,8,0:0:0:0:
214,117,94744,1,0,0:0:0:0:
214,117,94877,1,8,0:0:0:0:
214,117,95011,1,8,0:0:0:0:
214,117,95144,1,4,0:0:0:0:
214,117,95411,1,0,0:0:0:0:
214,117,95677,1,8,0:0:0:0:
214,117,95944,1,8,0:0:0:0:
214,117,96211,1,12,0:0:0:0:
214,117,96477,1,0,0:0:0:0:
214,117,96611,1,0,0:0:0:0:
214,117,96744,1,12,0:0:0:0:
214,117,97011,1,0,0:0:0:0:
214,117,97277,1,12,0:0:0:0:
214,117,97811,1,8,0:0:0:0:
214,117,97944,1,0,0:0:0:0:
214,117,98077,1,8,0:0:0:0:
206,115,98211,1,8,0:0:0:0:
214,117,98344,1,4,0:0:0:0:
309,203,98611,1,8,0:0:0:0:
325,300,98877,1,0,0:0:0:0:
325,300,99011,1,8,0:0:0:0:
325,300,99144,1,8,0:0:0:0:
325,300,99277,1,8,0:0:0:0:
325,300,99411,1,0,0:0:0:0:
325,300,99677,1,8,0:0:0:0:
193,130,99811,1,0,0:0:0:0:
128,238,100077,1,8,0:0:0:0:
128,238,100211,1,0,0:0:0:0:
128,238,100344,1,0,0:0:0:0:
128,238,100477,1,8,0:0:0:0:
265,80,100744,1,8,0:0:0:0:
265,80,101011,1,0,0:0:0:0:
265,80,101144,1,8,0:0:0:0:
128,238,101277,1,0,0:0:0:0:
128,238,101411,1,8,0:0:0:0:
128,238,101544,1,0,0:0:0:0:
221,44,102077,1,8,0:0:0:0:
130,172,102211,1,0,0:0:0:0:
130,172,102344,1,8,0:0:0:0:
130,172,102477,1,8,0:0:0:0:
130,172,102611,1,4,0:0:0:0:
130,299,102877,1,8,0:0:0:0:
130,299,103144,1,8,0:0:0:0:
130,299,103277,1,8,0:0:0:0:
130,299,103411,1,0,0:0:0:0:
130,299,103544,1,8,0:0:0:0:
44,224,103677,1,0,0:0:0:0:
44,224,103944,1,8,0:0:0:0:
44,224,104077,1,0,0:0:0:0:
44,224,104344,1,0,0:0:0:0:
117,197,104477,1,8,0:0:0:0:
217,101,104611,1,8,0:0:0:0:
217,101,104744,1,0,0:0:0:0:
239,46,105277,1,0,0:0:0:0:
217,95,105411,1,0,0:0:0:0:
217,95,105544,1,8,0:0:0:0:
217,95,105677,1,0,0:0:0:0:
217,95,105811,1,12,0:0:0:0:
217,95,106077,1,0,0:0:0:0:
217,95,106211,1,12,0:0:0:0:
193,80,106477,1,0,0:0:0:0:
193,80,106611,1,12,0:0:0:0:
193,80,106877,1,4,0:0:0:0:
170,227,107144,1,8,0:0:0:0:
272,97,107277,1,0,0:0:0:0:
272,97,107411,1,12,0:0:0:0:
223,144,107611,1,12,0:0:0:0:
223,144,107811,1,4,0:0:0:0:
223,144,107944,1,12,0:0:0:0:
229,146,108144,1,4,0:0:0:0:
229,146,108344,1,12,0:0:0:0:
229,146,108611,1,4,0:0:0:0:
229,146,108877,1,12,0:0:0:0:
229,146,109011,1,4,0:0:0:0:
252,128,109544,1,8,0:0:0:0:
337,244,109677,1,0,0:0:0:0:
337,244,109811,1,8,0:0:0:0:
337,244,110077,1,0,0:0:0:0:
337,244,110211,1,8,0:0:0:0:
337,244,110344,1,8,0:0:0:0:
337,244,110477,1,0,0:0:0:0:
252,128,110744,1,8,0:0:0:0:
337,244,110877,1,8,0:0:0:0:
337,244,111011,1,8,0:0:0:0:
337,244,111144,1,4,0:0:0:0:
337,244,111411,1,8,0:0:0:0:
337,244,111677,1,0,0:0:0:0:
337,244,111811,1,8,0:0:0:0:
337,244,111944,1,8,0:0:0:0:
337,244,112077,1,0,0:0:0:0:
337,244,112211,1,12,0:0:0:0:
337,244,112477,1,8,0:0:0:0:
337,244,112611,1,0,0:0:0:0:
337,244,112877,1,0,0:0:0:0:
337,244,113011,1,8,0:0:0:0:
337,244,113144,1,0,0:0:0:0:
337,244,113277,1,12,0:0:0:0:
337,244,113544,1,8,0:0:0:0:
337,244,113677,1,0,0:0:0:0:
337,244,113944,1,8,0:0:0:0:
193,217,114077,1,0,0:0:0:0:
193,217,114211,1,8,0:0:0:0:
193,217,114344,1,4,0:0:0:0:
289,164,114611,1,12,0:0:0:0:
289,164,114877,1,4,0:0:0:0:
144,171,115410,1,8,0:0:0:0:
225,115,115944,1,0,0:0:0:0:
225,115,116077,1,8,0:0:0:0:
225,115,116211,1,8,0:0:0:0:
308,303,116477,1,8,0:0:0:0:
308,303,117011,1,0,0:0:0:0:
225,115,117144,1,8,0:0:0:0:
308,303,117277,1,0,0:0:0:0:
308,303,117544,1,8,0:0:0:0:
308,303,118077,1,8,0:0:0:0:
225,115,118211,1,8,0:0:0:0:
308,303,118344,1,0,0:0:0:0:
308,303,118611,1,0,0:0:0:0:
245,245,119677,1,8,0:0:0:0:
245,245,119944,1,0,0:0:0:0:
180,121,120211,1,0,0:0:0:0:
180,121,120344,1,8,0:0:0:0:
254,102,120477,1,8,0:0:0:0:
215,203,120744,1,8,0:0:0:0:
187,272,121011,1,0,0:0:0:0:
254,102,121277,1,8,0:0:0:0:
215,203,121411,1,0,0:0:0:0:
215,203,121544,1,8,0:0:0:0:
254,102,121811,1,0,0:0:0:0:
187,272,122077,1,8,0:0:0:0:
145,80,122344,1,8,0:0:0:0:
179,177,122477,1,8,0:0:0:0:
179,177,122611,1,0,0:0:0:0:
254,102,122877,1,8,0:0:0:0:
254,102,123411,1,8,0:0:0:0:
187,272,123544,1,8,0:0:0:0:
187,272,123677,1,8,0:0:0:0:
187,272,123811,1,8,0:0:0:0:
254,102,123944,1,4,0:0:0:0:
