osu file format v14

[General]
AudioFilename: audio.mp3
AudioLeadIn: 0
PreviewTime: 98144
Countdown: 0
SampleSet: Normal
StackLeniency: 0.7
Mode: 1
LetterboxInBreaks: 0
WidescreenStoryboard: 1

[Editor]
Bookmarks: 17077,34144,46944,64011,81077,98144,115211
DistanceSpacing: 1.2
BeatDivisor: 4
GridSize: 32
TimelineZoom: 1.8

[Metadata]
Title:DESPERATE DEATHPARADE
TitleUnicode:DESPERATE DEATHPARADE
Artist:69 de 74
ArtistUnicode:69 de 74
Creator:op45667
Version:DESPERATION
Source:BOFU2017 - LEGENDA EST A MYTH -
Tags:MTNTWarz TaikOseania electronic instrumental featured artist fa breakcore speedcore amen break classical renaissance BMS of Fighters Ultimate mappers' mappers guild mpg mg
BeatmapID:3641070
BeatmapSetID:1774311

[Difficulty]
HPDrainRate:6
CircleSize:5
OverallDifficulty:6.5
ApproachRate:5
SliderMultiplier:1.4
SliderTickRate:1

[Events]
//Background and Video events
0,0,"sample_5068a406d6a2e8af9c184b3b86eccf37f450a9f9_auto_x2.jpg",0,0
//Break Periods
//Storyboard Layer 0 (Background)
//Storyboard Layer 1 (Fail)
//Storyboard Layer 2 (Pass)
//Storyboard Layer 3 (Foreground)
//Storyboard Layer 4 (Overlay)
//Storyboard Sound Samples

[TimingPoints]
211,266.666666666667,4,1,0,80,1,0
211,-105.263157894737,4,1,0,80,0,0
3647,-108.695652173913,4,1,0,70,0,0
3914,-112.359550561798,4,1,0,60,0,0
4181,-117.647058823529,4,1,0,50,0,0
4447,-105.263157894737,4,1,0,80,0,0
8191,-86.9565217391304,4,1,0,90,0,0
8744,-105.263157894737,4,1,0,80,0,0
12181,-108.695652173913,4,1,0,70,0,0
12447,-112.359550561798,4,1,0,60,0,0
12714,-117.647058823529,4,1,0,50,0,0
12981,-105.263157894737,4,1,0,80,0,0
16477,-112.359550561798,4,1,0,30,0,0
16744,-133.333333333333,4,1,0,80,0,0
16811,-125.984251968504,4,1,0,80,0,0
16877,-119.402985074627,4,1,0,80,0,0
16944,-113.475177304965,4,1,0,80,0,0
17011,-108.108108108108,4,1,0,80,0,0
17077,-103.225806451613,4,1,0,80,0,0
17144,-98.7654320987654,4,1,0,80,0,0
17211,-94.6745562130178,4,1,0,80,0,0
17277,-80,4,1,0,90,0,0
18344,-105.263157894737,4,1,0,90,0,0
18411,-104.399390307561,4,1,0,90,0,0
18477,-103.549575912712,4,1,0,90,0,0
18544,-102.713590343279,4,1,0,90,0,0
18611,-101.890994975755,4,1,0,90,0,0
18677,-101.081470654533,4,1,0,90,0,0
18744,-100.2846077167,4,1,0,90,0,0
18811,-99.5003094459624,4,1,0,90,0,0
18877,-98.7281835396423,4,1,0,90,0,0
18944,-97.9679488058687,4,1,0,90,0,0
19011,-97.2192381317185,4,1,0,90,0,0
19077,-96.4819776489851,4,1,0,90,0,0
19144,-95.7558150112561,4,1,0,90,0,0
19277,-94.3357068197169,4,1,0,90,0,0
19344,-93.6413760038356,4,1,0,90,0,0
19411,-92.9571913542376,4,1,0,90,0,0
19477,-92.2829320871446,4,1,0,90,0,0
19544,-91.6182998392099,4,1,0,90,0,0
19611,-90.963255392984,4,1,0,90,0,0
19677,-80,4,1,0,90,0,0
20477,-105.263157894737,4,1,0,90,0,0
20544,-104.172634890541,4,1,0,90,0,0
20611,-103.104475765293,4,1,0,90,0,0
20677,-102.05810371961,4,1,0,90,0,0
20744,-101.032654764346,4,1,0,90,0,0
20811,-100.027607619703,4,1,0,90,0,0
20877,-99.0423594267032,4,1,0,90,0,0
20944,-98.0764270365325,4,1,0,90,0,0
21011,-97.1290592662094,4,1,0,90,0,0
21077,-96.1998185671422,4,1,0,90,0,0
21144,-95.2881896006281,4,1,0,90,0,0
21277,-93.5158888170895,4,1,0,90,0,0
21344,-92.6541904710724,4,1,0,90,0,0
21411,-91.8082273024815,4,1,0,90,0,0
21477,-90.9776549781608,4,1,0,90,0,0
21544,-80,4,1,0,90,0,0
22611,-105.263157894737,4,1,0,90,0,0
22677,-104.395575715501,4,1,0,90,0,0
22744,-103.542285116107,4,1,0,90,0,0
22811,-102.702724908697,4,1,0,90,0,0
22877,-101.876670140661,4,1,0,90,0,0
22944,-101.063797532831,4,1,0,90,0,0
23011,-100.26389457051,4,1,0,90,0,0
23077,-99.4764554151501,4,1,0,90,0,0
23144,-98.7012884466194,4,1,0,90,0,0
23211,-97.938108991404,4,1,0,90,0,0
23277,-97.1867355655831,4,1,0,90,0,0
23344,-96.4467102991584,4,1,0,90,0,0
23411,-95.7178696648056,4,1,0,90,0,0
23544,-94.2928320474934,4,1,0,90,0,0
23611,-93.596063723944,4,1,0,90,0,0
23677,-92.909517279312,4,1,0,90,0,0
23744,-92.2329694127803,4,1,0,90,0,0
23811,-91.5662871244065,4,1,0,90,0,0
23877,-90.9090909090909,4,1,0,90,0,0
23944,-80,4,1,0,90,0,0
24744,-105.263157894737,4,1,0,90,0,0
24811,-104.172634890541,4,1,0,90,0,0
24877,-103.104475765293,4,1,0,90,0,0
24944,-102.05810371961,4,1,0,90,0,0
25011,-101.032654764346,4,1,0,90,0,0
25077,-100.027607619703,4,1,0,90,0,0
25144,-99.0423594267032,4,1,0,90,0,0
25211,-98.0764270365325,4,1,0,90,0,0
25277,-97.1290592662094,4,1,0,90,0,0
25344,-96.1998185671422,4,1,0,90,0,0
25411,-95.2881896006281,4,1,0,90,0,0
25544,-93.5158888170895,4,1,0,90,0,0
25611,-92.6541904710724,4,1,0,90,0,0
25677,-91.8082273024815,4,1,0,90,0,0
25744,-90.9776549781608,4,1,0,90,0,0
25811,-80,4,1,0,90,0,0
33144,-80,4,1,0,90,0,0
33188,-80.7141588777503,4,1,0,90,0,0
33233,-81.4411831775092,4,1,0,90,0,0
33277,-82.1814237109844,4,1,0,90,0,0
33344,-83.3173641718671,4,1,0,90,0,0
33411,-84.4850761337264,4,1,0,90,0,0
33477,-85.6860582785157,4,1,0,90,0,0
33544,-86.9216774840694,4,1,0,90,0,0
33611,-88.1934541054494,4,1,0,90,0,0
33677,-89.5029987979747,4,1,0,90,0,0
33744,-90.8520193224075,4,1,0,90,0,0
33811,-92.2423279749765,4,1,0,90,0,0
33877,-93.6757619586478,4,1,0,90,0,0
33944,-95.1545404892085,4,1,0,90,0,0
34011,-96.6807562755479,4,1,0,90,0,0
34077,-98.2567291120933,4,1,0,90,0,0
34344,266.666666666667,3,1,0,80,1,0
34344,-105.110250141373,4,1,0,80,0,0
40477,-105.263157894737,4,1,0,80,0,0
40544,-105.199595191958,4,1,0,80,0,0
40611,-105.136109206979,4,1,0,80,0,0
40677,-105.072699800992,4,1,0,80,0,0
40744,-105.009256565966,4,1,0,80,0,0
40877,-104.882819669724,4,1,0,80,0,0
41011,-104.756686881215,4,1,0,80,0,0
41144,-104.630747628544,4,1,0,80,0,0
41211,-104.567946160056,4,1,0,80,0,0
41277,-104.505220035741,4,1,0,80,0,0
41411,-104.379993277928,4,1,0,80,0,0
41544,-104.254957583871,4,1,0,80,0,0
41677,-104.130329520428,4,1,0,80,0,0
41811,-104.005999066026,4,1,0,80,0,0
41877,-103.943945109281,4,1,0,80,0,0
41944,-103.881857241397,4,1,0,80,0,0
42011,-103.819951287679,4,1,0,80,0,0
42077,-103.758119072817,4,1,0,80,0,0
42211,-103.634675333289,4,1,0,80,0,0
42344,-103.511417826943,4,1,0,80,0,0
42411,-103.449952464747,4,1,0,80,0,0
42477,-103.38856005583,4,1,0,80,0,0
42611,-103.265993578921,4,1,0,80,0,0
42744,-103.143610975305,4,1,0,80,0,0
42811,-103.082581517705,4,1,0,80,0,0
42877,-103.021624238928,4,1,0,80,0,0
43011,-102.899925706254,4,1,0,80,0,0
43144,-102.778408723009,4,1,0,80,0,0
43277,-102.657283790928,4,1,0,80,0,0
43411,-102.536444015614,4,1,0,80,0,0
43544,-102.415888391261,4,1,0,80,0,0
43677,-102.295511272965,4,1,0,80,0,0
43744,-102.235481028162,4,1,0,80,0,0
43811,-102.175521197334,4,1,0,80,0,0
43877,-102.115631656663,4,1,0,80,0,0
43944,-102.055812282621,4,1,0,80,0,0
44011,-101.995958920108,4,1,0,80,0,0
44077,-101.936279631602,4,1,0,80,0,0
44211,-101.817130324909,4,1,0,80,0,0
44344,-101.698259230897,4,1,0,80,0,0
44411,-101.638824404701,4,1,0,80,0,0
44477,-101.579562192087,4,1,0,80,0,0
44611,-101.461244848305,4,1,0,80,0,0
44744,-101.343202810044,4,1,0,80,0,0
44877,-101.225332651749,4,1,0,80,0,0
45011,-101.107838587402,4,1,0,80,0,0
45077,-101.049193779007,4,1,0,80,0,0
45144,-100.990616961778,4,1,0,80,0,0
45277,-100.873565073537,4,1,0,80,0,0
45411,-100.75688572557,4,1,0,80,0,0
45544,-100.640475989195,4,1,0,80,0,0
45611,-100.582270765461,4,1,0,80,0,0
45677,-100.524233879683,4,1,0,80,0,0
45811,-100.408360803387,4,1,0,80,0,0
45944,-100.292754550533,4,1,0,80,0,0
46011,-100.234950724498,4,1,0,80,0,0
46077,-100.177313845507,4,1,0,80,0,0
46144,-100.119743212883,4,1,0,80,0,0
46211,-100.062238712479,4,1,0,80,0,0
46277,-100.004800230411,4,1,0,80,0,0
46344,-80,4,1,0,80,0,0
47009,-95.2380952380952,4,1,0,80,0,0
47075,-93.0232558139535,4,1,0,80,0,0
47144,266.666666666667,4,1,0,90,1,0
47144,-90.9090909090909,4,1,0,90,0,0
59944,-90.9090909090909,4,1,0,90,0,0
60077,-90.7617268689201,4,1,0,90,0,0
60210,-90.6149219216525,4,1,0,90,0,0
60344,-90.4685092689511,4,1,0,90,0,0
60410,-90.3954802259887,4,1,0,90,0,0
60477,-90.3225689906363,4,1,0,90,0,0
60544,-90.2497752780596,4,1,0,90,0,0
60610,-90.1770988043418,4,1,0,90,0,0
60677,-90.1046204748333,4,1,0,90,0,0
60744,-90.0321775002386,4,1,0,90,0,0
60877,-89.8876404494382,4,1,0,90,0,0
61010,-89.7435667324188,4,1,0,90,0,0
61144,-89.6000344064132,4,1,0,90,0,0
61210,-89.5284001991112,4,1,0,90,0,0
61277,-89.4568804417738,4,1,0,90,0,0
61344,-89.3854748603352,4,1,0,90,0,0
61410,-89.3141831816034,4,1,0,90,0,0
61477,-89.2430051332577,4,1,0,90,0,0
61544,-89.1719404438444,4,1,0,90,0,0
61610,-89.1010682327071,4,1,0,90,0,0
61677,-89.0302293240647,4,1,0,90,0,0
61744,-88.959502965465,4,1,0,90,0,0
61810,-88.8888888888889,4,1,0,90,0,0
61944,-88.7479965139787,4,1,0,90,0,0
62010,-88.6777176838444,4,1,0,90,0,0
62077,-88.6076285851754,4,1,0,90,0,0
62210,-88.4676257147078,4,1,0,90,0,0
62344,-88.3280645642821,4,1,0,90,0,0
62477,-88.1889430466987,4,1,0,90,0,0
62544,-88.1196241521791,4,1,0,90,0,0
62610,-88.0503366164369,4,1,0,90,0,0
62677,-87.9811579552123,4,1,0,90,0,0
62744,-87.9120879120879,4,1,0,90,0,0
62810,-87.8431262314508,4,1,0,90,0,0
62877,-87.7742726584896,4,1,0,90,0,0
62944,-87.7055269391911,4,1,0,90,0,0
63010,-87.6369656226475,4,1,0,90,0,0
63077,-87.5684347317429,4,1,0,90,0,0
63144,-87.5000109375014,4,1,0,90,0,0
63277,-87.3634836363827,4,1,0,90,0,0
63344,-87.2953796301469,4,1,0,90,0,0
63410,-87.2273817218511,4,1,0,90,0,0
63477,-87.1595656315887,4,1,0,90,0,0
63544,-87.0917790586075,4,1,0,90,0,0
63610,-87.0240978429337,4,1,0,90,0,0
63677,-86.9565217391304,4,1,0,90,0,0
63944,-105.263157894737,4,1,0,90,0,0
64011,-101.26582278481,4,1,0,90,0,0
64077,-97.5609756097561,4,1,0,90,0,0
64144,-94.1176470588235,4,1,0,90,0,0
64210,-90.9090909090909,4,1,0,90,0,0
65277,-80,4,1,0,90,0,0
65411,-90.9090909090909,4,1,0,90,0,0
65677,-80,4,1,0,90,0,0
65944,-90.9090909090909,4,1,0,90,0,0
66344,-86.2068965517241,4,1,0,90,0,0
66388,-87.719298245614,4,1,0,90,0,0
66433,-89.2857142857143,4,1,0,90,0,0
66477,-90.9090909090909,4,1,0,90,0,0
66727,-86.2068965517241,4,1,0,90,0,0
66771,-87.719298245614,4,1,0,90,0,0
66816,-89.2857142857143,4,1,0,90,0,0
66860,-90.9090909090909,4,1,0,90,0,0
67410,-80,4,1,0,90,0,0
67544,-90.9090909090909,4,1,0,90,0,0
67677,-80,4,1,0,90,0,0
67811,-90.9090909090909,4,1,0,90,0,0
67944,-80,4,1,0,90,0,0
68077,-81.9672131147541,4,1,0,90,0,0
68211,-84.0336134453781,4,1,0,90,0,0
68344,-86.2068965517241,4,1,0,90,0,0
68477,-88.4955752212389,4,1,0,90,0,0
68611,-90.9090909090909,4,1,0,90,0,0
69544,-80,4,1,0,90,0,0
69677,-90.9090909090909,4,1,0,90,0,0
69944,-80,4,1,0,90,0,0
70211,-90.9090909090909,4,1,0,90,0,0
70344,-90.680082482603,4,1,0,90,0,0
70411,-90.5660103951667,4,1,0,90,0,0
70477,-90.4522249438292,4,1,0,90,0,0
70544,-90.3388066604995,4,1,0,90,0,0
70611,-90.2255910452905,4,1,0,90,0,0
70744,-90.0000090000009,4,1,0,90,0,0
70811,-89.8876404494382,4,1,0,90,0,0
70877,-89.7755521420896,4,1,0,90,0,0
70922,-89.7009817772456,4,1,0,90,0,0
70966,-89.6265351905146,4,1,0,90,0,0
71011,-89.5522120739665,4,1,0,90,0,0
71077,-89.4409582346502,4,1,0,90,0,0
71144,-89.3300602799247,4,1,0,90,0,0
71211,-89.2193573886565,4,1,0,90,0,0
71277,-89.1089285364215,4,1,0,90,0,0
71344,-88.9987727069244,4,1,0,90,0,0
71411,-88.8888888888889,4,1,0,90,0,0
71544,-88.6699332670082,4,1,0,90,0,0
71611,-88.5608594654289,4,1,0,90,0,0
71677,-88.4520536797824,4,1,0,90,0,0
71811,-88.2353200692118,4,1,0,90,0,0
71877,-88.1273122403549,4,1,0,90,0,0
71944,-88.0195685104712,4,1,0,90,0,0
72077,-87.8048694824518,4,1,0,90,0,0
72144,-87.6979122635007,4,1,0,90,0,0
72211,-87.591215301835,4,1,0,90,0,0
72344,-87.3786747101649,4,1,0,90,0,0
72477,-87.1670871025835,4,1,0,90,0,0
72544,-87.0616771039107,4,1,0,90,0,0
72611,-86.9565217391304,4,1,0,90,0,0
72744,-86.9565217391304,4,1,0,90,0,0
72877,-90.9090909090909,4,1,0,90,0,0
73810,-80,4,1,0,90,0,0
73944,-90.9090909090909,4,1,0,90,0,0
74211,-80,4,1,0,90,0,0
74475,-90.9090909090909,4,1,0,90,0,0
74861,-86.2068965517241,4,1,0,90,0,0
74905,-87.719298245614,4,1,0,90,0,0
74950,-89.2857142857143,4,1,0,90,0,0
74994,-90.9090909090909,4,1,0,90,0,0
75261,-86.2068965517241,4,1,0,90,0,0
75305,-87.719298245614,4,1,0,90,0,0
75350,-89.2857142857143,4,1,0,90,0,0
75394,-90.9090909090909,4,1,0,90,0,0
75944,-80,4,1,0,90,0,0
76077,-90.9090909090909,4,1,0,90,0,0
76210,-80,4,1,0,90,0,0
76344,-90.9090909090909,4,1,0,90,0,0
76477,-80,4,1,0,90,0,0
76610,-81.9672131147541,4,1,0,90,0,0
76744,-84.0336134453781,4,1,0,90,0,0
76877,-86.2068965517241,4,1,0,90,0,0
77010,-88.4955752212389,4,1,0,90,0,0
77144,-90.9090909090909,4,1,0,90,0,0
78077,-80,4,1,0,90,0,0
78211,-90.9090909090909,4,1,0,90,0,0
78477,-80,4,1,0,90,0,0
78744,-90.9090909090909,4,1,0,90,0,0
79166,-90.9090909090909,4,1,0,90,0,0
79277,-90.9090909090909,4,1,0,90,0,0
79344,-90.6344684696279,4,1,0,90,0,0
79411,-90.3614185658378,4,1,0,90,0,0
79455,-90.1803516853355,4,1,0,90,0,0
79499,-90.0000090000009,4,1,0,90,0,0
79544,-89.8203861737683,4,1,0,90,0,0
79611,-89.5522120739665,4,1,0,90,0,0
79677,-89.2857142857143,4,1,0,90,0,0
79744,-89.0207979290202,4,1,0,90,0,0
79811,-88.7573701901272,4,1,0,90,0,0
79877,-88.495575221239,4,1,0,90,0,0
79944,-88.2353200692118,4,1,0,90,0,0
80011,-87.9765137898787,4,1,0,90,0,0
80077,-87.719298245614,4,1,0,90,0,0
80144,-87.4635823508986,4,1,0,90,0,0
80211,-87.2092769740474,4,1,0,90,0,0
80277,-86.9565217391304,4,1,0,90,0,0
80344,-86.705227371453,4,1,0,90,0,0
80411,-86.4553064970298,4,1,0,90,0,0
80477,-86.2068965517241,4,1,0,90,0,0
80544,-85.9599100171662,4,1,0,90,0,0
80611,-85.7142612244968,4,1,0,90,0,0
80677,-85.4700854700855,4,1,0,90,0,0
80744,-85.227296939573,4,1,0,90,0,0
80788,-85.0661304097806,4,1,0,90,0,0
80833,-84.9056443574256,4,1,0,90,0,0
80877,-84.7457627118644,4,1,0,90,0,0
80922,-84.5864820651282,4,1,0,90,0,0
80966,-84.4277990348214,4,1,0,90,0,0
81011,-84.2696392501013,4,1,0,90,0,0
81077,-84.0336134453782,4,1,0,90,0,0
81144,-83.7989060890799,4,1,0,90,0,0
81211,-83.5654363327475,4,1,0,90,0,0
81277,-83.3333333333333,4,1,0,90,0,0
81544,-105.263157894737,4,1,0,80,0,0
84724,-108.695652173913,4,1,0,70,0,0
84991,-112.359550561798,4,1,0,60,0,0
85258,-117.647058823529,4,1,0,50,0,0
85524,-105.263157894737,4,1,0,80,0,0
89230,-86.9565217391304,4,1,0,90,0,0
89807,-105.263157894737,4,1,0,80,0,0
90077,-104.868960989795,4,1,0,80,0,0
90344,-104.477596346627,4,1,0,80,0,0
90477,-104.283007396794,4,1,0,80,0,0
90611,-104.089250286766,4,1,0,80,0,0
90744,-103.896103896104,4,1,0,80,0,0
90877,-103.703672976689,4,1,0,80,0,0
91011,-103.512060707753,4,1,0,80,0,0
91144,-103.321048460671,4,1,0,80,0,0
91277,-103.130739870241,4,1,0,80,0,0
91411,-102.941131055383,4,1,0,80,0,0
91544,-102.752323743801,4,1,0,80,0,0
91677,-102.564102564103,4,1,0,80,0,0
91811,-102.376569688755,4,1,0,80,0,0
91944,-102.189825776566,4,1,0,80,0,0
92211,-101.818167008267,4,1,0,80,0,0
92477,-101.449304767914,4,1,0,80,0,0
92611,-101.26582278481,4,1,0,80,0,0
92744,-101.083003297328,4,1,0,80,0,0
92877,-100.900944533742,4,1,0,80,0,0
93011,-100.719438952437,4,1,0,80,0,0
93144,-100.538585200921,4,1,0,80,0,0
93277,-100.358379774174,4,1,0,80,0,0
93411,-100.178919550317,4,1,0,80,0,0
93544,-100,4,1,0,80,0,0
93811,-99.6441706665498,4,1,0,80,0,0
93944,-99.4671544535921,4,1,0,80,0,0
94077,-99.2907660580474,4,1,0,80,0,0
94344,-98.9399572975144,4,1,0,80,0,0
94611,-98.5915215235151,4,1,0,80,0,0
94744,-98.4183191922612,4,1,0,80,0,0
94877,-98.2456278239478,4,1,0,80,0,0
95011,-98.0735414257735,4,1,0,80,0,0
95144,-97.9020568243118,4,1,0,80,0,0
95277,-97.7312663822035,4,1,0,80,0,0
95411,-97.5609756097561,4,1,0,80,0,0
95544,-97.3912772476446,4,1,0,80,0,0
95677,-97.2222627314984,4,1,0,80,0,0
95944,-96.8857997389896,4,1,0,80,0,0
96211,-96.5517507728968,4,1,0,80,0,0
96344,-96.3855421686747,4,1,0,80,0,0
96477,-96.2199048192702,4,1,0,80,0,0
96611,-96.0549280500561,4,1,0,80,0,0
96744,-95.8904240945786,4,1,0,80,0,0
97011,-95.5631007932693,4,1,0,80,0,0
97277,-95.2380952380952,4,1,0,80,0,0
97807,-105.263157894737,4,1,0,80,0,0
97873,-103.225806451613,4,1,0,80,0,0
97940,-101.26582278481,4,1,0,80,0,0
98007,-99.3788819875776,4,1,0,80,0,0
98073,-97.5609756097561,4,1,0,80,0,0
98140,-95.8083832335329,4,1,0,80,0,0
98207,-94.1176470588235,4,1,0,80,0,0
98273,-92.485549132948,4,1,0,80,0,0
98344,-90.9090909090909,4,1,0,100,0,1
98477,-80,4,1,0,100,0,1
98544,-80.6875222394983,4,1,0,100,0,1
98611,-81.3869640871882,4,1,0,100,0,1
98677,-82.0986382298877,4,1,0,100,0,1
98744,-82.8228683878363,4,1,0,100,0,1
98811,-83.5599199830206,4,1,0,100,0,1
98877,-84.3102786876262,4,1,0,100,0,1
98944,-85.07423577814,4,1,0,100,0,1
99011,-85.8521642901357,4,1,0,100,0,1
99077,-86.6444510294227,4,1,0,100,0,1
99144,-87.451497213358,4,1,0,100,0,1
99211,-88.2737191483351,4,1,0,100,0,1
99277,-89.1115489458549,4,1,0,100,0,1
99344,-89.9654352797655,4,1,0,100,0,1
99411,-90.8357616760288,4,1,0,100,0,1
99544,-80,4,1,0,100,0,1
99611,-80.6916240480406,4,1,0,100,0,1
99677,-81.3953772309455,4,1,0,100,0,1
99744,-82.1114465819879,4,1,0,100,0,1
99811,-82.8402268828134,4,1,0,100,0,1
99877,-83.5820596123966,4,1,0,100,0,1
99944,-84.3373697198481,4,1,0,100,0,1
100011,-85.1063829787234,4,1,0,100,0,1
100077,-85.8895494749572,4,1,0,100,0,1
100144,-86.6873387073704,4,1,0,100,0,1
100211,-87.5000109375014,4,1,0,100,0,1
100277,-88.3280645642821,4,1,0,100,0,1
100344,-89.1719404438444,4,1,0,100,0,1
100411,-90.0321775002386,4,1,0,100,0,1
100477,-90.9090909090909,4,1,0,100,0,1
100544,-90.6522154948206,4,1,0,100,0,1
100611,-90.3967876597537,4,1,0,100,0,1
100677,-90.1427952018793,4,1,0,100,0,1
100744,-89.8902260559405,4,1,0,100,0,1
100811,-89.6391486432219,4,1,0,100,0,1
100877,-89.3893900157415,4,1,0,100,0,1
100944,-89.1410193097276,4,1,0,100,0,1
101011,-88.8940249881104,4,1,0,100,0,1
101077,-88.6483956413357,4,1,0,100,0,1
101144,-88.4041199856078,4,1,0,100,0,1
101188,-88.2420160829899,4,1,0,100,0,1
101233,-88.080505582102,4,1,0,100,0,1
101277,-87.9195852305647,4,1,0,100,0,1
101344,-87.6793810537133,4,1,0,100,0,1
101411,-87.4404093610205,4,1,0,100,0,1
101477,-87.2027367706908,4,1,0,100,0,1
101544,-86.9663527181334,4,1,0,100,0,1
101611,-86.731246752999,4,1,0,100,0,1
101677,-86.4974085376402,4,1,0,100,0,1
101744,-86.2648278455963,4,1,0,100,0,1
101811,-86.0334945601021,4,1,0,100,0,1
101877,-85.8033986726214,4,1,0,100,0,1
101944,-85.5746035114683,4,1,0,100,0,1
102011,-85.3469524310226,4,1,0,100,0,1
102077,-85.120509361128,4,1,0,100,0,1
102122,-84.9702136915904,4,1,0,100,0,1
102166,-84.8204478350005,4,1,0,100,0,1
102211,-84.6712089947919,4,1,0,100,0,1
102277,-84.4483328210135,4,1,0,100,0,1
102344,-84.2266269004685,4,1,0,100,0,1
102411,-84.0060820403397,4,1,0,100,0,1
102477,-83.7867593459941,4,1,0,100,0,1
102544,-83.5685090458733,4,1,0,100,0,1
102611,-83.3513928017737,4,1,0,100,0,1
102744,-90.9305835924855,4,1,0,100,0,1
105810,-80,4,1,0,100,0,1
106072,-90.9090909090909,4,1,0,100,0,1
106211,-80,4,1,0,100,0,1
106477,-90.9090909090909,4,1,0,100,0,1
106877,-90.9090909090909,4,1,0,100,0,1
106994,-89.2857142857143,4,1,0,100,0,1
107060,-87.719298245614,4,1,0,100,0,1
107127,-86.2068965517241,4,1,0,100,0,1
107194,-84.7457627118644,4,1,0,100,0,1
107260,-83.3333333333333,4,1,0,100,0,1
107327,-81.6326530612245,4,1,0,100,0,1
107411,-80,4,1,0,100,0,1
109144,-90.9090909090909,4,1,0,100,0,1
109211,-90.0321775002386,4,1,0,100,0,1
109277,-89.1719404438444,4,1,0,100,0,1
109322,-88.6076285851754,4,1,0,100,0,1
109366,-88.0503366164369,4,1,0,100,0,1
109411,-87.5000109375014,4,1,0,100,0,1
109477,-86.6873387073704,4,1,0,100,0,1
109544,-85.8895494749572,4,1,0,100,0,1
109611,-85.1063829787234,4,1,0,100,0,1
109677,-84.3373697198481,4,1,0,100,0,1
109744,-83.5820596123966,4,1,0,100,0,1
109811,-82.8402268828134,4,1,0,100,0,1
109877,-82.1114465819879,4,1,0,100,0,1
109944,-81.3953772309455,4,1,0,100,0,1
110011,-80.6916240480406,4,1,0,100,0,1
110077,-80,4,1,0,100,0,1
110144,-80.6013505562299,4,1,0,100,0,1
110211,-81.2118760999134,4,1,0,100,0,1
110277,-81.8316542841735,4,1,0,100,0,1
110344,-82.4610330388375,4,1,0,100,0,1
110411,-83.1000990553181,4,1,0,100,0,1
110477,-83.749217991677,4,1,0,100,0,1
110544,-84.4084864292256,4,1,0,100,0,1
110611,-85.078216658485,4,1,0,100,0,1
110655,-85.5306879831949,4,1,0,100,0,1
110699,-85.9879977952677,4,1,0,100,0,1
110744,-86.4501493858581,4,1,0,100,0,1
110811,-87.1528809692098,4,1,0,100,0,1
110877,-87.8670536331709,4,1,0,100,0,1
110944,-88.5931060388605,4,1,0,100,0,1
111011,-89.3311774742503,4,1,0,100,0,1
111077,-90.0816500075669,4,1,0,100,0,1
111144,-90.8449213600938,4,1,0,100,0,1
111277,-90.9090909090909,4,1,0,100,0,1
111344,-90.0372844394864,4,1,0,100,0,1
111411,-89.1820401640236,4,1,0,100,0,1
111477,-88.3428905617106,4,1,0,100,0,1
111544,-87.519385543898,4,1,0,100,0,1
111611,-86.7111668374877,4,1,0,100,0,1
111677,-85.9176651015332,4,1,0,100,0,1
111744,-85.1385544835666,4,1,0,100,0,1
111811,-84.3734470012411,4,1,0,100,0,1
111877,-83.6219684945872,4,1,0,100,0,1
111944,-82.8837580158954,4,1,0,100,0,1
112011,-82.1584672516349,4,1,0,100,0,1
112077,-81.4457599744586,4,1,0,100,0,1
112144,-80.7453115234864,4,1,0,100,0,1
112211,-80.0568724021545,4,1,0,100,0,1
112344,-90.9090909090909,4,1,0,100,0,1
112411,-90.4884021015027,4,1,0,100,0,1
112477,-90.0716700278412,4,1,0,100,0,1
112544,-89.6586783772855,4,1,0,100,0,1
112611,-89.2494566939324,4,1,0,100,0,1
112677,-88.8440325240234,4,1,0,100,0,1
112744,-88.4421968334156,4,1,0,100,0,1
112811,-88.044057246246,4,1,0,100,0,1
112877,-87.6494093744549,4,1,0,100,0,1
112944,-87.2582836470123,4,1,0,100,0,1
113011,-86.8707085869958,4,1,0,100,0,1
113077,-86.4864864864865,4,1,0,100,0,1
113144,-86.1056481860984,4,1,0,100,0,1
113211,-85.7282226739147,4,1,0,100,0,1
113277,-85.3540185952265,4,1,0,100,0,1
113322,-85.1063829787234,4,1,0,100,0,1
113366,-84.8601801242183,4,1,0,100,0,1
113411,-84.6153976331381,4,1,0,100,0,1
113455,-84.3720232495547,4,1,0,100,0,1
113499,-84.1300448581399,4,1,0,100,0,1
113544,-83.8894504821546,4,1,0,100,0,1
113611,-83.8894504821546,4,1,0,100,0,1
113677,-83.1757845347937,4,1,0,100,0,1
113744,-82.8235543562705,4,1,0,100,0,1
113811,-82.4742268041237,4,1,0,100,0,1
113877,-82.1278336155793,4,1,0,100,0,1
113944,-81.7844048589751,4,1,0,100,0,1
114011,-81.4437699995358,4,1,0,100,0,1
114077,-81.1059608825951,4,1,0,100,0,1
114122,-80.8823291522561,4,1,0,100,0,1
114166,-80.6599272608776,4,1,0,100,0,1
114211,-80.4387450912256,4,1,0,100,0,1
114255,-80.2187726367349,4,1,0,100,0,1
114299,-80,4,1,0,100,0,1
114344,-76.9230769230769,4,1,0,100,0,1
114477,-86.9565217391304,4,1,0,100,0,1
114611,-76.9230769230769,4,1,0,100,0,1
114744,-86.9565217391304,4,1,0,100,0,1
114877,-76.9230769230769,4,1,0,100,0,1
115410,-105.263157894737,4,1,0,50,0,0
123408,-105.263157894737,4,1,0,100,0,0
123474,-101.910828025478,4,1,0,100,0,0
123541,-98.7654320987654,4,1,0,100,0,0
123608,-95.8083832335329,4,1,0,100,0,0
123674,-93.0232558139535,4,1,0,100,0,0
123741,-90.3954802259887,4,1,0,100,0,0
123808,-87.9120879120879,4,1,0,100,0,0
123874,-85.5614973262032,4,1,0,100,0,0
123941,-83.3333333333333,4,1,0,100,0,0

[HitObjects]
144,171,211,5,8,0:0:0:0:
332,106,477,1,8,0:0:0:0:
225,115,744,1,0,0:0:0:0:
225,115,877,1,8,0:0:0:0:
225,115,1011,1,8,0:0:0:0:
193,209,1144,1,0,0:0:0:0:
308,303,1277,1,8,0:0:0:0:
332,106,1544,1,8,0:0:0:0:
308,303,1811,1,0,0:0:0:0:
225,115,1944,1,8,0:0:0:0:
308,303,2077,1,0,0:0:0:0:
193,209,2211,1,8,0:0:0:0:
308,303,2344,1,8,0:0:0:0:
332,106,2611,1,8,0:0:0:0:
308,303,2877,1,8,0:0:0:0:
225,115,3011,1,8,0:0:0:0:
308,303,3144,1,0,0:0:0:0:
193,209,3277,1,8,0:0:0:0:
308,303,3411,1,0,0:0:0:0:
332,106,3677,1,8,0:0:0:0:
332,106,3944,1,8,0:0:0:0:
237,99,4211,1,8,0:0:0:0:
254,102,4477,1,0,0:0:0:0:
332,106,4744,1,8,0:0:0:0:
180,121,5011,1,0,0:0:0:0:
180,121,5144,1,8,0:0:0:0:
254,102,5277,1,8,0:0:0:0:
167,206,5411,1,8,0:0:0:0:
254,102,5544,1,0,0:0:0:0:
332,106,5811,1,8,0:0:0:0:
254,102,6077,1,8,0:0:0:0:
180,121,6211,1,8,0:0:0:0:
254,102,6344,1,0,0:0:0:0:
167,206,6477,1,8,0:0:0:0:
254,102,6611,1,0,0:0:0:0:
332,106,6877,1,8,0:0:0:0:
145,80,7144,1,8,0:0:0:0:
145,80,7277,1,0,0:0:0:0:
123,79,7411,1,8,0:0:0:0:
167,206,7544,1,0,0:0:0:0:
254,102,7677,1,8,0:0:0:0:
332,106,7944,1,8,0:0:0:0:
254,102,8211,1,8,0:0:0:0:
254,102,8744,1,0,0:0:0:0:
332,106,9011,1,8,0:0:0:0:
254,102,9277,1,8,0:0:0:0:
55,175,9411,1,8,0:0:0:0:
176,93,9544,1,0,0:0:0:0:
167,206,9677,1,0,0:0:0:0:
176,93,9811,1,8,0:0:0:0:
332,106,10077,1,8,0:0:0:0:
126,172,10344,1,0,0:0:0:0:
126,172,10477,1,8,0:0:0:0:
126,172,10611,1,8,0:0:0:0:
167,206,10744,1,0,0:0:0:0:
176,93,10877,1,8,0:0:0:0:
332,106,11144,1,8,0:0:0:0:
195,97,11411,1,8,0:0:0:0:
126,172,11544,1,0,0:0:0:0:
195,97,11677,1,8,0:0:0:0:
87,160,11811,1,8,0:0:0:0:
195,97,11944,1,0,0:0:0:0:
217,88,12211,1,8,0:0:0:0:
217,88,12477,1,8,0:0:0:0:
139,212,12744,1,8,0:0:0:0:
195,97,13011,1,0,0:0:0:0:
195,97,13277,1,0,0:0:0:0:
117,186,13411,1,8,0:0:0:0:
195,97,13544,1,8,0:0:0:0:
126,172,13677,1,8,0:0:0:0:
195,97,13811,1,0,0:0:0:0:
117,186,13944,1,0,0:0:0:0:
195,97,14077,1,8,0:0:0:0:
126,172,14344,1,0,0:0:0:0:
84,66,14611,1,0,0:0:0:0:
126,172,14744,1,8,0:0:0:0:
195,97,14877,1,0,0:0:0:0:
117,186,15011,1,0,0:0:0:0:
195,97,15144,1,8,0:0:0:0:
126,172,15411,1,0,0:0:0:0:
84,66,15677,1,8,0:0:0:0:
84,66,15944,1,0,0:0:0:0:
84,66,16211,1,8,0:0:0:0:
346,264,16744,1,8,0:0:0:0:
346,264,16811,1,8,0:0:0:0:
346,264,16877,1,8,0:0:0:0:
346,264,16944,1,8,0:0:0:0:
346,264,17011,1,0,0:0:0:0:
348,187,17077,1,0,0:0:0:0:
259,242,17144,1,8,0:0:0:0:
259,242,17211,1,8,0:0:0:0:
208,210,17277,1,4,0:0:0:0:
361,86,17477,1,12,0:0:0:0:
281,122,17677,1,4,0:0:0:0:
361,86,17944,1,4,0:0:0:0:
281,122,18077,1,12,0:0:0:0:
255,88,18211,1,4,0:0:0:0:
479,266,18344,1,8,0:0:0:0:
200,257,18411,1,0,0:0:0:0:
479,266,18477,1,0,0:0:0:0:
296,171,18544,1,0,0:0:0:0:
366,138,18611,1,8,0:0:0:0:
113,240,18677,1,0,0:0:0:0:
328,233,18744,1,0,0:0:0:0:
296,171,18811,1,8,0:0:0:0:
200,257,18877,1,0,0:0:0:0:
200,257,18944,1,8,0:0:0:0:
343,197,19011,1,0,0:0:0:0:
296,171,19077,1,0,0:0:0:0:
366,138,19144,1,8,0:0:0:0:
175,208,19277,1,0,0:0:0:0:
201,175,19344,1,8,0:0:0:0:
175,208,19411,1,0,0:0:0:0:
175,208,19477,1,0,0:0:0:0:
175,208,19544,1,0,0:0:0:0:
175,208,19611,1,8,0:0:0:0:
281,122,19677,1,4,0:0:0:0:
151,114,19944,1,12,0:0:0:0:
188,142,20144,1,4,0:0:0:0:
301,140,20344,1,12,0:0:0:0:
255,273,20477,1,0,0:0:0:0:
255,273,20544,1,8,0:0:0:0:
339,257,20611,1,0,0:0:0:0:
255,273,20677,1,0,0:0:0:0:
261,102,20744,1,8,0:0:0:0:
259,78,20811,1,0,0:0:0:0:
244,271,20877,1,8,0:0:0:0:
168,222,20944,1,8,0:0:0:0:
168,222,21011,1,0,0:0:0:0:
259,78,21077,1,0,0:0:0:0:
244,271,21144,1,8,0:0:0:0:
311,144,21277,1,0,0:0:0:0:
215,177,21344,1,0,0:0:0:0:
215,177,21411,1,0,0:0:0:0:
215,177,21477,1,0,0:0:0:0:
455,283,21544,1,12,0:0:0:0:
246,78,21744,1,4,0:0:0:0:
293,44,21944,1,12,0:0:0:0:
332,115,22211,1,4,0:0:0:0:
293,44,22344,1,12,0:0:0:0:
246,83,22477,1,4,0:0:0:0:
354,151,22611,1,8,0:0:0:0:
200,80,22677,1,8,0:0:0:0:
200,80,22744,1,0,0:0:0:0:
354,151,22811,1,0,0:0:0:0:
420,278,22877,1,8,0:0:0:0:
155,84,22944,1,0,0:0:0:0:
420,278,23011,1,0,0:0:0:0:
354,151,23077,1,8,0:0:0:0:
164,113,23144,1,0,0:0:0:0:
164,113,23211,1,8,0:0:0:0:
420,278,23277,1,0,0:0:0:0:
354,151,23344,1,0,0:0:0:0:
420,278,23411,1,8,0:0:0:0:
211,134,23544,1,0,0:0:0:0:
162,188,23611,1,8,0:0:0:0:
162,188,23677,1,0,0:0:0:0:
211,134,23744,1,8,0:0:0:0:
211,134,23811,1,0,0:0:0:0:
211,134,23877,1,0,0:0:0:0:
397,173,23944,1,12,0:0:0:0:
277,247,24211,1,4,0:0:0:0:
319,101,24411,1,12,0:0:0:0:
277,247,24611,1,12,0:0:0:0:
170,192,24744,1,8,0:0:0:0:
214,244,24811,1,8,0:0:0:0:
170,192,24877,1,0,0:0:0:0:
177,129,24944,1,0,0:0:0:0:
214,244,25011,1,0,0:0:0:0:
170,192,25077,1,0,0:0:0:0:
171,113,25144,1,8,0:0:0:0:
163,92,25211,1,8,0:0:0:0:
163,92,25277,1,0,0:0:0:0:
171,113,25344,1,8,0:0:0:0:
163,92,25411,1,8,0:0:0:0:
163,92,25544,1,0,0:0:0:0:
163,92,25611,1,8,0:0:0:0:
163,92,25677,1,8,0:0:0:0:
163,92,25744,1,8,0:0:0:0:
330,246,25811,1,4,0:0:0:0:
246,122,26011,1,12,0:0:0:0:
330,246,26211,1,4,0:0:0:0:
245,85,26477,1,0,0:0:0:0:
194,32,26611,1,8,0:0:0:0:
128,98,26744,1,0,0:0:0:0:
245,85,26877,1,4,0:0:0:0:
124,44,27077,1,12,0:0:0:0:
124,44,27277,1,12,0:0:0:0:
124,44,27544,1,0,0:0:0:0:
124,44,27677,1,8,0:0:0:0:
279,169,27811,1,8,0:0:0:0:
332,109,27944,1,4,0:0:0:0:
124,44,28144,1,12,0:0:0:0:
124,44,28344,1,4,0:0:0:0:
109,67,28611,1,8,0:0:0:0:
124,44,28744,1,0,0:0:0:0:
355,111,28877,1,8,0:0:0:0:
109,67,29011,1,4,0:0:0:0:
124,44,29211,1,12,0:0:0:0:
109,67,29411,1,4,0:0:0:0:
109,67,29677,1,8,0:0:0:0:
124,44,29811,1,0,0:0:0:0:
355,111,29944,1,8,0:0:0:0:
109,67,30077,1,12,0:0:0:0:
437,222,30211,1,0,0:0:0:0:
441,220,30344,1,12,0:0:0:0:
241,258,30477,1,12,0:0:0:0:
366,255,30611,1,12,0:0:0:0:
441,220,30744,1,0,0:0:0:0:
441,220,30877,1,12,0:0:0:0:
241,258,31011,1,4,0:0:0:0:
452,266,31144,1,4,0:0:0:0:
370,217,31277,1,8,0:0:0:0:
370,217,31411,1,4,0:0:0:0:
276,162,31544,1,4,0:0:0:0:
341,79,31677,1,4,0:0:0:0:
169,53,31811,1,8,0:0:0:0:
169,53,31944,1,4,0:0:0:0:
169,53,32077,1,12,0:0:0:0:
169,53,32211,1,4,0:0:0:0:
341,79,32411,1,12,0:0:0:0:
341,79,32611,1,12,0:0:0:0:
240,75,32877,1,4,0:0:0:0:
240,75,33011,1,12,0:0:0:0:
332,108,33144,1,0,0:0:0:0:
332,108,33188,1,0,0:0:0:0:
332,108,33233,1,0,0:0:0:0:
469,324,33277,1,8,0:0:0:0:
306,292,33344,1,8,0:0:0:0:
306,292,33411,1,0,0:0:0:0:
306,292,33477,1,0,0:0:0:0:
306,292,33544,1,8,0:0:0:0:
379,160,33611,1,0,0:0:0:0:
306,292,33677,1,0,0:0:0:0:
306,292,33744,1,0,0:0:0:0:
306,292,33811,1,8,0:0:0:0:
379,160,33877,1,8,0:0:0:0:
306,292,33944,1,0,0:0:0:0:
241,148,34011,1,0,0:0:0:0:
286,82,34077,1,8,0:0:0:0:
286,82,34344,1,4,0:0:0:0:
288,312,34477,1,0,0:0:0:0:
381,117,34611,1,8,0:0:0:0:
381,117,34744,1,0,0:0:0:0:
96,340,34877,1,8,0:0:0:0:
239,249,35011,1,0,0:0:0:0:
310,217,35144,1,8,0:0:0:0:
288,203,35277,1,8,0:0:0:0:
96,340,35411,1,0,0:0:0:0:
381,182,35544,1,8,0:0:0:0:
272,112,35677,1,0,0:0:0:0:
239,112,35811,1,0,0:0:0:0:
179,102,35944,1,8,0:0:0:0:
239,249,36077,1,8,0:0:0:0:
239,112,36211,1,0,0:0:0:0:
239,112,36344,1,8,0:0:0:0:
310,217,36477,1,8,0:0:0:0:
401,309,36611,1,8,0:0:0:0:
172,233,36744,1,0,0:0:0:0:
174,57,36877,1,0,0:0:0:0:
252,229,37011,1,8,0:0:0:0:
174,57,37144,1,0,0:0:0:0:
252,229,37277,1,0,0:0:0:0:
137,252,37344,1,8,0:0:0:0:
252,229,37411,1,0,0:0:0:0:
250,181,37477,1,0,0:0:0:0:
290,90,37544,1,8,0:0:0:0:
376,249,37677,1,0,0:0:0:0:
214,34,37811,1,8,0:0:0:0:
214,34,37944,1,8,0:0:0:0:
163,202,38077,1,8,0:0:0:0:
214,34,38211,1,0,0:0:0:0:
214,34,38344,1,0,0:0:0:0:
247,250,38477,1,0,0:0:0:0:
290,90,38611,1,8,0:0:0:0:
214,34,38744,1,8,0:0:0:0:
227,67,38877,1,8,0:0:0:0:
227,67,39011,1,0,0:0:0:0:
290,90,39144,1,8,0:0:0:0:
214,34,39277,1,0,0:0:0:0:
245,179,39411,1,8,0:0:0:0:
313,237,39544,1,8,0:0:0:0:
290,90,39677,1,0,0:0:0:0:
228,101,39811,1,0,0:0:0:0:
290,90,39944,1,8,0:0:0:0:
313,237,40077,1,8,0:0:0:0:
102,111,40211,1,0,0:0:0:0:
313,237,40344,1,8,0:0:0:0:
102,111,40477,1,8,0:0:0:0:
313,237,40544,1,0,0:0:0:0:
102,111,40611,1,8,0:0:0:0:
313,237,40677,1,8,0:0:0:0:
232,91,40744,1,0,0:0:0:0:
183,190,40877,1,8,0:0:0:0:
254,55,41011,1,8,0:0:0:0:
319,216,41144,1,0,0:0:0:0:
319,216,41211,1,8,0:0:0:0:
228,101,41277,1,0,0:0:0:0:
228,101,41411,1,8,0:0:0:0:
221,198,41544,1,8,0:0:0:0:
235,177,41677,1,0,0:0:0:0:
277,295,41811,1,8,0:0:0:0:
208,151,41877,1,8,0:0:0:0:
245,51,41944,1,0,0:0:0:0:
208,151,42011,1,0,0:0:0:0:
141,57,42077,1,8,0:0:0:0:
137,82,42211,1,0,0:0:0:0:
277,295,42344,1,0,0:0:0:0:
208,151,42411,1,8,0:0:0:0:
245,51,42477,1,0,0:0:0:0:
141,57,42611,1,8,0:0:0:0:
284,272,42744,1,0,0:0:0:0:
208,151,42811,1,8,0:0:0:0:
235,56,42877,1,0,0:0:0:0:
245,51,43011,1,8,0:0:0:0:
221,65,43144,1,0,0:0:0:0:
294,89,43277,1,8,0:0:0:0:
284,272,43411,1,8,0:0:0:0:
284,272,43544,1,0,0:0:0:0:
284,272,43677,1,8,0:0:0:0:
156,138,43744,1,0,0:0:0:0:
284,272,43811,1,8,0:0:0:0:
156,138,43877,1,8,0:0:0:0:
284,272,43944,1,0,0:0:0:0:
79,286,44011,1,0,0:0:0:0:
79,286,44077,1,8,0:0:0:0:
141,57,44211,1,8,0:0:0:0:
245,51,44344,1,0,0:0:0:0:
367,199,44411,1,0,0:0:0:0:
179,275,44477,1,8,0:0:0:0:
367,199,44611,1,0,0:0:0:0:
179,275,44744,1,8,0:0:0:0:
179,275,44877,1,0,0:0:0:0:
141,57,45011,1,0,0:0:0:0:
367,199,45077,1,8,0:0:0:0:
245,51,45144,1,0,0:0:0:0:
174,33,45277,1,8,0:0:0:0:
191,270,45411,1,8,0:0:0:0:
191,270,45544,1,0,0:0:0:0:
367,199,45611,1,0,0:0:0:0:
191,270,45677,1,8,0:0:0:0:
367,199,45811,1,8,0:0:0:0:
143,61,45944,1,0,0:0:0:0:
369,120,46011,1,0,0:0:0:0:
143,61,46077,1,8,0:0:0:0:
276,213,46144,1,8,0:0:0:0:
276,213,46211,1,8,0:0:0:0:
276,213,46277,1,8,0:0:0:0:
174,33,46344,1,4,0:0:0:0:
175,113,46611,1,4,0:0:0:0:
248,62,46877,1,12,0:0:0:0:
311,206,47010,1,0,0:0:0:0:
311,206,47077,1,8,0:0:0:0:
174,33,47144,1,4,0:0:0:0:
268,265,47277,1,8,0:0:0:0:
370,300,47411,1,8,0:0:0:0:
215,264,47544,1,0,0:0:0:0:
206,130,47611,1,8,0:0:0:0:
206,130,47677,1,0,0:0:0:0:
438,199,47744,1,8,0:0:0:0:
215,264,47811,1,0,0:0:0:0:
232,76,47877,1,0,0:0:0:0:
370,300,47944,1,8,0:0:0:0:
215,264,48077,1,8,0:0:0:0:
173,224,48144,1,8,0:0:0:0:
370,300,48211,1,0,0:0:0:0:
352,191,48344,1,8,0:0:0:0:
370,300,48477,1,8,0:0:0:0:
215,264,48611,1,0,0:0:0:0:
148,120,48677,1,8,0:0:0:0:
382,99,48744,1,0,0:0:0:0:
382,99,48811,1,0,0:0:0:0:
352,191,48877,1,8,0:0:0:0:
352,191,48944,1,0,0:0:0:0:
352,191,49011,1,8,0:0:0:0:
352,191,49144,1,8,0:0:0:0:
173,224,49211,1,8,0:0:0:0:
173,224,49277,1,0,0:0:0:0:
352,191,49411,1,0,0:0:0:0:
173,224,49544,1,8,0:0:0:0:
215,264,49677,1,0,0:0:0:0:
173,224,49744,1,8,0:0:0:0:
321,119,49811,1,8,0:0:0:0:
321,119,49877,1,8,0:0:0:0:
298,202,49944,1,0,0:0:0:0:
173,224,50011,1,0,0:0:0:0:
173,224,50077,1,8,0:0:0:0:
173,224,50144,1,0,0:0:0:0:
173,224,50211,1,8,0:0:0:0:
152,210,50277,1,8,0:0:0:0:
173,224,50344,1,0,0:0:0:0:
298,202,50477,1,8,0:0:0:0:
298,202,50544,1,0,0:0:0:0:
298,202,50611,1,8,0:0:0:0:
211,191,50744,1,0,0:0:0:0:
152,210,50811,1,8,0:0:0:0:
298,202,50877,1,8,0:0:0:0:
298,202,50944,1,8,0:0:0:0:
298,202,51011,1,0,0:0:0:0:
152,249,51077,1,0,0:0:0:0:
211,191,51144,1,8,0:0:0:0:
211,191,51277,1,0,0:0:0:0:
121,193,51344,1,8,0:0:0:0:
173,224,51411,1,0,0:0:0:0:
359,320,51544,1,8,0:0:0:0:
205,83,51677,1,0,0:0:0:0:
205,83,51811,1,8,0:0:0:0:
238,130,51877,1,0,0:0:0:0:
263,240,51944,1,8,0:0:0:0:
121,193,52011,1,8,0:0:0:0:
238,130,52077,1,0,0:0:0:0:
99,129,52144,1,0,0:0:0:0:
415,155,52211,1,8,0:0:0:0:
187,132,52344,1,8,0:0:0:0:
228,162,52477,1,0,0:0:0:0:
232,264,52611,1,8,0:0:0:0:
99,129,52677,1,0,0:0:0:0:
253,286,52744,1,8,0:0:0:0:
187,132,52877,1,0,0:0:0:0:
238,130,52944,1,8,0:0:0:0:
263,240,53011,1,0,0:0:0:0:
99,129,53077,1,8,0:0:0:0:
263,240,53144,1,0,0:0:0:0:
99,129,53211,1,0,0:0:0:0:
263,240,53277,1,8,0:0:0:0:
263,240,53411,1,0,0:0:0:0:
177,162,53477,1,8,0:0:0:0:
225,73,53544,1,0,0:0:0:0:
359,320,53677,1,0,0:0:0:0:
197,173,53811,1,8,0:0:0:0:
126,104,53944,1,8,0:0:0:0:
177,162,54011,1,8,0:0:0:0:
197,173,54077,1,0,0:0:0:0:
177,162,54144,1,8,0:0:0:0:
126,104,54211,1,0,0:0:0:0:
238,130,54277,1,0,0:0:0:0:
126,104,54344,1,8,0:0:0:0:
177,162,54411,1,0,0:0:0:0:
177,162,54477,1,0,0:0:0:0:
134,162,54544,1,8,0:0:0:0:
126,104,54611,1,8,0:0:0:0:
126,104,54744,1,0,0:0:0:0:
219,209,54811,1,8,0:0:0:0:
126,104,54877,1,0,0:0:0:0:
126,104,55011,1,0,0:0:0:0:
219,209,55077,1,0,0:0:0:0:
126,104,55144,1,8,0:0:0:0:
219,209,55211,1,8,0:0:0:0:
286,230,55277,1,0,0:0:0:0:
225,73,55411,1,8,0:0:0:0:
134,162,55477,1,0,0:0:0:0:
126,104,55544,1,8,0:0:0:0:
134,162,55611,1,8,0:0:0:0:
174,33,55677,1,4,0:0:0:0:
268,265,55811,1,8,0:0:0:0:
370,300,55944,1,8,0:0:0:0:
215,264,56077,1,0,0:0:0:0:
206,130,56144,1,8,0:0:0:0:
206,130,56211,1,0,0:0:0:0:
438,199,56277,1,8,0:0:0:0:
215,264,56344,1,0,0:0:0:0:
232,76,56411,1,0,0:0:0:0:
370,300,56477,1,8,0:0:0:0:
215,264,56611,1,8,0:0:0:0:
173,224,56677,1,8,0:0:0:0:
370,300,56744,1,0,0:0:0:0:
352,191,56877,1,0,0:0:0:0:
370,300,57011,1,8,0:0:0:0:
215,264,57144,1,0,0:0:0:0:
152,186,57211,1,8,0:0:0:0:
382,99,57277,1,0,0:0:0:0:
382,99,57344,1,8,0:0:0:0:
352,191,57411,1,8,0:0:0:0:
352,191,57477,1,0,0:0:0:0:
352,191,57544,1,8,0:0:0:0:
352,191,57677,1,8,0:0:0:0:
173,224,57744,1,8,0:0:0:0:
173,224,57811,1,0,0:0:0:0:
352,191,57944,1,0,0:0:0:0:
173,224,58077,1,8,0:0:0:0:
215,264,58211,1,0,0:0:0:0:
111,197,58277,1,0,0:0:0:0:
321,119,58344,1,8,0:0:0:0:
321,119,58411,1,0,0:0:0:0:
298,202,58477,1,8,0:0:0:0:
173,224,58544,1,0,0:0:0:0:
173,224,58611,1,8,0:0:0:0:
173,224,58677,1,0,0:0:0:0:
173,224,58744,1,8,0:0:0:0:
152,210,58811,1,8,0:0:0:0:
173,224,58877,1,0,0:0:0:0:
298,202,59011,1,8,0:0:0:0:
298,202,59077,1,0,0:0:0:0:
298,202,59144,1,8,0:0:0:0:
211,191,59277,1,0,0:0:0:0:
152,210,59344,1,8,0:0:0:0:
298,202,59411,1,8,0:0:0:0:
298,202,59477,1,8,0:0:0:0:
298,202,59544,1,0,0:0:0:0:
211,191,59677,1,8,0:0:0:0:
211,191,59811,1,0,0:0:0:0:
121,193,59877,1,8,0:0:0:0:
173,224,59944,1,4,0:0:0:0:
359,320,60077,1,8,0:0:0:0:
205,83,60211,1,0,0:0:0:0:
205,83,60344,1,8,0:0:0:0:
238,130,60411,1,0,0:0:0:0:
263,240,60477,1,8,0:0:0:0:
121,193,60544,1,8,0:0:0:0:
238,130,60611,1,0,0:0:0:0:
99,129,60677,1,0,0:0:0:0:
415,155,60744,1,8,0:0:0:0:
187,132,60877,1,0,0:0:0:0:
228,162,61011,1,4,0:0:0:0:
359,320,61144,1,8,0:0:0:0:
99,129,61211,1,0,0:0:0:0:
253,286,61277,1,8,0:0:0:0:
99,129,61344,1,8,0:0:0:0:
187,132,61411,1,0,0:0:0:0:
238,130,61477,1,8,0:0:0:0:
263,240,61544,1,0,0:0:0:0:
99,129,61611,1,8,0:0:0:0:
263,240,61677,1,0,0:0:0:0:
99,129,61744,1,0,0:0:0:0:
263,240,61811,1,8,0:0:0:0:
263,240,61944,1,0,0:0:0:0:
177,162,62011,1,8,0:0:0:0:
225,73,62077,1,4,0:0:0:0:
359,320,62211,1,0,0:0:0:0:
197,173,62344,1,8,0:0:0:0:
126,104,62477,1,8,0:0:0:0:
177,162,62544,1,8,0:0:0:0:
197,173,62611,1,0,0:0:0:0:
177,162,62677,1,8,0:0:0:0:
126,104,62744,1,0,0:0:0:0:
238,130,62811,1,0,0:0:0:0:
126,104,62877,1,8,0:0:0:0:
177,162,62944,1,0,0:0:0:0:
177,162,63011,1,0,0:0:0:0:
134,162,63077,1,8,0:0:0:0:
126,104,63144,1,4,0:0:0:0:
126,104,63277,1,8,0:0:0:0:
219,209,63344,1,8,0:0:0:0:
126,104,63411,1,0,0:0:0:0:
277,49,63477,1,8,0:0:0:0:
126,104,63544,1,0,0:0:0:0:
219,209,63611,1,0,0:0:0:0:
126,104,63677,1,12,0:0:0:0:
388,173,63944,1,0,0:0:0:0:
388,173,64011,1,8,0:0:0:0:
388,173,64077,1,8,0:0:0:0:
388,173,64144,1,8,0:0:0:0:
174,33,64211,1,4,0:0:0:0:
313,216,64344,1,0,0:0:0:0:
313,216,64411,1,0,0:0:0:0:
225,324,64477,1,8,0:0:0:0:
217,260,64544,1,8,0:0:0:0:
335,215,64611,1,0,0:0:0:0:
217,260,64677,1,0,0:0:0:0:
335,215,64744,1,8,0:0:0:0:
335,215,64788,1,8,0:0:0:0:
172,88,64833,1,8,0:0:0:0:
225,324,64877,1,0,0:0:0:0:
175,201,64944,1,0,0:0:0:0:
225,324,65011,1,8,0:0:0:0:
503,269,65144,1,0,0:0:0:0:
175,201,65211,1,0,0:0:0:0:
225,324,65277,1,12,0:0:0:0:
225,324,65411,1,0,0:0:0:0:
330,151,65544,1,8,0:0:0:0:
225,324,65677,1,4,0:0:0:0:
465,233,65944,1,0,0:0:0:0:
465,233,66077,1,8,0:0:0:0:
254,234,66144,1,0,0:0:0:0:
465,233,66211,1,8,0:0:0:0:
465,233,66277,1,8,0:0:0:0:
206,83,66344,1,0,0:0:0:0:
249,117,66388,1,0,0:0:0:0:
249,117,66433,1,0,0:0:0:0:
465,233,66477,1,8,0:0:0:0:
261,130,66611,1,8,0:0:0:0:
261,130,66744,1,0,0:0:0:0:
282,122,66788,1,0,0:0:0:0:
282,122,66833,1,0,0:0:0:0:
261,130,66877,1,8,0:0:0:0:
261,130,67011,1,8,0:0:0:0:
465,233,67144,1,0,0:0:0:0:
361,269,67211,1,0,0:0:0:0:
261,130,67277,1,8,0:0:0:0:
361,269,67344,1,8,0:0:0:0:
261,130,67410,1,4,0:0:0:0:
361,269,67544,1,8,0:0:0:0:
361,269,67611,1,0,0:0:0:0:
261,130,67677,1,12,0:0:0:0:
361,269,67811,1,8,0:0:0:0:
361,269,67877,1,8,0:0:0:0:
261,130,67944,1,4,0:0:0:0:
221,241,68077,1,8,0:0:0:0:
261,130,68211,1,4,0:0:0:0:
279,190,68344,1,8,0:0:0:0:
174,33,68477,1,4,0:0:0:0:
247,163,68611,1,8,0:0:0:0:
247,163,68677,1,0,0:0:0:0:
225,324,68744,1,8,0:0:0:0:
181,147,68811,1,0,0:0:0:0:
221,241,68877,1,8,0:0:0:0:
181,147,68944,1,8,0:0:0:0:
225,324,69011,1,0,0:0:0:0:
101,166,69055,1,8,0:0:0:0:
249,69,69099,1,8,0:0:0:0:
225,324,69144,1,0,0:0:0:0:
181,147,69211,1,0,0:0:0:0:
225,324,69277,1,8,0:0:0:0:
101,166,69411,1,8,0:0:0:0:
303,121,69477,1,8,0:0:0:0:
225,324,69544,1,4,0:0:0:0:
225,324,69677,1,8,0:0:0:0:
421,303,69811,1,8,0:0:0:0:
225,324,69944,1,4,0:0:0:0:
101,166,70211,1,0,0:0:0:0:
101,166,70344,1,8,0:0:0:0:
266,165,70411,1,0,0:0:0:0:
259,136,70477,1,8,0:0:0:0:
259,136,70544,1,8,0:0:0:0:
244,75,70611,1,4,0:0:0:0:
271,119,70744,1,0,0:0:0:0:
211,158,70811,1,0,0:0:0:0:
244,75,70877,1,8,0:0:0:0:
238,68,70922,1,8,0:0:0:0:
244,75,70966,1,8,0:0:0:0:
190,43,71011,1,0,0:0:0:0:
119,215,71077,1,8,0:0:0:0:
119,215,71144,1,0,0:0:0:0:
119,215,71211,1,8,0:0:0:0:
244,75,71277,1,0,0:0:0:0:
283,118,71344,1,0,0:0:0:0:
244,75,71411,1,8,0:0:0:0:
178,148,71544,1,8,0:0:0:0:
178,148,71611,1,8,0:0:0:0:
244,75,71677,1,4,0:0:0:0:
186,86,71811,1,8,0:0:0:0:
186,86,71877,1,0,0:0:0:0:
244,75,71944,1,8,0:0:0:0:
244,75,72077,1,0,0:0:0:0:
421,292,72144,1,0,0:0:0:0:
244,75,72211,1,8,0:0:0:0:
244,75,72344,1,8,0:0:0:0:
244,75,72477,1,0,0:0:0:0:
250,177,72544,1,0,0:0:0:0:
386,267,72611,1,8,0:0:0:0:
174,33,72744,1,4,0:0:0:0:
313,216,72877,1,0,0:0:0:0:
313,216,72944,1,0,0:0:0:0:
225,324,73011,1,8,0:0:0:0:
217,260,73077,1,8,0:0:0:0:
335,215,73144,1,0,0:0:0:0:
217,260,73211,1,0,0:0:0:0:
335,215,73277,1,8,0:0:0:0:
335,215,73322,1,8,0:0:0:0:
172,88,73366,1,8,0:0:0:0:
225,324,73411,1,0,0:0:0:0:
175,201,73477,1,8,0:0:0:0:
225,324,73544,1,8,0:0:0:0:
503,269,73677,1,0,0:0:0:0:
175,201,73744,1,0,0:0:0:0:
225,324,73810,1,12,0:0:0:0:
225,324,73944,1,0,0:0:0:0:
330,151,74077,1,8,0:0:0:0:
225,324,74211,1,4,0:0:0:0:
465,233,74477,1,0,0:0:0:0:
465,233,74611,1,8,0:0:0:0:
254,234,74677,1,0,0:0:0:0:
465,233,74744,1,8,0:0:0:0:
465,233,74811,1,8,0:0:0:0:
206,83,74877,1,0,0:0:0:0:
249,117,74922,1,0,0:0:0:0:
249,117,74966,1,0,0:0:0:0:
465,233,75011,1,8,0:0:0:0:
261,130,75144,1,8,0:0:0:0:
261,130,75277,1,0,0:0:0:0:
282,122,75322,1,0,0:0:0:0:
282,122,75366,1,0,0:0:0:0:
261,130,75411,1,8,0:0:0:0:
261,130,75544,1,8,0:0:0:0:
465,233,75677,1,0,0:0:0:0:
361,269,75744,1,0,0:0:0:0:
261,130,75811,1,8,0:0:0:0:
361,269,75877,1,8,0:0:0:0:
261,130,75944,1,4,0:0:0:0:
361,269,76077,1,8,0:0:0:0:
361,269,76144,1,0,0:0:0:0:
261,130,76211,1,12,0:0:0:0:
361,269,76344,1,8,0:0:0:0:
361,269,76411,1,8,0:0:0:0:
261,130,76477,1,4,0:0:0:0:
221,241,76611,1,8,0:0:0:0:
261,130,76744,1,4,0:0:0:0:
279,191,76877,1,8,0:0:0:0:
174,33,77011,1,4,0:0:0:0:
247,163,77144,1,8,0:0:0:0:
247,163,77211,1,0,0:0:0:0:
225,324,77277,1,8,0:0:0:0:
181,147,77344,1,0,0:0:0:0:
221,241,77411,1,8,0:0:0:0:
181,147,77477,1,8,0:0:0:0:
225,324,77544,1,0,0:0:0:0:
101,166,77588,1,8,0:0:0:0:
249,69,77633,1,8,0:0:0:0:
225,324,77677,1,0,0:0:0:0:
181,147,77744,1,8,0:0:0:0:
225,324,77811,1,8,0:0:0:0:
101,166,77944,1,8,0:0:0:0:
303,121,78011,1,8,0:0:0:0:
225,324,78077,1,4,0:0:0:0:
225,324,78211,1,8,0:0:0:0:
421,303,78344,1,8,0:0:0:0:
225,324,78477,1,4,0:0:0:0:
101,166,78744,1,0,0:0:0:0:
101,166,78877,1,8,0:0:0:0:
259,136,79011,1,8,0:0:0:0:
259,136,79077,1,8,0:0:0:0:
244,75,79144,1,4,0:0:0:0:
271,119,79277,1,0,0:0:0:0:
241,211,79344,1,0,0:0:0:0:
244,75,79411,1,8,0:0:0:0:
197,86,79455,1,0,0:0:0:0:
197,86,79499,1,0,0:0:0:0:
244,75,79544,1,8,0:0:0:0:
119,215,79611,1,8,0:0:0:0:
119,215,79677,1,0,0:0:0:0:
119,215,79744,1,8,0:0:0:0:
257,87,79811,1,0,0:0:0:0:
257,87,79877,1,0,0:0:0:0:
244,75,79944,1,8,0:0:0:0:
257,87,80011,1,0,0:0:0:0:
257,87,80077,1,8,0:0:0:0:
257,87,80144,1,8,0:0:0:0:
244,75,80211,1,0,0:0:0:0:
285,114,80277,1,0,0:0:0:0:
186,86,80344,1,0,0:0:0:0:
186,86,80411,1,0,0:0:0:0:
244,75,80477,1,8,0:0:0:0:
308,231,80544,1,8,0:0:0:0:
261,87,80611,1,8,0:0:0:0:
421,292,80677,1,8,0:0:0:0:
269,84,80744,1,0,0:0:0:0:
269,103,80788,1,0,0:0:0:0:
260,87,80833,1,0,0:0:0:0:
244,75,80877,1,8,0:0:0:0:
210,46,80922,1,8,0:0:0:0:
210,46,80966,1,8,0:0:0:0:
244,75,81011,1,0,0:0:0:0:
134,66,81077,1,8,0:0:0:0:
386,267,81144,1,8,0:0:0:0:
357,62,81211,1,8,0:0:0:0:
174,33,81277,1,4,0:0:0:0:
225,115,81811,1,0,0:0:0:0:
225,115,81944,1,8,0:0:0:0:
225,115,82077,1,8,0:0:0:0:
137,273,82211,1,0,0:0:0:0:
308,303,82344,1,8,0:0:0:0:
74,203,82610,1,8,0:0:0:0:
308,303,82877,1,0,0:0:0:0:
225,115,83011,1,8,0:0:0:0:
308,303,83144,1,0,0:0:0:0:
137,273,83277,1,8,0:0:0:0:
308,303,83411,1,8,0:0:0:0:
192,225,83677,1,8,0:0:0:0:
308,303,83944,1,8,0:0:0:0:
225,115,84077,1,8,0:0:0:0:
308,303,84211,1,0,0:0:0:0:
137,273,84344,1,8,0:0:0:0:
308,303,84477,1,0,0:0:0:0:
192,225,84744,1,8,0:0:0:0:
192,225,85010,1,8,0:0:0:0:
192,225,85277,1,8,0:0:0:0:
254,102,85544,1,0,0:0:0:0:
202,208,85810,1,8,0:0:0:0:
180,121,86077,1,0,0:0:0:0:
180,121,86211,1,8,0:0:0:0:
254,102,86344,1,8,0:0:0:0:
137,273,86477,1,8,0:0:0:0:
254,102,86611,1,0,0:0:0:0:
202,208,86877,1,8,0:0:0:0:
254,102,87144,1,8,0:0:0:0:
180,121,87277,1,8,0:0:0:0:
254,102,87411,1,0,0:0:0:0:
137,273,87544,1,8,0:0:0:0:
254,102,87677,1,0,0:0:0:0:
202,208,87944,1,8,0:0:0:0:
145,80,88211,1,8,0:0:0:0:
145,80,88344,1,0,0:0:0:0:
123,79,88477,1,8,0:0:0:0:
137,273,88611,1,0,0:0:0:0:
254,102,88744,1,8,0:0:0:0:
202,208,89010,1,8,0:0:0:0:
254,102,89277,1,8,0:0:0:0:
254,102,89810,1,4,0:0:0:0:
272,225,90077,1,0,0:0:0:0:
254,102,90344,1,8,0:0:0:0:
55,175,90477,1,8,0:0:0:0:
176,93,90611,1,0,0:0:0:0:
219,132,90744,1,0,0:0:0:0:
176,93,90877,1,8,0:0:0:0:
272,225,91011,1,8,0:0:0:0:
272,225,91144,1,0,0:0:0:0:
272,225,91277,1,0,0:0:0:0:
272,225,91411,1,8,0:0:0:0:
159,160,91544,1,0,0:0:0:0:
159,160,91677,1,8,0:0:0:0:
159,160,91811,1,8,0:0:0:0:
194,204,91944,1,0,0:0:0:0:
194,204,92211,1,0,0:0:0:0:
194,204,92477,1,8,0:0:0:0:
155,175,92611,1,0,0:0:0:0:
155,175,92744,1,8,0:0:0:0:
159,160,92877,1,8,0:0:0:0:
155,175,93011,1,0,0:0:0:0:
155,175,93144,1,8,0:0:0:0:
155,175,93277,1,0,0:0:0:0:
155,175,93411,1,0,0:0:0:0:
155,175,93544,1,8,0:0:0:0:
283,176,93811,1,8,0:0:0:0:
263,115,93944,1,8,0:0:0:0:
155,175,94077,1,4,0:0:0:0:
214,117,94344,1,0,0:0:0:0:
214,117,94611,1,8,0:0:0:0:
214,117,94744,1,0,0:0:0:0:
214,117,94877,1,8,0:0:0:0:
214,117,95011,1,8,0:0:0:0:
214,117,95144,1,4,0:0:0:0:
237,117,95277,1,8,0:0:0:0:
214,117,95411,1,0,0:0:0:0:
237,117,95544,1,0,0:0:0:0:
214,117,95677,1,8,0:0:0:0:
214,117,95944,1,8,0:0:0:0:
214,117,96211,1,12,0:0:0:0:
237,117,96344,1,0,0:0:0:0:
214,117,96477,1,0,0:0:0:0:
214,117,96611,1,0,0:0:0:0:
214,117,96744,1,12,0:0:0:0:
214,117,97011,1,0,0:0:0:0:
214,117,97277,1,12,0:0:0:0:
228,197,97810,1,0,0:0:0:0:
277,78,97877,1,0,0:0:0:0:
277,78,97944,1,8,0:0:0:0:
212,131,98010,1,8,0:0:0:0:
212,131,98077,1,0,0:0:0:0:
212,131,98144,1,8,0:0:0:0:
206,115,98210,1,8,0:0:0:0:
221,87,98277,1,8,0:0:0:0:
214,117,98344,1,4,0:0:0:0:
139,146,98477,1,8,0:0:0:0:
139,146,98544,1,0,0:0:0:0:
309,203,98611,1,8,0:0:0:0:
431,220,98677,1,8,0:0:0:0:
431,220,98744,1,0,0:0:0:0:
431,220,98811,1,0,0:0:0:0:
431,220,98877,1,8,0:0:0:0:
206,151,98944,1,8,0:0:0:0:
139,146,99011,1,8,0:0:0:0:
139,146,99077,1,0,0:0:0:0:
325,300,99144,1,8,0:0:0:0:
424,322,99211,1,0,0:0:0:0:
325,300,99277,1,8,0:0:0:0:
139,146,99344,1,8,0:0:0:0:
325,300,99411,1,0,0:0:0:0:
208,204,99544,1,0,0:0:0:0:
139,146,99611,1,0,0:0:0:0:
325,300,99677,1,8,0:0:0:0:
219,187,99744,1,0,0:0:0:0:
193,130,99811,1,0,0:0:0:0:
219,187,99877,1,0,0:0:0:0:
219,187,99944,1,8,0:0:0:0:
248,151,100011,1,0,0:0:0:0:
128,238,100077,1,8,0:0:0:0:
248,151,100144,1,0,0:0:0:0:
206,151,100211,1,8,0:0:0:0:
225,233,100277,1,8,0:0:0:0:
128,238,100344,1,0,0:0:0:0:
206,151,100411,1,8,0:0:0:0:
206,151,100477,1,0,0:0:0:0:
206,151,100544,1,0,0:0:0:0:
208,204,100611,1,0,0:0:0:0:
206,151,100677,1,0,0:0:0:0:
265,80,100744,1,8,0:0:0:0:
219,187,100811,1,0,0:0:0:0:
219,187,100877,1,8,0:0:0:0:
219,187,100944,1,8,0:0:0:0:
265,80,101011,1,0,0:0:0:0:
206,151,101077,1,0,0:0:0:0:
265,80,101144,1,8,0:0:0:0:
365,90,101188,1,8,0:0:0:0:
365,90,101233,1,8,0:0:0:0:
128,238,101277,1,0,0:0:0:0:
396,42,101344,1,8,0:0:0:0:
128,238,101411,1,0,0:0:0:0:
303,221,101477,1,8,0:0:0:0:
128,238,101544,1,0,0:0:0:0:
206,151,101611,1,0,0:0:0:0:
194,161,101677,1,0,0:0:0:0:
206,151,101744,1,8,0:0:0:0:
194,161,101811,1,8,0:0:0:0:
194,161,101877,1,8,0:0:0:0:
194,161,101944,1,0,0:0:0:0:
338,64,102011,1,0,0:0:0:0:
221,44,102077,1,8,0:0:0:0:
263,66,102122,1,8,0:0:0:0:
316,180,102166,1,8,0:0:0:0:
316,180,102211,1,0,0:0:0:0:
321,96,102277,1,8,0:0:0:0:
130,172,102344,1,8,0:0:0:0:
316,180,102411,1,0,0:0:0:0:
321,96,102477,1,0,0:0:0:0:
321,96,102544,1,8,0:0:0:0:
130,172,102611,1,4,0:0:0:0:
325,280,102744,1,8,0:0:0:0:
325,280,102811,1,0,0:0:0:0:
130,299,102877,1,8,0:0:0:0:
271,264,103011,1,0,0:0:0:0:
343,115,103077,1,0,0:0:0:0:
130,299,103144,1,8,0:0:0:0:
343,115,103211,1,8,0:0:0:0:
343,115,103277,1,0,0:0:0:0:
343,115,103344,1,0,0:0:0:0:
343,115,103411,1,8,0:0:0:0:
130,299,103544,1,8,0:0:0:0:
343,115,103611,1,8,0:0:0:0:
44,224,103677,1,0,0:0:0:0:
343,115,103744,1,0,0:0:0:0:
188,193,103811,1,8,0:0:0:0:
354,290,103855,1,0,0:0:0:0:
217,111,103899,1,0,0:0:0:0:
44,224,103944,1,8,0:0:0:0:
44,224,104077,1,0,0:0:0:0:
186,113,104144,1,0,0:0:0:0:
186,113,104211,1,8,0:0:0:0:
314,297,104277,1,8,0:0:0:0:
134,111,104344,1,0,0:0:0:0:
186,113,104411,1,8,0:0:0:0:
117,99,104477,1,8,0:0:0:0:
117,99,104611,1,0,0:0:0:0:
117,99,104677,1,0,0:0:0:0:
217,101,104744,1,8,0:0:0:0:
221,104,104788,1,8,0:0:0:0:
251,69,104833,1,8,0:0:0:0:
185,186,104877,1,0,0:0:0:0:
251,69,104922,1,0,0:0:0:0:
251,69,104966,1,0,0:0:0:0:
251,69,105011,1,8,0:0:0:0:
276,128,105144,1,0,0:0:0:0:
276,128,105211,1,8,0:0:0:0:
197,127,105277,1,8,0:0:0:0:
197,127,105344,1,8,0:0:0:0:
217,95,105411,1,0,0:0:0:0:
399,322,105477,1,0,0:0:0:0:
217,95,105544,1,8,0:0:0:0:
271,119,105611,1,8,0:0:0:0:
217,95,105677,1,0,0:0:0:0:
197,127,105744,1,0,0:0:0:0:
217,95,105811,1,12,0:0:0:0:
217,95,106077,1,0,0:0:0:0:
217,95,106211,1,12,0:0:0:0:
193,80,106477,1,0,0:0:0:0:
193,80,106611,1,8,0:0:0:0:
193,80,106677,1,0,0:0:0:0:
250,89,106744,1,8,0:0:0:0:
322,107,106811,1,8,0:0:0:0:
193,80,106877,1,4,0:0:0:0:
262,262,107010,1,8,0:0:0:0:
262,262,107077,1,0,0:0:0:0:
170,227,107144,1,8,0:0:0:0:
262,262,107211,1,8,0:0:0:0:
272,97,107277,1,0,0:0:0:0:
337,120,107344,1,0,0:0:0:0:
272,97,107411,1,12,0:0:0:0:
335,131,107544,1,8,0:0:0:0:
200,150,107611,1,4,0:0:0:0:
206,42,107744,1,8,0:0:0:0:
223,144,107811,1,4,0:0:0:0:
223,144,107944,1,12,0:0:0:0:
203,49,108077,1,8,0:0:0:0:
229,146,108144,1,4,0:0:0:0:
428,86,108277,1,8,0:0:0:0:
208,224,108344,1,4,0:0:0:0:
185,78,108477,1,12,0:0:0:0:
229,146,108611,1,4,0:0:0:0:
159,84,108744,1,12,0:0:0:0:
229,146,108877,1,12,0:0:0:0:
229,146,109011,1,4,0:0:0:0:
357,266,109144,1,0,0:0:0:0:
357,266,109211,1,8,0:0:0:0:
365,253,109277,1,0,0:0:0:0:
267,117,109322,1,0,0:0:0:0:
365,253,109366,1,0,0:0:0:0:
365,253,109411,1,8,0:0:0:0:
213,200,109477,1,0,0:0:0:0:
306,113,109544,1,8,0:0:0:0:
306,113,109611,1,0,0:0:0:0:
337,244,109677,1,0,0:0:0:0:
306,113,109744,1,0,0:0:0:0:
337,244,109811,1,8,0:0:0:0:
306,113,109877,1,0,0:0:0:0:
213,200,109944,1,8,0:0:0:0:
306,113,110011,1,8,0:0:0:0:
337,244,110077,1,0,0:0:0:0:
213,200,110144,1,0,0:0:0:0:
337,244,110211,1,8,0:0:0:0:
213,200,110277,1,0,0:0:0:0:
337,244,110344,1,8,0:0:0:0:
306,113,110411,1,8,0:0:0:0:
337,244,110477,1,0,0:0:0:0:
112,171,110544,1,0,0:0:0:0:
337,100,110611,1,8,0:0:0:0:
209,43,110655,1,8,0:0:0:0:
112,171,110699,1,8,0:0:0:0:
248,173,110744,1,0,0:0:0:0:
384,55,110811,1,8,0:0:0:0:
337,244,110877,1,8,0:0:0:0:
384,55,110944,1,0,0:0:0:0:
337,244,111011,1,8,0:0:0:0:
328,199,111077,1,8,0:0:0:0:
337,244,111144,1,4,0:0:0:0:
336,106,111277,1,8,0:0:0:0:
336,106,111344,1,0,0:0:0:0:
337,244,111411,1,8,0:0:0:0:
237,98,111477,1,0,0:0:0:0:
410,355,111544,1,0,0:0:0:0:
237,98,111611,1,8,0:0:0:0:
337,244,111677,1,8,0:0:0:0:
494,363,111744,1,0,0:0:0:0:
337,244,111811,1,0,0:0:0:0:
494,363,111877,1,0,0:0:0:0:
337,244,111944,1,8,0:0:0:0:
263,113,112011,1,8,0:0:0:0:
337,244,112077,1,0,0:0:0:0:
173,93,112144,1,8,0:0:0:0:
173,93,112211,1,4,0:0:0:0:
173,93,112344,1,8,0:0:0:0:
173,93,112411,1,0,0:0:0:0:
337,244,112477,1,8,0:0:0:0:
173,86,112544,1,8,0:0:0:0:
337,244,112611,1,0,0:0:0:0:
173,86,112677,1,0,0:0:0:0:
173,86,112744,1,8,0:0:0:0:
265,144,112811,1,8,0:0:0:0:
337,244,112877,1,0,0:0:0:0:
244,148,112944,1,0,0:0:0:0:
337,244,113011,1,8,0:0:0:0:
365,104,113077,1,0,0:0:0:0:
244,148,113144,1,8,0:0:0:0:
217,87,113211,1,0,0:0:0:0:
244,148,113277,1,8,0:0:0:0:
250,56,113322,1,8,0:0:0:0:
204,41,113366,1,8,0:0:0:0:
262,57,113411,1,0,0:0:0:0:
364,98,113455,1,0,0:0:0:0:
244,148,113499,1,0,0:0:0:0:
244,148,113544,1,8,0:0:0:0:
254,68,113611,1,0,0:0:0:0:
310,260,113677,1,8,0:0:0:0:
407,118,113744,1,8,0:0:0:0:
310,260,113811,1,0,0:0:0:0:
310,260,113877,1,8,0:0:0:0:
310,260,113944,1,0,0:0:0:0:
407,118,114011,1,0,0:0:0:0:
388,317,114077,1,8,0:0:0:0:
299,118,114122,1,8,0:0:0:0:
243,218,114166,1,8,0:0:0:0:
388,317,114211,1,8,0:0:0:0:
221,57,114255,1,8,0:0:0:0:
238,82,114299,1,8,0:0:0:0:
193,217,114344,1,4,0:0:0:0:
289,164,114611,1,12,0:0:0:0:
289,164,114877,1,4,0:0:0:0:
144,171,115410,1,8,0:0:0:0:
225,115,115944,1,0,0:0:0:0:
225,115,116077,1,8,0:0:0:0:
225,115,116211,1,8,0:0:0:0:
296,292,116344,1,0,0:0:0:0:
308,303,116477,1,8,0:0:0:0:
308,303,117011,1,0,0:0:0:0:
225,115,117144,1,8,0:0:0:0:
308,303,117277,1,0,0:0:0:0:
296,292,117411,1,8,0:0:0:0:
308,303,117544,1,8,0:0:0:0:
308,303,118077,1,8,0:0:0:0:
225,115,118211,1,8,0:0:0:0:
308,303,118344,1,0,0:0:0:0:
296,292,118477,1,8,0:0:0:0:
308,303,118611,1,0,0:0:0:0:
245,245,119677,1,8,0:0:0:0:
245,245,119944,1,0,0:0:0:0:
301,297,120077,1,8,0:0:0:0:
180,121,120211,1,0,0:0:0:0:
180,121,120344,1,8,0:0:0:0:
254,102,120477,1,8,0:0:0:0:
301,297,120611,1,0,0:0:0:0:
215,203,120744,1,8,0:0:0:0:
187,272,121011,1,0,0:0:0:0:
254,102,121277,1,8,0:0:0:0:
215,203,121411,1,0,0:0:0:0:
215,203,121544,1,8,0:0:0:0:
176,224,121677,1,0,0:0:0:0:
176,224,121811,1,8,0:0:0:0:
368,292,122077,1,0,0:0:0:0:
145,80,122344,1,8,0:0:0:0:
179,177,122477,1,8,0:0:0:0:
179,177,122611,1,0,0:0:0:0:
176,224,122744,1,0,0:0:0:0:
254,102,122877,1,8,0:0:0:0:
254,102,123410,1,8,0:0:0:0:
330,283,123477,1,0,0:0:0:0:
187,272,123544,1,8,0:0:0:0:
266,260,123610,1,0,0:0:0:0:
187,272,123677,1,8,0:0:0:0:
330,283,123744,1,8,0:0:0:0:
187,272,123810,1,8,0:0:0:0:
330,283,123877,1,8,0:0:0:0:
254,102,123944,1,4,0:0:0:0:
