osu file format v14

[General]
AudioFilename: audio.mp3
AudioLeadIn: 0
PreviewTime: 47020
Countdown: 0
SampleSet: Normal
StackLeniency: 0.7
Mode: 1
LetterboxInBreaks: 0
WidescreenStoryboard: 0

[Editor]
Bookmarks: 211,17277,25811,30077,32211,34344,40744,47144,64210,81277,89810,98344,114877,115410,123944
DistanceSpacing: 1.4
BeatDivisor: 4
GridSize: 32
TimelineZoom: 2.5

[Metadata]
Title:DESPERATE DEATHPARADE
TitleUnicode:DESPERATE DEATHPARADE
Artist:69 de 74
ArtistUnicode:69 de 74
Creator:KyeX
Version:SAVAGE
Source:BOFU2017 - LEGENDA EST A MYTH -
Tags:electronic instrumental featured artist fa breakcore speedcore amen break classical renaissance BMS of Fighters Ultimate mappers' mappers guild mpg mg
BeatmapID:3890447
BeatmapSetID:1889017

[Difficulty]
HPDrainRate:6
CircleSize:3
OverallDifficulty:7
ApproachRate:10
SliderMultiplier:1.4
SliderTickRate:1

[Events]
//Background and Video events
0,0,"bg.jpg",0,-70
//Break Periods
//Storyboard Layer 0 (Background)
//Storyboard Layer 1 (Fail)
//Storyboard Layer 2 (Pass)
//Storyboard Layer 3 (Foreground)
//Storyboard Layer 4 (Overlay)
//Storyboard Sound Samples

[TimingPoints]
221,266.666666666667,4,1,0,80,1,0
221,-129.032258064516,4,1,0,80,0,0
3618,-129.032258064516,4,1,0,70,0,0
3918,-129.032258064516,4,1,0,60,0,0
4184,-129.032258064516,4,1,0,50,0,0
4421,-129.032258064516,4,1,0,80,0,0
8751,-125,4,1,0,80,0,0
12188,-125,4,1,0,70,0,0
12454,-125,4,1,0,60,0,0
12721,-125,4,1,0,50,0,0
12988,-125,4,1,0,80,0,0
16751,-83.333336,4,1,0,80,0,0
16818,-85.26527,4,1,0,80,0,0
16884,-87.21214,4,1,0,80,0,0
16951,-89.233986,4,1,0,80,0,0
17018,-91.30271,4,1,0,80,0,0
17084,-93.387436,4,1,0,80,0,0
17151,-95.55245,4,1,0,80,0,0
17218,-97.76765,4,1,0,80,0,0
17284,-100,4,1,0,90,0,0
17484,-97.051575,4,1,0,90,0,0
17684,-94.19009,4,1,0,90,0,0
17951,-90.50105,4,1,0,90,0,0
18084,-88.71772,4,1,0,90,0,0
18218,-86.95651,4,1,0,90,0,0
18351,-100,4,1,0,90,0,0
19418,-100,4,1,0,90,0,0
19484,-98.71855,4,1,0,90,0,0
19551,-97.43447,4,1,0,90,0,0
19618,-96.1671,4,1,0,90,0,0
19684,-94.93477,4,1,0,90,0,0
19951,-90.10848,4,1,0,90,0,0
20151,-86.654724,4,1,0,90,0,0
20351,-83.333336,4,1,0,90,0,0
20484,-100,4,1,0,90,0,0
21284,-95.2381,4,1,0,90,0,0
21351,-96.411285,4,1,0,90,0,0
21418,-97.59892,4,1,0,90,0,0
21484,-98.78314,4,1,0,90,0,0
21551,-100,4,1,0,90,0,0
21751,-97.04846,4,1,0,90,0,0
21951,-94.184044,4,1,0,90,0,0
22218,-90.49138,4,1,0,90,0,0
22351,-88.70634,4,1,0,90,0,0
22484,-86.95651,4,1,0,90,0,0
22618,-100,4,1,0,90,0,0
23684,-100,4,1,0,90,0,0
23751,-98.700645,4,1,0,90,0,0
23818,-97.41817,4,1,0,90,0,0
23884,-96.17113,4,1,0,90,0,0
23951,-94.921524,4,1,0,90,0,0
24218,-90.100945,4,1,0,90,0,0
24418,-86.6511,4,1,0,90,0,0
24618,-83.333336,4,1,0,90,0,0
24751,-100,4,1,0,90,0,0
25551,-95.2381,4,1,0,90,0,0
25618,-96.411285,4,1,0,90,0,0
25684,-97.581085,4,1,0,90,0,0
25751,-98.78314,4,1,0,90,0,0
25818,-100,4,1,0,90,0,0
26018,-99.88577,4,1,0,90,0,0
26218,-99.35729,4,1,0,90,0,0
26484,-97.73839,4,1,0,90,0,0
26618,-96.46992,4,1,0,90,0,0
26751,-94.89923,4,1,0,90,0,0
26884,-93.023254,4,1,0,90,0,0
27084,-92.92464,4,1,0,90,0,0
27284,-92.46813,4,1,0,90,0,0
27551,-91.06041,4,1,0,90,0,0
27684,-89.96795,4,1,0,90,0,0
27818,-88.592224,4,1,0,90,0,0
27951,-86.956505,4,1,0,90,0,0
28151,-86.87033,4,1,0,90,0,0
28351,-86.47125,4,1,0,90,0,0
28618,-85.238976,4,1,0,90,0,0
28751,-84.281,4,1,0,90,0,0
28884,-83.08246,4,1,0,90,0,0
29018,-81.63265,4,1,0,90,0,0
29218,-81.55652,4,1,0,90,0,0
29418,-81.20385,4,1,0,90,0,0
29684,-80.11924,4,1,0,90,0,0
29818,-79.2649,4,1,0,90,0,0
29951,-78.201416,4,1,0,90,0,0
30084,-76.92308,4,1,0,90,0,0
30218,-83.333336,4,1,0,90,0,0
30284,-83.11352,4,1,0,90,0,0
30351,-82.89095,4,1,0,90,0,0
30484,-82.4509,4,1,0,90,0,0
30618,-75.7940555665148,4,1,0,90,0,0
30751,-81.57454,4,1,0,90,0,0
30818,-81.35611,4,1,0,90,0,0
30884,-81.1415,4,1,0,90,0,0
31018,-80.707504,4,1,0,90,0,0
31151,-74.3132483885219,4,1,0,90,0,0
31284,-79.85288,4,1,0,90,0,0
31351,-79.63903,4,1,0,90,0,0
31418,-79.42579,4,1,0,90,0,0
31484,-79.216255,4,1,0,90,0,0
31551,-79.004135,4,1,0,90,0,0
31684,-72.8591160381067,4,1,0,90,0,0
31818,-78.16441,4,1,0,90,0,0
31884,-77.95823,4,1,0,90,0,0
31951,-77.749466,4,1,0,90,0,0
32018,-77.54127,4,1,0,90,0,0
32084,-77.336716,4,1,0,90,0,0
32218,-71.428566,4,1,0,90,0,0
32351,-73.28277,4,1,0,90,0,0
32418,-74.234985,4,1,0,90,0,0
32551,-76.16203,4,1,0,90,0,0
32618,-77.151665,4,1,0,90,0,0
32884,-81.209175,4,1,0,90,0,0
33018,-83.33332,4,1,0,90,0,0
33151,-86.95651,4,1,0,90,0,0
33195,-86.61526,4,1,0,90,0,0
33240,-86.26762,4,1,0,90,0,0
33284,-85.92906,4,1,0,90,0,0
33351,-85.41608,4,1,0,90,0,0
33418,-84.90615,4,1,0,90,0,0
33484,-84.40682,4,1,0,90,0,0
33551,-83.902916,4,1,0,90,0,0
33618,-83.40202,4,1,0,90,0,0
33684,-82.911545,4,1,0,90,0,0
33751,-82.41657,4,1,0,90,0,0
33818,-81.92456,4,1,0,90,0,0
33884,-81.44275,4,1,0,90,0,0
33951,-80.95655,4,1,0,90,0,0
34018,-80.47326,4,1,0,90,0,0
34084,-79.999985,4,1,0,90,0,0
34354,266.666666666667,3,1,0,80,1,0
34354,-100,3,1,0,80,0,0
34484,-100.4648,3,1,0,80,0,0
34617,-100.931755,3,1,0,80,0,0
34751,-101.40442,3,1,0,80,0,0
34884,-101.87574,3,1,0,80,0,0
35017,-102.34926,3,1,0,80,0,0
35151,-102.82856,3,1,0,80,0,0
35284,-103.3065,3,1,0,80,0,0
35417,-103.786674,3,1,0,80,0,0
35551,-104.272705,3,1,0,80,0,0
35684,-104.75736,3,1,0,80,0,0
35817,-105.24427,3,1,0,80,0,0
35951,-105.73713,3,1,0,80,0,0
36084,-106.228584,3,1,0,80,0,0
36217,-106.722336,3,1,0,80,0,0
36351,-107.222115,3,1,0,80,0,0
36484,-107.72048,3,1,0,80,0,0
36617,-108.22116,3,1,0,80,0,0
36751,-108.72796,3,1,0,80,0,0
36884,-109.23333,3,1,0,80,0,0
37017,-109.74104,3,1,0,80,0,0
37151,-110.25496,3,1,0,80,0,0
37284,-110.767426,3,1,0,80,0,0
37351,-111.02648,3,1,0,80,0,0
37417,-111.282265,3,1,0,80,0,0
37484,-111.54253,3,1,0,80,0,0
37551,-111.8034,3,1,0,80,0,0
37684,-112.32305,3,1,0,80,0,0
37817,-112.84513,3,1,0,80,0,0
37951,-113.37359,3,1,0,80,0,0
38084,-113.90054,3,1,0,80,0,0
38217,-114.429955,3,1,0,80,0,0
38351,-114.96583,3,1,0,80,0,0
38484,-115.50018,3,1,0,80,0,0
38617,-116.03701,3,1,0,80,0,0
38751,-116.580414,3,1,0,80,0,0
38884,-117.122284,3,1,0,80,0,0
39017,-117.66667,3,1,0,80,0,0
39151,-118.2177,3,1,0,80,0,0
39284,-118.76717,3,1,0,80,0,0
39417,-119.3192,3,1,0,80,0,0
39551,-119.877975,3,1,0,80,0,0
39684,-120.43516,3,1,0,80,0,0
39817,-120.994934,3,1,0,80,0,0
39951,-121.561554,3,1,0,80,0,0
40084,-122.12657,3,1,0,80,0,0
40217,-122.69421,3,1,0,80,0,0
40351,-123.26878,3,1,0,80,0,0
40484,-123.84174,3,1,0,80,0,0
40551,-124.13138,3,1,0,80,0,0
40617,-124.41735,3,1,0,80,0,0
40684,-124.708336,3,1,0,80,0,0
40751,-125,3,1,0,80,0,0
40884,-124.99729,3,1,0,80,0,0
40951,-124.99246,3,1,0,80,0,0
41017,-124.984634,3,1,0,80,0,0
41151,-124.957405,3,1,0,80,0,0
41284,-124.91272,3,1,0,80,0,0
41417,-124.847755,3,1,0,80,0,0
41484,-124.806595,3,1,0,80,0,0
41551,-124.759415,3,1,0,80,0,0
41684,-124.64693,3,1,0,80,0,0
41817,-124.50789,3,1,0,80,0,0
41951,-124.33926,3,1,0,80,0,0
42084,-124.14205,3,1,0,80,0,0
42151,-124.031006,3,1,0,80,0,0
42217,-123.913765,3,1,0,80,0,0
42351,-123.65114,3,1,0,80,0,0
42484,-123.35703,3,1,0,80,0,0
42551,-123.19596,3,1,0,80,0,0
42617,-123.028694,3,1,0,80,0,0
42751,-122.66246,3,1,0,80,0,0
42884,-122.26321,3,1,0,80,0,0
43017,-121.82776,3,1,0,80,0,0
43084,-121.59457,3,1,0,80,0,0
43151,-121.35208,3,1,0,80,0,0
43284,-120.84301,3,1,0,80,0,0
43417,-120.297,3,1,0,80,0,0
43484,-120.00795,3,1,0,80,0,0
43551,-119.709526,3,1,0,80,0,0
43617,-119.40645,3,1,0,80,0,0
43684,-119.08951,3,1,0,80,0,0
43817,-118.432915,3,1,0,80,0,0
43951,-117.734764,3,1,0,80,0,0
44084,-117.00596,3,1,0,80,0,0
44151,-116.62546,3,1,0,80,0,0
44217,-116.242004,3,1,0,80,0,0
44351,-115.43746,3,1,0,80,0,0
44484,-114.60513,3,1,0,80,0,0
44617,-113.74001,3,1,0,80,0,0
44684,-113.29209,3,1,0,80,0,0
44751,-112.83622,3,1,0,80,0,0
44884,-111.9083,3,1,0,80,0,0
45017,-110.950775,3,1,0,80,0,0
45084,-110.457565,3,1,0,80,0,0
45151,-109.957306,3,1,0,80,0,0
45217,-109.45777,3,1,0,80,0,0
45284,-108.94399,3,1,0,80,0,0
45417,-107.904854,3,1,0,80,0,0
45551,-106.83317,3,1,0,80,0,0
45684,-105.74635,3,1,0,80,0,0
45751,-105.19058,3,1,0,80,0,0
45817,-104.63792,3,1,0,80,0,0
45951,-103.50081,3,1,0,80,0,0
46084,-102.35348,3,1,0,80,0,0
46151,-101.76891,3,1,0,80,0,0
46217,-101.18901,3,1,0,80,0,0
46284,-100.59639,3,1,0,80,0,0
46351,-100,3,1,0,80,0,0
46617,-96.88062,3,1,0,80,0,0
46884,-93.84737,3,1,0,80,0,0
47154,266.666666666667,4,1,0,90,1,0
47154,-90.90909,4,1,0,90,0,0
54617,-90.90909,4,1,0,90,0,0
54684,-90.65569,4,1,0,90,0,0
54751,-90.403,4,1,0,90,0,0
54817,-90.15477,4,1,0,90,0,0
54884,-89.90348,4,1,0,90,0,0
54951,-89.65288,4,1,0,90,0,0
55017,-89.406715,4,1,0,90,0,0
55084,-89.15751,4,1,0,90,0,0
55151,-88.90898,4,1,0,90,0,0
55217,-88.664856,4,1,0,90,0,0
55284,-88.41772,4,1,0,90,0,0
55351,-88.171265,4,1,0,90,0,0
55417,-87.92917,4,1,0,90,0,0
55484,-87.684074,4,1,0,90,0,0
55551,-87.43966,4,1,0,90,0,0
55617,-87.199585,4,1,0,90,0,0
55684,-86.95651,4,1,0,90,0,0
55751,-90.90909,4,1,0,90,0,0
63150,-90.916664,4,1,0,90,0,0
63217,-90.41007,4,1,0,90,0,0
63284,-89.90629,4,1,0,90,0,0
63351,-89.40531,4,1,0,90,0,0
63417,-88.91454,4,1,0,90,0,0
63484,-88.4191,4,1,0,90,0,0
63551,-87.92642,4,1,0,90,0,0
63617,-87.44377,4,1,0,90,0,0
63684,-86.95651,4,1,0,90,0,0
63950,-100,4,1,0,90,0,0
64017,-97.636696,4,1,0,90,0,0
64084,-95.32924,4,1,0,90,0,0
64150,-93.10955,4,1,0,90,0,0
64217,-90.90909,4,1,0,90,0,0
64751,-86.95651,4,1,0,90,0,0
64795,-87.59826,4,1,0,90,0,0
64839,-88.244736,4,1,0,90,0,0
64884,-88.91084,4,1,0,90,0,0
64951,-89.91193,4,1,0,90,0,0
65017,-90.90909,4,1,0,90,0,0
66351,-86.95651,4,1,0,90,0,0
66395,-88.244736,4,1,0,90,0,0
66439,-89.55204,4,1,0,90,0,0
66484,-90.90909,4,1,0,90,0,0
66751,-86.95651,4,1,0,90,0,0
66795,-88.244736,4,1,0,90,0,0
66839,-89.55204,4,1,0,90,0,0
66884,-90.90909,4,1,0,90,0,0
67284,-90.90909,4,1,0,90,0,0
67351,-90.68374,4,1,0,90,0,0
67417,-90.46231,4,1,0,90,0,0
67484,-90.23806,4,1,0,90,0,0
67551,-90.01439,4,1,0,90,0,0
67617,-89.79458,4,1,0,90,0,0
67684,-89.57199,4,1,0,90,0,0
67751,-89.34997,4,1,0,90,0,0
67817,-89.13179,4,1,0,90,0,0
67884,-88.91085,4,1,0,90,0,0
67951,-88.69045,4,1,0,90,0,0
68017,-88.473885,4,1,0,90,0,0
68084,-88.25457,4,1,0,90,0,0
68151,-88.0358,4,1,0,90,0,0
68217,-87.82083,4,1,0,90,0,0
68284,-87.60314,4,1,0,90,0,0
68351,-87.385994,4,1,0,90,0,0
68417,-87.17261,4,1,0,90,0,0
68484,-86.95651,4,1,0,90,0,0
68551,-90.90909,4,1,0,90,0,0
69017,-86.95651,4,1,0,90,0,0
69062,-87.61043,4,1,0,90,0,0
69106,-88.25457,4,1,0,90,0,0
69151,-88.918236,4,1,0,90,0,0
69217,-89.900665,4,1,0,90,0,0
69284,-90.90909,4,1,0,90,0,0
73284,-86.95651,4,1,0,90,0,0
73328,-87.59584,4,1,0,90,0,0
73372,-88.23987,4,1,0,90,0,0
73417,-88.90344,4,1,0,90,0,0
73484,-89.900665,4,1,0,90,0,0
73550,-90.89395,4,1,0,90,0,0
74884,-86.95651,4,1,0,90,0,0
74928,-88.23987,4,1,0,90,0,0
74972,-89.542175,4,1,0,90,0,0
75017,-90.89395,4,1,0,90,0,0
75284,-86.95651,4,1,0,90,0,0
75328,-88.23987,4,1,0,90,0,0
75372,-89.542175,4,1,0,90,0,0
75417,-90.89395,4,1,0,90,0,0
75817,-90.89395,4,1,0,90,0,0
75884,-90.66948,4,1,0,90,0,0
75950,-90.448906,4,1,0,90,0,0
76017,-90.22554,4,1,0,90,0,0
76084,-90.00273,4,1,0,90,0,0
76150,-89.783775,4,1,0,90,0,0
76217,-89.56205,4,1,0,90,0,0
76284,-89.34087,4,1,0,90,0,0
76350,-89.12353,4,1,0,90,0,0
76417,-88.90344,4,1,0,90,0,0
76484,-88.68388,4,1,0,90,0,0
76550,-88.46815,4,1,0,90,0,0
76617,-88.24967,4,1,0,90,0,0
76684,-88.03173,4,1,0,90,0,0
76750,-87.817566,4,1,0,90,0,0
76817,-87.600716,4,1,0,90,0,0
76884,-87.384384,4,1,0,90,0,0
76950,-87.17179,4,1,0,90,0,0
77017,-86.95651,4,1,0,90,0,0
77084,-90.89395,4,1,0,90,0,0
77550,-86.94204,4,1,0,90,0,0
77595,-87.59584,4,1,0,90,0,0
77639,-88.23987,4,1,0,90,0,0
77684,-88.90344,4,1,0,90,0,0
77750,-89.8857,4,1,0,90,0,0
77817,-90.89395,4,1,0,90,0,0
79284,-90.89395,4,1,0,90,0,0
79351,-90.84332,4,1,0,90,0,0
79417,-90.752495,4,1,0,90,0,0
79462,-90.675125,4,1,0,90,0,0
79506,-90.58945,4,1,0,90,0,0
79551,-90.49274,4,1,0,90,0,0
79617,-90.3361,4,1,0,90,0,0
79684,-90.16096,4,1,0,90,0,0
79751,-89.97123,4,1,0,90,0,0
79817,-89.77136,4,1,0,90,0,0
79884,-89.55639,4,1,0,90,0,0
79951,-89.33016,4,1,0,90,0,0
80017,-89.097115,4,1,0,90,0,0
80084,-88.85086,4,1,0,90,0,0
80151,-88.59553,4,1,0,90,0,0
80217,-88.33567,4,1,0,90,0,0
80284,-88.06394,4,1,0,90,0,0
80351,-87.7847,4,1,0,90,0,0
80417,-87.50272,4,1,0,90,0,0
80484,-87.20988,4,1,0,90,0,0
80551,-86.91078,4,1,0,90,0,0
80617,-86.61038,4,1,0,90,0,0
80684,-86.299934,4,1,0,90,0,0
80751,-85.98425,4,1,0,90,0,0
80795,-85.774254,4,1,0,90,0,0
80839,-85.562225,4,1,0,90,0,0
80884,-85.34335,4,1,0,90,0,0
80951,-85.01386,4,1,0,90,0,0
81017,-84.6853,4,1,0,90,0,0
81062,-84.45916,4,1,0,90,0,0
81106,-84.23642,4,1,0,90,0,0
81151,-84.007065,4,1,0,90,0,0
81195,-83.78134,4,1,0,90,0,0
81239,-83.554245,4,1,0,90,0,0
81284,-83.32061,4,1,0,90,0,0
81546,-111.11111,4,1,0,80,0,0
81812,-112.471596,4,1,0,80,0,0
81946,-113.15548,4,1,0,80,0,0
82080,-113.848724,4,1,0,80,0,0
82213,-114.54099,4,1,0,80,0,0
82346,-115.23748,4,1,0,80,0,0
82613,-116.648476,4,1,0,80,0,0
82880,-118.07677,4,1,0,80,0,0
83013,-118.79474,4,1,0,80,0,0
83146,-119.51709,4,1,0,80,0,0
83280,-120.24929,4,1,0,80,0,0
83413,-120.98048,4,1,0,80,0,0
83680,-122.461815,4,1,0,80,0,0
83946,-123.95562,4,1,0,80,0,0
84080,-124.71502,4,1,0,80,0,0
84213,-125.47338,4,1,0,80,0,0
84346,-126.23633,4,1,0,80,0,0
84480,-127.009705,4,1,0,80,0,0
84717,-128.55899,4,1,0,70,0,0
84984,-130.1331,4,1,0,60,0,0
85251,-131.7265,4,1,0,50,0,0
85517,-133.33333,4,1,0,80,0,0
89814,-125,4,1,0,80,0,0
97817,-76.92307,4,1,0,80,0,0
97884,-78.1155,4,1,0,80,0,0
97951,-79.32642,4,1,0,80,0,0
98017,-80.53761,4,1,0,80,0,0
98084,-81.78607,4,1,0,80,0,0
98151,-83.053894,4,1,0,80,0,0
98217,-84.322,4,1,0,80,0,0
98284,-85.62913,4,1,0,80,0,0
98354,-86.95651,4,1,0,95,0,1
104751,-79.999985,4,1,0,95,0,1
104795,-81.11102,4,1,0,95,0,1
104839,-82.237495,4,1,0,95,0,1
104884,-83.405754,4,1,0,95,0,1
104928,-84.56409,4,1,0,95,0,1
104973,-85.76539,4,1,0,95,0,1
105017,-86.956505,4,1,0,95,0,1
106617,-83.333336,4,1,0,95,0,1
106684,-84.22808,4,1,0,95,0,1
106751,-85.13243,4,1,0,95,0,1
106817,-86.03278,4,1,0,95,0,1
106884,-86.956505,4,1,0,95,0,1
107017,-86.956505,4,1,0,95,0,1
107084,-86.28388,4,1,0,95,0,1
107151,-85.61645,4,1,0,95,0,1
107217,-84.96402,4,1,0,95,0,1
107284,-84.30681,4,1,0,95,0,1
107328,-83.87797,4,1,0,95,0,1
107373,-83.44163,4,1,0,95,0,1
107417,-83.0172,4,1,0,95,0,1
107617,-81.11497,4,1,0,95,0,1
107817,-79.25635,4,1,0,95,0,1
107951,-78.034935,4,1,0,95,0,1
108151,-76.24688,4,1,0,95,0,1
108351,-74.499794,4,1,0,95,0,1
108484,-73.3602,4,1,0,95,0,1
108617,-72.23803,4,1,0,95,0,1
108751,-71.12479,4,1,0,95,0,1
108884,-70.03683,4,1,0,95,0,1
109017,-68.9655,4,1,0,95,0,1
109151,-74.07406,4,1,0,95,0,1
109217,-74.46705,4,1,0,95,0,1
109284,-74.86812,4,1,0,95,0,1
109328,-75.13268,4,1,0,95,0,1
109373,-75.404236,4,1,0,95,0,1
109417,-75.67069,4,1,0,95,0,1
109484,-76.078255,4,1,0,95,0,1
109551,-76.488,4,1,0,95,0,1
109617,-76.8938,4,1,0,95,0,1
109684,-77.30794,4,1,0,95,0,1
109751,-77.72431,4,1,0,95,0,1
109817,-78.13667,4,1,0,95,0,1
109884,-78.55751,4,1,0,95,0,1
109951,-78.98061,4,1,0,95,0,1
110017,-79.399635,4,1,0,95,0,1
110084,-79.82727,4,1,0,95,0,1
110151,-80.25722,4,1,0,95,0,1
110217,-80.683,4,1,0,95,0,1
110284,-81.11755,4,1,0,95,0,1
110351,-81.55445,4,1,0,95,0,1
110417,-81.98713,4,1,0,95,0,1
110484,-82.428696,4,1,0,95,0,1
110551,-82.87266,4,1,0,95,0,1
110617,-83.312325,4,1,0,95,0,1
110662,-83.61344,4,1,0,95,0,1
110706,-83.90891,4,1,0,95,0,1
110751,-84.212166,4,1,0,95,0,1
110817,-84.65894,4,1,0,95,0,1
110884,-85.11492,4,1,0,95,0,1
110951,-85.573326,4,1,0,95,0,1
111017,-86.02733,4,1,0,95,0,1
111084,-86.49066,4,1,0,95,0,1
111151,-86.9565,4,1,0,95,0,1
112751,-86.9565,4,1,0,95,0,1
112817,-86.89481,4,1,0,95,0,1
112884,-86.780266,4,1,0,95,0,1
112951,-86.63206,4,1,0,95,0,1
113017,-86.45986,4,1,0,95,0,1
113084,-86.262436,4,1,0,95,0,1
113151,-86.045074,4,1,0,95,0,1
113217,-85.81352,4,1,0,95,0,1
113284,-85.56245,4,1,0,95,0,1
113328,-85.38947,4,1,0,95,0,1
113373,-85.2064,4,1,0,95,0,1
113417,-85.02165,4,1,0,95,0,1
113484,-84.73012,4,1,0,95,0,1
113551,-84.42706,4,1,0,95,0,1
113617,-84.1181,4,1,0,95,0,1
113684,-83.79462,4,1,0,95,0,1
113751,-83.46193,4,1,0,95,0,1
113817,-83.1258,4,1,0,95,0,1
113884,-82.77667,4,1,0,95,0,1
113951,-82.420105,4,1,0,95,0,1
114017,-82.0621,4,1,0,95,0,1
114084,-81.6923,4,1,0,95,0,1
114128,-81.446175,4,1,0,95,0,1
114173,-81.19191,4,1,0,95,0,1
114217,-80.940956,4,1,0,95,0,1
114262,-80.682,4,1,0,95,0,1
114306,-80.426674,4,1,0,95,0,1
114351,-80.16348,4,1,0,95,0,1
114417,-79.77393,4,1,0,95,0,1
114484,-79.37448,4,1,0,95,0,1
114551,-78.97133,4,1,0,95,0,1
114617,-78.570885,4,1,0,95,0,1
114684,-78.1613,4,1,0,95,0,1
114751,-77.748924,4,1,0,95,0,1
114817,-77.340225,4,1,0,95,0,1
114887,-76.92308,4,1,0,95,0,0
115417,-142.857142857143,4,1,0,50,0,0
123417,-83.39005,4,1,0,95,0,0
123484,-85.31235,4,1,0,95,0,0
123551,-87.27895,4,1,0,95,0,0
123617,-89.26053,4,1,0,95,0,0
123684,-91.31815,4,1,0,95,0,0
123751,-93.42321,4,1,0,95,0,0
123817,-95.54429,4,1,0,95,0,0
123884,-97.74676,4,1,0,95,0,0
123951,-100,4,1,0,95,0,0

[HitObjects]
256,192,221,5,8,0:0:0:0:
256,192,487,1,0,0:0:0:0:
256,192,754,1,8,0:0:0:0:
256,192,887,1,8,0:0:0:0:
256,192,1021,1,0,0:0:0:0:
256,192,1154,1,0,0:0:0:0:
256,192,1287,1,8,0:0:0:0:
256,192,1554,1,0,0:0:0:0:
256,192,1821,1,8,0:0:0:0:
256,192,1954,1,0,0:0:0:0:
256,192,2087,1,8,0:0:0:0:
256,192,2221,1,0,0:0:0:0:
256,192,2354,1,8,0:0:0:0:
256,192,2621,1,0,0:0:0:0:
256,192,2887,1,8,0:0:0:0:
256,192,3021,1,8,0:0:0:0:
256,192,3154,1,0,0:0:0:0:
256,192,3287,1,8,0:0:0:0:
256,192,3421,1,0,0:0:0:0:
256,192,3687,1,0,0:0:0:0:
256,192,3954,1,0,0:0:0:0:
256,192,4221,1,0,0:0:0:0:
256,192,4487,1,8,0:0:0:0:
256,192,4754,1,0,0:0:0:0:
256,192,5021,1,0,0:0:0:0:
256,192,5154,1,8,0:0:0:0:
256,192,5287,1,8,0:0:0:0:
256,192,5421,1,8,0:0:0:0:
256,192,5554,1,0,0:0:0:0:
256,192,5821,1,0,0:0:0:0:
256,192,6087,1,0,0:0:0:0:
256,192,6221,1,8,0:0:0:0:
256,192,6354,1,0,0:0:0:0:
256,192,6487,1,8,0:0:0:0:
256,192,6621,1,0,0:0:0:0:
256,192,6887,1,0,0:0:0:0:
256,192,7154,1,8,0:0:0:0:
256,192,7287,1,0,0:0:0:0:
256,192,7421,1,8,0:0:0:0:
256,192,7554,1,8,0:0:0:0:
256,192,7687,1,0,0:0:0:0:
256,192,7954,1,0,0:0:0:0:
256,192,8221,1,8,0:0:0:0:
256,192,8754,1,8,0:0:0:0:
256,192,9021,1,0,0:0:0:0:
256,192,9287,1,8,0:0:0:0:
256,192,9421,1,8,0:0:0:0:
256,192,9554,1,0,0:0:0:0:
256,192,9687,1,0,0:0:0:0:
256,192,9821,1,8,0:0:0:0:
256,192,10087,1,0,0:0:0:0:
256,192,10354,1,8,0:0:0:0:
256,192,10487,1,0,0:0:0:0:
256,192,10621,1,8,0:0:0:0:
256,192,10754,1,0,0:0:0:0:
256,192,10887,1,8,0:0:0:0:
256,192,11154,1,0,0:0:0:0:
256,192,11421,1,8,0:0:0:0:
256,192,11554,1,8,0:0:0:0:
256,192,11687,1,0,0:0:0:0:
256,192,11821,1,8,0:0:0:0:
256,192,11954,1,0,0:0:0:0:
256,192,12221,1,0,0:0:0:0:
256,192,12487,1,0,0:0:0:0:
256,192,12754,1,0,0:0:0:0:
256,192,13021,1,8,0:0:0:0:
256,192,13287,1,0,0:0:0:0:
256,192,13554,1,0,0:0:0:0:
256,192,13687,1,8,0:0:0:0:
256,192,13821,1,8,0:0:0:0:
256,192,13954,1,0,0:0:0:0:
256,192,14087,1,8,0:0:0:0:
256,192,14354,1,0,0:0:0:0:
256,192,14621,1,8,0:0:0:0:
256,192,14887,1,8,0:0:0:0:
256,192,15021,1,8,0:0:0:0:
256,192,15154,1,0,0:0:0:0:
256,192,15421,1,8,0:0:0:0:
256,192,15687,1,0,0:0:0:0:
256,192,15954,1,0,0:0:0:0:
256,192,16087,1,0,0:0:0:0:
256,192,16221,1,8,0:0:0:0:
256,192,16754,1,8,0:0:0:0:
256,192,16821,1,8,0:0:0:0:
256,192,16887,1,8,0:0:0:0:
256,192,16954,1,8,0:0:0:0:
256,192,17021,1,0,0:0:0:0:
256,192,17087,1,0,0:0:0:0:
256,192,17154,1,8,0:0:0:0:
256,192,17221,1,8,0:0:0:0:
256,192,17287,1,4,0:0:0:0:
256,192,17487,1,4,0:0:0:0:
256,192,17687,1,12,0:0:0:0:
256,192,17954,1,4,0:0:0:0:
256,192,18087,1,12,0:0:0:0:
256,192,18221,1,12,0:0:0:0:
256,192,18354,1,0,0:0:0:0:
256,192,18487,1,0,0:0:0:0:
256,192,18554,1,0,0:0:0:0:
256,192,18621,1,8,0:0:0:0:
256,192,18754,1,8,0:0:0:0:
256,192,18821,1,8,0:0:0:0:
256,192,18887,1,0,0:0:0:0:
256,192,18954,1,8,0:0:0:0:
256,192,19021,1,0,0:0:0:0:
256,192,19087,1,0,0:0:0:0:
256,192,19154,1,8,0:0:0:0:
256,192,19287,1,8,0:0:0:0:
256,192,19421,1,0,0:0:0:0:
256,192,19487,1,0,0:0:0:0:
256,192,19554,1,0,0:0:0:0:
256,192,19621,1,0,0:0:0:0:
256,192,19687,1,12,0:0:0:0:
256,192,19954,1,12,0:0:0:0:
256,192,20154,1,4,0:0:0:0:
256,192,20354,1,12,0:0:0:0:
256,192,20487,1,0,0:0:0:0:
256,192,20621,1,8,0:0:0:0:
256,192,20687,1,8,0:0:0:0:
256,192,20754,1,8,0:0:0:0:
256,192,20887,1,0,0:0:0:0:
256,192,20954,1,0,0:0:0:0:
256,192,21021,1,8,0:0:0:0:
256,192,21087,1,0,0:0:0:0:
256,192,21154,1,8,0:0:0:0:
256,192,21287,1,0,0:0:0:0:
256,192,21354,1,0,0:0:0:0:
256,192,21421,1,8,0:0:0:0:
256,192,21487,1,8,0:0:0:0:
256,192,21554,1,4,0:0:0:0:
256,192,21754,1,4,0:0:0:0:
256,192,21954,1,12,0:0:0:0:
256,192,22221,1,4,0:0:0:0:
256,192,22354,1,12,0:0:0:0:
256,192,22487,1,12,0:0:0:0:
256,192,22621,1,0,0:0:0:0:
256,192,22754,1,0,0:0:0:0:
256,192,22821,1,0,0:0:0:0:
256,192,22887,1,8,0:0:0:0:
256,192,23021,1,8,0:0:0:0:
256,192,23087,1,8,0:0:0:0:
256,192,23154,1,0,0:0:0:0:
256,192,23221,1,8,0:0:0:0:
256,192,23287,1,0,0:0:0:0:
256,192,23354,1,0,0:0:0:0:
256,192,23421,1,8,0:0:0:0:
256,192,23554,1,8,0:0:0:0:
256,192,23687,1,0,0:0:0:0:
256,192,23754,1,0,0:0:0:0:
256,192,23821,1,0,0:0:0:0:
256,192,23887,1,0,0:0:0:0:
256,192,23954,1,12,0:0:0:0:
256,192,24221,1,4,0:0:0:0:
256,192,24421,1,12,0:0:0:0:
256,192,24621,1,12,0:0:0:0:
256,192,24754,1,0,0:0:0:0:
256,192,24887,1,8,0:0:0:0:
256,192,24954,1,8,0:0:0:0:
256,192,25021,1,8,0:0:0:0:
256,192,25154,1,0,0:0:0:0:
256,192,25221,1,0,0:0:0:0:
256,192,25287,1,8,0:0:0:0:
256,192,25354,1,0,0:0:0:0:
256,192,25421,1,8,0:0:0:0:
256,192,25554,1,0,0:0:0:0:
256,192,25621,1,0,0:0:0:0:
256,192,25687,1,8,0:0:0:0:
256,192,25754,1,8,0:0:0:0:
256,192,25821,1,4,0:0:0:0:
256,192,26021,1,4,0:0:0:0:
256,192,26221,1,12,0:0:0:0:
256,192,26487,1,4,0:0:0:0:
256,192,26621,1,12,0:0:0:0:
256,192,26754,1,4,0:0:0:0:
256,192,26887,1,4,0:0:0:0:
256,192,27087,1,12,0:0:0:0:
256,192,27287,1,12,0:0:0:0:
256,192,27554,1,4,0:0:0:0:
256,192,27687,1,12,0:0:0:0:
256,192,27821,1,12,0:0:0:0:
256,192,27954,1,4,0:0:0:0:
256,192,28154,1,4,0:0:0:0:
256,192,28354,1,12,0:0:0:0:
256,192,28621,1,12,0:0:0:0:
256,192,28754,1,4,0:0:0:0:
256,192,28887,1,12,0:0:0:0:
256,192,29021,1,4,0:0:0:0:
256,192,29221,1,12,0:0:0:0:
256,192,29421,1,12,0:0:0:0:
256,192,29687,1,4,0:0:0:0:
256,192,29821,1,12,0:0:0:0:
256,192,29954,1,12,0:0:0:0:
256,192,30087,1,4,0:0:0:0:
256,192,30221,1,8,0:0:0:0:
256,192,30287,1,8,0:0:0:0:
256,192,30354,1,8,0:0:0:0:
256,192,30487,1,8,0:0:0:0:
256,192,30621,1,4,0:0:0:0:
256,192,30754,1,0,0:0:0:0:
256,192,30821,1,0,0:0:0:0:
256,192,30887,1,8,0:0:0:0:
256,192,31021,1,8,0:0:0:0:
256,192,31154,1,4,0:0:0:0:
256,192,31287,1,8,0:0:0:0:
256,192,31354,1,8,0:0:0:0:
256,192,31421,1,0,0:0:0:0:
256,192,31487,1,0,0:0:0:0:
256,192,31554,1,8,0:0:0:0:
256,192,31687,1,4,0:0:0:0:
256,192,31821,1,8,0:0:0:0:
256,192,31887,1,0,0:0:0:0:
256,192,31954,1,8,0:0:0:0:
256,192,32021,1,0,0:0:0:0:
256,192,32087,1,8,0:0:0:0:
256,192,32221,1,4,0:0:0:0:
256,192,32354,1,8,0:0:0:0:
256,192,32421,1,4,0:0:0:0:
256,192,32554,1,8,0:0:0:0:
256,192,32621,1,4,0:0:0:0:
256,192,32887,1,4,0:0:0:0:
256,192,33021,1,12,0:0:0:0:
256,192,33154,1,0,0:0:0:0:
256,192,33198,1,0,0:0:0:0:
256,192,33243,1,0,0:0:0:0:
256,192,33287,1,8,0:0:0:0:
256,192,33354,1,8,0:0:0:0:
256,192,33421,1,0,0:0:0:0:
256,192,33487,1,0,0:0:0:0:
256,192,33554,1,8,0:0:0:0:
256,192,33621,1,0,0:0:0:0:
256,192,33687,1,0,0:0:0:0:
256,192,33754,1,0,0:0:0:0:
256,192,33821,1,8,0:0:0:0:
256,192,33887,1,8,0:0:0:0:
256,192,33954,1,0,0:0:0:0:
256,192,34021,1,0,0:0:0:0:
256,192,34087,1,8,0:0:0:0:
256,192,34354,1,4,0:0:0:0:
256,192,34487,1,0,0:0:0:0:
256,192,34620,1,8,0:0:0:0:
256,192,34754,1,8,0:0:0:0:
256,192,34887,1,8,0:0:0:0:
256,192,35020,1,0,0:0:0:0:
256,192,35154,1,8,0:0:0:0:
256,192,35287,1,0,0:0:0:0:
256,192,35420,1,8,0:0:0:0:
256,192,35554,1,8,0:0:0:0:
256,192,35687,1,0,0:0:0:0:
256,192,35820,1,0,0:0:0:0:
256,192,35954,1,8,0:0:0:0:
256,192,36087,1,0,0:0:0:0:
256,192,36220,1,8,0:0:0:0:
256,192,36354,1,8,0:0:0:0:
256,192,36487,1,8,0:0:0:0:
256,192,36620,1,0,0:0:0:0:
256,192,36754,1,8,0:0:0:0:
256,192,36887,1,0,0:0:0:0:
256,192,37020,1,0,0:0:0:0:
256,192,37154,1,0,0:0:0:0:
256,192,37287,1,8,0:0:0:0:
256,192,37354,1,0,0:0:0:0:
256,192,37420,1,0,0:0:0:0:
256,192,37487,1,0,0:0:0:0:
256,192,37554,1,8,0:0:0:0:
256,192,37687,1,8,0:0:0:0:
256,192,37820,1,0,0:0:0:0:
256,192,37954,1,8,0:0:0:0:
256,192,38087,1,8,0:0:0:0:
256,192,38220,1,8,0:0:0:0:
256,192,38354,1,0,0:0:0:0:
256,192,38487,1,0,0:0:0:0:
256,192,38620,1,8,0:0:0:0:
256,192,38754,1,8,0:0:0:0:
256,192,38887,1,0,0:0:0:0:
256,192,39020,1,8,0:0:0:0:
256,192,39154,1,0,0:0:0:0:
256,192,39287,1,0,0:0:0:0:
256,192,39420,1,8,0:0:0:0:
256,192,39554,1,8,0:0:0:0:
256,192,39687,1,0,0:0:0:0:
256,192,39820,1,0,0:0:0:0:
256,192,39954,1,8,0:0:0:0:
256,192,40087,1,0,0:0:0:0:
256,192,40220,1,0,0:0:0:0:
256,192,40354,1,0,0:0:0:0:
256,192,40487,1,8,0:0:0:0:
256,192,40554,1,8,0:0:0:0:
256,192,40620,1,0,0:0:0:0:
256,192,40687,1,0,0:0:0:0:
256,192,40754,1,8,0:0:0:0:
256,192,40887,1,0,0:0:0:0:
256,192,40954,1,0,0:0:0:0:
256,192,41020,1,8,0:0:0:0:
256,192,41154,1,0,0:0:0:0:
256,192,41287,1,8,0:0:0:0:
256,192,41420,1,8,0:0:0:0:
256,192,41487,1,8,0:0:0:0:
256,192,41554,1,0,0:0:0:0:
256,192,41687,1,8,0:0:0:0:
256,192,41820,1,0,0:0:0:0:
256,192,41954,1,0,0:0:0:0:
256,192,42087,1,8,0:0:0:0:
256,192,42154,1,8,0:0:0:0:
256,192,42220,1,8,0:0:0:0:
256,192,42354,1,0,0:0:0:0:
256,192,42487,1,0,0:0:0:0:
256,192,42554,1,0,0:0:0:0:
256,192,42620,1,8,0:0:0:0:
256,192,42754,1,0,0:0:0:0:
256,192,42887,1,0,0:0:0:0:
256,192,43020,1,8,0:0:0:0:
256,192,43087,1,8,0:0:0:0:
256,192,43154,1,0,0:0:0:0:
256,192,43287,1,8,0:0:0:0:
256,192,43420,1,0,0:0:0:0:
256,192,43487,1,8,0:0:0:0:
256,192,43554,1,0,0:0:0:0:
256,192,43620,1,0,0:0:0:0:
256,192,43687,1,8,0:0:0:0:
256,192,43820,1,8,0:0:0:0:
256,192,43954,1,0,0:0:0:0:
256,192,44087,1,0,0:0:0:0:
256,192,44154,1,0,0:0:0:0:
256,192,44220,1,8,0:0:0:0:
256,192,44354,1,0,0:0:0:0:
256,192,44487,1,8,0:0:0:0:
256,192,44620,1,8,0:0:0:0:
256,192,44687,1,8,0:0:0:0:
256,192,44754,1,0,0:0:0:0:
256,192,44887,1,0,0:0:0:0:
256,192,45020,1,8,0:0:0:0:
256,192,45087,1,8,0:0:0:0:
256,192,45154,1,0,0:0:0:0:
256,192,45220,1,0,0:0:0:0:
256,192,45287,1,8,0:0:0:0:
256,192,45420,1,8,0:0:0:0:
256,192,45554,1,0,0:0:0:0:
256,192,45687,1,0,0:0:0:0:
256,192,45754,1,0,0:0:0:0:
256,192,45820,1,8,0:0:0:0:
256,192,45954,1,0,0:0:0:0:
256,192,46087,1,8,0:0:0:0:
256,192,46154,1,8,0:0:0:0:
256,192,46220,1,8,0:0:0:0:
256,192,46287,1,8,0:0:0:0:
256,192,46354,1,4,0:0:0:0:
256,192,46620,1,4,0:0:0:0:
256,192,46887,1,4,0:0:0:0:
256,192,47154,1,12,0:0:0:0:
256,192,47287,1,0,0:0:0:0:
256,192,47354,1,8,0:0:0:0:
256,192,47420,1,0,0:0:0:0:
256,192,47554,1,8,0:0:0:0:
256,192,47620,1,8,0:0:0:0:
256,192,47687,1,0,0:0:0:0:
256,192,47754,1,8,0:0:0:0:
256,192,47820,1,0,0:0:0:0:
256,192,47954,1,8,0:0:0:0:
256,192,48020,1,0,0:0:0:0:
256,192,48087,1,8,0:0:0:0:
256,192,48154,1,0,0:0:0:0:
256,192,48220,1,8,0:0:0:0:
256,192,48287,1,8,0:0:0:0:
256,192,48354,1,8,0:0:0:0:
256,192,48487,1,0,0:0:0:0:
256,192,48620,1,8,0:0:0:0:
256,192,48687,1,0,0:0:0:0:
256,192,48754,1,8,0:0:0:0:
256,192,48820,1,8,0:0:0:0:
256,192,48887,1,0,0:0:0:0:
256,192,49020,1,8,0:0:0:0:
256,192,49087,1,8,0:0:0:0:
256,192,49154,1,0,0:0:0:0:
256,192,49220,1,0,0:0:0:0:
256,192,49287,1,8,0:0:0:0:
256,192,49354,1,8,0:0:0:0:
256,192,49420,1,0,0:0:0:0:
256,192,49554,1,8,0:0:0:0:
256,192,49687,1,8,0:0:0:0:
256,192,49754,1,0,0:0:0:0:
256,192,49820,1,0,0:0:0:0:
256,192,49887,1,8,0:0:0:0:
256,192,49954,1,0,0:0:0:0:
256,192,50087,1,8,0:0:0:0:
256,192,50154,1,0,0:0:0:0:
256,192,50220,1,8,0:0:0:0:
256,192,50287,1,0,0:0:0:0:
256,192,50354,1,8,0:0:0:0:
256,192,50420,1,8,0:0:0:0:
256,192,50487,1,8,0:0:0:0:
256,192,50620,1,0,0:0:0:0:
256,192,50754,1,8,0:0:0:0:
256,192,50820,1,0,0:0:0:0:
256,192,50887,1,8,0:0:0:0:
256,192,50954,1,8,0:0:0:0:
256,192,51020,1,0,0:0:0:0:
256,192,51154,1,8,0:0:0:0:
256,192,51220,1,0,0:0:0:0:
256,192,51287,1,0,0:0:0:0:
256,192,51420,1,8,0:0:0:0:
256,192,51487,1,8,0:0:0:0:
256,192,51554,1,0,0:0:0:0:
256,192,51687,1,8,0:0:0:0:
256,192,51820,1,8,0:0:0:0:
256,192,51887,1,8,0:0:0:0:
256,192,51954,1,0,0:0:0:0:
256,192,52020,1,0,0:0:0:0:
256,192,52087,1,0,0:0:0:0:
256,192,52220,1,8,0:0:0:0:
256,192,52287,1,8,0:0:0:0:
256,192,52354,1,0,0:0:0:0:
256,192,52420,1,0,0:0:0:0:
256,192,52487,1,8,0:0:0:0:
256,192,52554,1,0,0:0:0:0:
256,192,52620,1,0,0:0:0:0:
256,192,52754,1,8,0:0:0:0:
256,192,52887,1,0,0:0:0:0:
256,192,52954,1,0,0:0:0:0:
256,192,53020,1,8,0:0:0:0:
256,192,53087,1,8,0:0:0:0:
256,192,53154,1,0,0:0:0:0:
256,192,53287,1,8,0:0:0:0:
256,192,53354,1,0,0:0:0:0:
256,192,53420,1,8,0:0:0:0:
256,192,53487,1,0,0:0:0:0:
256,192,53554,1,8,0:0:0:0:
256,192,53620,1,0,0:0:0:0:
256,192,53687,1,0,0:0:0:0:
256,192,53820,1,8,0:0:0:0:
256,192,53954,1,0,0:0:0:0:
256,192,54020,1,0,0:0:0:0:
256,192,54087,1,0,0:0:0:0:
256,192,54220,1,8,0:0:0:0:
256,192,54354,1,0,0:0:0:0:
256,192,54420,1,8,0:0:0:0:
256,192,54487,1,0,0:0:0:0:
256,192,54620,1,8,0:0:0:0:
256,192,54687,1,0,0:0:0:0:
256,192,54754,1,8,0:0:0:0:
256,192,54820,1,8,0:0:0:0:
256,192,54887,1,0,0:0:0:0:
256,192,54954,1,8,0:0:0:0:
256,192,55020,1,0,0:0:0:0:
256,192,55087,1,0,0:0:0:0:
256,192,55154,1,8,0:0:0:0:
256,192,55220,1,8,0:0:0:0:
256,192,55287,1,0,0:0:0:0:
256,192,55354,1,0,0:0:0:0:
256,192,55420,1,8,0:0:0:0:
256,192,55487,1,0,0:0:0:0:
256,192,55554,1,0,0:0:0:0:
256,192,55620,1,0,0:0:0:0:
256,192,55687,1,12,0:0:0:0:
256,192,55820,1,0,0:0:0:0:
256,192,55887,1,8,0:0:0:0:
256,192,55954,1,0,0:0:0:0:
256,192,56087,1,8,0:0:0:0:
256,192,56154,1,8,0:0:0:0:
256,192,56220,1,0,0:0:0:0:
256,192,56287,1,8,0:0:0:0:
256,192,56354,1,0,0:0:0:0:
256,192,56487,1,8,0:0:0:0:
256,192,56554,1,0,0:0:0:0:
256,192,56620,1,8,0:0:0:0:
256,192,56687,1,0,0:0:0:0:
256,192,56754,1,8,0:0:0:0:
256,192,56820,1,8,0:0:0:0:
256,192,56887,1,8,0:0:0:0:
256,192,57020,1,0,0:0:0:0:
256,192,57154,1,8,0:0:0:0:
256,192,57220,1,0,0:0:0:0:
256,192,57287,1,8,0:0:0:0:
256,192,57354,1,8,0:0:0:0:
256,192,57420,1,0,0:0:0:0:
256,192,57554,1,8,0:0:0:0:
256,192,57620,1,8,0:0:0:0:
256,192,57687,1,0,0:0:0:0:
256,192,57754,1,0,0:0:0:0:
256,192,57820,1,8,0:0:0:0:
256,192,57887,1,8,0:0:0:0:
256,192,57954,1,0,0:0:0:0:
256,192,58087,1,8,0:0:0:0:
256,192,58220,1,8,0:0:0:0:
256,192,58287,1,0,0:0:0:0:
256,192,58354,1,0,0:0:0:0:
256,192,58420,1,8,0:0:0:0:
256,192,58487,1,0,0:0:0:0:
256,192,58620,1,8,0:0:0:0:
256,192,58687,1,0,0:0:0:0:
256,192,58754,1,8,0:0:0:0:
256,192,58820,1,0,0:0:0:0:
256,192,58887,1,8,0:0:0:0:
256,192,58954,1,8,0:0:0:0:
256,192,59020,1,8,0:0:0:0:
256,192,59154,1,0,0:0:0:0:
256,192,59287,1,8,0:0:0:0:
256,192,59354,1,0,0:0:0:0:
256,192,59420,1,8,0:0:0:0:
256,192,59487,1,8,0:0:0:0:
256,192,59554,1,0,0:0:0:0:
256,192,59687,1,8,0:0:0:0:
256,192,59754,1,0,0:0:0:0:
256,192,59820,1,0,0:0:0:0:
256,192,59954,1,8,0:0:0:0:
256,192,60020,1,8,0:0:0:0:
256,192,60087,1,0,0:0:0:0:
256,192,60220,1,8,0:0:0:0:
256,192,60354,1,8,0:0:0:0:
256,192,60420,1,8,0:0:0:0:
256,192,60487,1,0,0:0:0:0:
256,192,60554,1,0,0:0:0:0:
256,192,60620,1,0,0:0:0:0:
256,192,60754,1,8,0:0:0:0:
256,192,60820,1,8,0:0:0:0:
256,192,60887,1,0,0:0:0:0:
256,192,60954,1,0,0:0:0:0:
256,192,61020,1,8,0:0:0:0:
256,192,61087,1,0,0:0:0:0:
256,192,61154,1,0,0:0:0:0:
256,192,61287,1,8,0:0:0:0:
256,192,61420,1,0,0:0:0:0:
256,192,61487,1,0,0:0:0:0:
256,192,61554,1,8,0:0:0:0:
256,192,61620,1,8,0:0:0:0:
256,192,61687,1,0,0:0:0:0:
256,192,61820,1,8,0:0:0:0:
256,192,61887,1,0,0:0:0:0:
256,192,61954,1,8,0:0:0:0:
256,192,62020,1,0,0:0:0:0:
256,192,62087,1,8,0:0:0:0:
256,192,62154,1,0,0:0:0:0:
256,192,62220,1,0,0:0:0:0:
256,192,62354,1,8,0:0:0:0:
256,192,62487,1,0,0:0:0:0:
256,192,62554,1,0,0:0:0:0:
256,192,62620,1,0,0:0:0:0:
256,192,62754,1,8,0:0:0:0:
256,192,62887,1,0,0:0:0:0:
256,192,62954,1,8,0:0:0:0:
256,192,63020,1,0,0:0:0:0:
256,192,63154,1,8,0:0:0:0:
256,192,63220,1,0,0:0:0:0:
256,192,63287,1,8,0:0:0:0:
256,192,63354,1,8,0:0:0:0:
256,192,63420,1,0,0:0:0:0:
256,192,63487,1,8,0:0:0:0:
256,192,63554,1,0,0:0:0:0:
256,192,63620,1,0,0:0:0:0:
256,192,63687,1,8,0:0:0:0:
256,192,63954,1,8,0:0:0:0:
256,192,64020,1,8,0:0:0:0:
256,192,64087,1,0,0:0:0:0:
256,192,64154,1,0,0:0:0:0:
256,192,64220,1,12,0:0:0:0:
256,192,64354,1,0,0:0:0:0:
256,192,64420,1,0,0:0:0:0:
256,192,64487,1,8,0:0:0:0:
256,192,64620,1,0,0:0:0:0:
256,192,64754,1,8,0:0:0:0:
256,192,64798,1,0,0:0:0:0:
256,192,64842,1,0,0:0:0:0:
256,192,64887,1,8,0:0:0:0:
256,192,64954,1,0,0:0:0:0:
256,192,65020,1,8,0:0:0:0:
256,192,65154,1,0,0:0:0:0:
256,192,65287,1,0,0:0:0:0:
256,192,65354,1,0,0:0:0:0:
256,192,65420,1,8,0:0:0:0:
256,192,65487,1,8,0:0:0:0:
256,192,65554,1,0,0:0:0:0:
256,192,65687,1,8,0:0:0:0:
256,192,65754,1,8,0:0:0:0:
256,192,65820,1,0,0:0:0:0:
256,192,65887,1,8,0:0:0:0:
256,192,65954,1,0,0:0:0:0:
256,192,66020,1,0,0:0:0:0:
256,192,66087,1,8,0:0:0:0:
256,192,66220,1,0,0:0:0:0:
256,192,66287,1,0,0:0:0:0:
256,192,66354,1,8,0:0:0:0:
256,192,66398,1,8,0:0:0:0:
256,192,66442,1,0,0:0:0:0:
256,192,66487,1,0,0:0:0:0:
256,192,66620,1,8,0:0:0:0:
256,192,66754,1,8,0:0:0:0:
256,192,66798,1,8,0:0:0:0:
256,192,66842,1,0,0:0:0:0:
256,192,66887,1,0,0:0:0:0:
256,192,67020,1,8,0:0:0:0:
256,192,67087,1,8,0:0:0:0:
256,192,67154,1,0,0:0:0:0:
256,192,67287,1,8,0:0:0:0:
256,192,67354,1,0,0:0:0:0:
256,192,67420,1,8,0:0:0:0:
256,192,67487,1,8,0:0:0:0:
256,192,67554,1,0,0:0:0:0:
256,192,67620,1,0,0:0:0:0:
256,192,67687,1,8,0:0:0:0:
256,192,67754,1,0,0:0:0:0:
256,192,67820,1,0,0:0:0:0:
256,192,67887,1,0,0:0:0:0:
256,192,67954,1,8,0:0:0:0:
256,192,68020,1,0,0:0:0:0:
256,192,68087,1,8,0:0:0:0:
256,192,68154,1,8,0:0:0:0:
256,192,68220,1,0,0:0:0:0:
256,192,68287,1,8,0:0:0:0:
256,192,68354,1,0,0:0:0:0:
256,192,68420,1,0,0:0:0:0:
256,192,68487,1,8,0:0:0:0:
256,192,68620,1,0,0:0:0:0:
256,192,68687,1,0,0:0:0:0:
256,192,68754,1,8,0:0:0:0:
256,192,68887,1,0,0:0:0:0:
256,192,69020,1,8,0:0:0:0:
256,192,69065,1,0,0:0:0:0:
256,192,69109,1,0,0:0:0:0:
256,192,69154,1,8,0:0:0:0:
256,192,69220,1,0,0:0:0:0:
256,192,69287,1,8,0:0:0:0:
256,192,69420,1,0,0:0:0:0:
256,192,69554,1,8,0:0:0:0:
256,192,69620,1,0,0:0:0:0:
256,192,69687,1,8,0:0:0:0:
256,192,69754,1,8,0:0:0:0:
256,192,69820,1,0,0:0:0:0:
256,192,69954,1,8,0:0:0:0:
256,192,70020,1,8,0:0:0:0:
256,192,70087,1,8,0:0:0:0:
256,192,70220,1,0,0:0:0:0:
256,192,70287,1,0,0:0:0:0:
256,192,70354,1,8,0:0:0:0:
256,192,70420,1,0,0:0:0:0:
256,192,70487,1,8,0:0:0:0:
256,192,70554,1,8,0:0:0:0:
256,192,70620,1,0,0:0:0:0:
256,192,70754,1,0,0:0:0:0:
256,192,70820,1,0,0:0:0:0:
256,192,70887,1,8,0:0:0:0:
256,192,70931,1,8,0:0:0:0:
256,192,70976,1,8,0:0:0:0:
256,192,71020,1,0,0:0:0:0:
256,192,71087,1,0,0:0:0:0:
256,192,71154,1,8,0:0:0:0:
256,192,71220,1,8,0:0:0:0:
256,192,71287,1,0,0:0:0:0:
256,192,71354,1,0,0:0:0:0:
256,192,71420,1,8,0:0:0:0:
256,192,71554,1,8,0:0:0:0:
256,192,71620,1,0,0:0:0:0:
256,192,71687,1,8,0:0:0:0:
256,192,71754,1,8,0:0:0:0:
256,192,71820,1,0,0:0:0:0:
256,192,71887,1,0,0:0:0:0:
256,192,71954,1,8,0:0:0:0:
256,192,72087,1,8,0:0:0:0:
256,192,72154,1,8,0:0:0:0:
256,192,72220,1,0,0:0:0:0:
256,192,72354,1,8,0:0:0:0:
256,192,72420,1,8,0:0:0:0:
256,192,72487,1,0,0:0:0:0:
256,192,72554,1,8,0:0:0:0:
256,192,72620,1,0,0:0:0:0:
256,192,72687,1,0,0:0:0:0:
256,192,72754,1,8,0:0:0:0:
256,192,72887,1,0,0:0:0:0:
256,192,72954,1,0,0:0:0:0:
256,192,73020,1,8,0:0:0:0:
256,192,73154,1,0,0:0:0:0:
256,192,73287,1,8,0:0:0:0:
256,192,73331,1,0,0:0:0:0:
256,192,73376,1,0,0:0:0:0:
256,192,73420,1,8,0:0:0:0:
256,192,73487,1,0,0:0:0:0:
256,192,73554,1,8,0:0:0:0:
256,192,73687,1,0,0:0:0:0:
256,192,73820,1,0,0:0:0:0:
256,192,73887,1,0,0:0:0:0:
256,192,73954,1,8,0:0:0:0:
256,192,74020,1,8,0:0:0:0:
256,192,74087,1,0,0:0:0:0:
256,192,74220,1,8,0:0:0:0:
256,192,74287,1,8,0:0:0:0:
256,192,74354,1,0,0:0:0:0:
256,192,74420,1,8,0:0:0:0:
256,192,74487,1,0,0:0:0:0:
256,192,74554,1,0,0:0:0:0:
256,192,74620,1,8,0:0:0:0:
256,192,74754,1,0,0:0:0:0:
256,192,74820,1,0,0:0:0:0:
256,192,74887,1,8,0:0:0:0:
256,192,74931,1,8,0:0:0:0:
256,192,74976,1,0,0:0:0:0:
256,192,75020,1,0,0:0:0:0:
256,192,75154,1,8,0:0:0:0:
256,192,75287,1,8,0:0:0:0:
256,192,75331,1,8,0:0:0:0:
256,192,75376,1,0,0:0:0:0:
256,192,75420,1,0,0:0:0:0:
256,192,75554,1,8,0:0:0:0:
256,192,75620,1,8,0:0:0:0:
256,192,75687,1,0,0:0:0:0:
256,192,75820,1,8,0:0:0:0:
256,192,75887,1,0,0:0:0:0:
256,192,75954,1,8,0:0:0:0:
256,192,76020,1,8,0:0:0:0:
256,192,76087,1,0,0:0:0:0:
256,192,76154,1,0,0:0:0:0:
256,192,76220,1,8,0:0:0:0:
256,192,76287,1,0,0:0:0:0:
256,192,76354,1,0,0:0:0:0:
256,192,76420,1,0,0:0:0:0:
256,192,76487,1,8,0:0:0:0:
256,192,76554,1,0,0:0:0:0:
256,192,76620,1,8,0:0:0:0:
256,192,76687,1,8,0:0:0:0:
256,192,76754,1,0,0:0:0:0:
256,192,76820,1,8,0:0:0:0:
256,192,76887,1,0,0:0:0:0:
256,192,76954,1,0,0:0:0:0:
256,192,77020,1,8,0:0:0:0:
256,192,77154,1,0,0:0:0:0:
256,192,77220,1,0,0:0:0:0:
256,192,77287,1,8,0:0:0:0:
256,192,77420,1,0,0:0:0:0:
256,192,77554,1,8,0:0:0:0:
256,192,77598,1,0,0:0:0:0:
256,192,77642,1,0,0:0:0:0:
256,192,77687,1,8,0:0:0:0:
256,192,77754,1,0,0:0:0:0:
256,192,77820,1,8,0:0:0:0:
256,192,77954,1,0,0:0:0:0:
256,192,78087,1,8,0:0:0:0:
256,192,78154,1,0,0:0:0:0:
256,192,78220,1,8,0:0:0:0:
256,192,78287,1,8,0:0:0:0:
256,192,78354,1,0,0:0:0:0:
256,192,78487,1,8,0:0:0:0:
256,192,78554,1,8,0:0:0:0:
256,192,78620,1,8,0:0:0:0:
256,192,78754,1,0,0:0:0:0:
256,192,78820,1,0,0:0:0:0:
256,192,78887,1,8,0:0:0:0:
256,192,78954,1,0,0:0:0:0:
256,192,79020,1,8,0:0:0:0:
256,192,79087,1,8,0:0:0:0:
256,192,79154,1,0,0:0:0:0:
256,192,79287,1,0,0:0:0:0:
256,192,79354,1,0,0:0:0:0:
256,192,79420,1,8,0:0:0:0:
256,192,79465,1,8,0:0:0:0:
256,192,79509,1,8,0:0:0:0:
256,192,79554,1,0,0:0:0:0:
256,192,79620,1,0,0:0:0:0:
256,192,79687,1,8,0:0:0:0:
256,192,79754,1,8,0:0:0:0:
256,192,79820,1,0,0:0:0:0:
256,192,79887,1,8,0:0:0:0:
256,192,79954,1,0,0:0:0:0:
256,192,80020,1,0,0:0:0:0:
256,192,80087,1,8,0:0:0:0:
256,192,80154,1,0,0:0:0:0:
256,192,80220,1,8,0:0:0:0:
256,192,80287,1,8,0:0:0:0:
256,192,80354,1,0,0:0:0:0:
256,192,80420,1,0,0:0:0:0:
256,192,80487,1,8,0:0:0:0:
256,192,80554,1,0,0:0:0:0:
256,192,80620,1,0,0:0:0:0:
256,192,80687,1,0,0:0:0:0:
256,192,80754,1,8,0:0:0:0:
256,192,80798,1,0,0:0:0:0:
256,192,80842,1,0,0:0:0:0:
256,192,80887,1,8,0:0:0:0:
256,192,80954,1,0,0:0:0:0:
256,192,81020,1,8,0:0:0:0:
256,192,81065,1,8,0:0:0:0:
256,192,81109,1,8,0:0:0:0:
256,192,81154,1,0,0:0:0:0:
256,192,81198,1,0,0:0:0:0:
256,192,81242,1,0,0:0:0:0:
256,192,81287,1,8,0:0:0:0:
256,192,81554,1,0,0:0:0:0:
256,192,81820,1,8,0:0:0:0:
256,192,81954,1,8,0:0:0:0:
256,192,82087,1,0,0:0:0:0:
256,192,82220,1,0,0:0:0:0:
256,192,82354,1,8,0:0:0:0:
256,192,82620,1,0,0:0:0:0:
256,192,82887,1,8,0:0:0:0:
256,192,83020,1,0,0:0:0:0:
256,192,83154,1,8,0:0:0:0:
256,192,83287,1,0,0:0:0:0:
256,192,83420,1,8,0:0:0:0:
256,192,83687,1,0,0:0:0:0:
256,192,83954,1,8,0:0:0:0:
256,192,84087,1,8,0:0:0:0:
256,192,84220,1,0,0:0:0:0:
256,192,84354,1,8,0:0:0:0:
256,192,84487,1,0,0:0:0:0:
256,192,84754,1,0,0:0:0:0:
256,192,85020,1,0,0:0:0:0:
256,192,85287,1,0,0:0:0:0:
256,192,85554,1,8,0:0:0:0:
256,192,85820,1,0,0:0:0:0:
256,192,86087,1,0,0:0:0:0:
256,192,86220,1,8,0:0:0:0:
256,192,86354,1,8,0:0:0:0:
256,192,86487,1,8,0:0:0:0:
256,192,86620,1,0,0:0:0:0:
256,192,86887,1,0,0:0:0:0:
256,192,87154,1,0,0:0:0:0:
256,192,87287,1,8,0:0:0:0:
256,192,87420,1,0,0:0:0:0:
256,192,87554,1,8,0:0:0:0:
256,192,87687,1,0,0:0:0:0:
256,192,87954,1,0,0:0:0:0:
256,192,88220,1,8,0:0:0:0:
256,192,88354,1,0,0:0:0:0:
256,192,88487,1,8,0:0:0:0:
256,192,88620,1,8,0:0:0:0:
256,192,88754,1,0,0:0:0:0:
256,192,89020,1,0,0:0:0:0:
256,192,89287,1,8,0:0:0:0:
256,192,89820,1,8,0:0:0:0:
256,192,90087,1,0,0:0:0:0:
256,192,90354,1,8,0:0:0:0:
256,192,90487,1,8,0:0:0:0:
256,192,90620,1,0,0:0:0:0:
256,192,90754,1,8,0:0:0:0:
256,192,90887,1,0,0:0:0:0:
256,192,91020,1,8,0:0:0:0:
256,192,91154,1,0,0:0:0:0:
256,192,91420,1,8,0:0:0:0:
256,192,91554,1,0,0:0:0:0:
256,192,91687,1,8,0:0:0:0:
256,192,91820,1,0,0:0:0:0:
256,192,91954,1,8,0:0:0:0:
256,192,92220,1,0,0:0:0:0:
256,192,92487,1,8,0:0:0:0:
256,192,92620,1,8,0:0:0:0:
256,192,92754,1,0,0:0:0:0:
256,192,92887,1,8,0:0:0:0:
256,192,93020,1,0,0:0:0:0:
256,192,93154,1,8,0:0:0:0:
256,192,93287,1,0,0:0:0:0:
256,192,93420,1,0,0:0:0:0:
256,192,93554,1,8,0:0:0:0:
256,192,93820,1,0,0:0:0:0:
256,192,93954,1,0,0:0:0:0:
256,192,94087,1,8,0:0:0:0:
256,192,94354,1,0,0:0:0:0:
256,192,94620,1,0,0:0:0:0:
256,192,94754,1,8,0:0:0:0:
256,192,94887,1,8,0:0:0:0:
256,192,95020,1,0,0:0:0:0:
256,192,95154,1,8,0:0:0:0:
256,192,95420,1,0,0:0:0:0:
256,192,95687,1,8,0:0:0:0:
256,192,95954,1,8,0:0:0:0:
256,192,96087,1,8,0:0:0:0:
256,192,96220,1,0,0:0:0:0:
256,192,96354,1,8,0:0:0:0:
256,192,96487,1,0,0:0:0:0:
256,192,96620,1,0,0:0:0:0:
256,192,96754,1,8,0:0:0:0:
256,192,97020,1,0,0:0:0:0:
256,192,97154,1,0,0:0:0:0:
256,192,97287,1,8,0:0:0:0:
256,192,97820,1,0,0:0:0:0:
256,192,97887,1,8,0:0:0:0:
256,192,97954,1,8,0:0:0:0:
256,192,98020,1,8,0:0:0:0:
256,192,98087,1,0,0:0:0:0:
256,192,98154,1,8,0:0:0:0:
256,192,98220,1,8,0:0:0:0:
256,192,98287,1,8,0:0:0:0:
256,192,98354,1,4,0:0:0:0:
256,192,98487,1,0,0:0:0:0:
256,192,98554,1,8,0:0:0:0:
256,192,98620,1,8,0:0:0:0:
256,192,98687,1,8,0:0:0:0:
256,192,98754,1,0,0:0:0:0:
256,192,98820,1,0,0:0:0:0:
256,192,98887,1,8,0:0:0:0:
256,192,98954,1,0,0:0:0:0:
256,192,99020,1,8,0:0:0:0:
256,192,99087,1,0,0:0:0:0:
256,192,99154,1,8,0:0:0:0:
256,192,99220,1,8,0:0:0:0:
256,192,99287,1,0,0:0:0:0:
256,192,99354,1,0,0:0:0:0:
256,192,99420,1,8,0:0:0:0:
256,192,99554,1,0,0:0:0:0:
256,192,99620,1,8,0:0:0:0:
256,192,99687,1,8,0:0:0:0:
256,192,99754,1,8,0:0:0:0:
256,192,99820,1,0,0:0:0:0:
256,192,99887,1,0,0:0:0:0:
256,192,99954,1,8,0:0:0:0:
256,192,100020,1,0,0:0:0:0:
256,192,100087,1,8,0:0:0:0:
256,192,100154,1,0,0:0:0:0:
256,192,100220,1,8,0:0:0:0:
256,192,100287,1,8,0:0:0:0:
256,192,100354,1,0,0:0:0:0:
256,192,100420,1,0,0:0:0:0:
256,192,100487,1,8,0:0:0:0:
256,192,100620,1,0,0:0:0:0:
256,192,100687,1,8,0:0:0:0:
256,192,100754,1,8,0:0:0:0:
256,192,100820,1,8,0:0:0:0:
256,192,100887,1,0,0:0:0:0:
256,192,100954,1,0,0:0:0:0:
256,192,101020,1,8,0:0:0:0:
256,192,101087,1,0,0:0:0:0:
256,192,101154,1,8,0:0:0:0:
256,192,101198,1,8,0:0:0:0:
256,192,101242,1,8,0:0:0:0:
256,192,101287,1,0,0:0:0:0:
256,192,101354,1,0,0:0:0:0:
256,192,101420,1,8,0:0:0:0:
256,192,101487,1,8,0:0:0:0:
256,192,101554,1,0,0:0:0:0:
256,192,101687,1,8,0:0:0:0:
256,192,101754,1,0,0:0:0:0:
256,192,101820,1,8,0:0:0:0:
256,192,101887,1,8,0:0:0:0:
256,192,101954,1,0,0:0:0:0:
256,192,102020,1,0,0:0:0:0:
256,192,102087,1,8,0:0:0:0:
256,192,102131,1,0,0:0:0:0:
256,192,102176,1,0,0:0:0:0:
256,192,102220,1,8,0:0:0:0:
256,192,102287,1,0,0:0:0:0:
256,192,102354,1,8,0:0:0:0:
256,192,102420,1,8,0:0:0:0:
256,192,102487,1,0,0:0:0:0:
256,192,102554,1,0,0:0:0:0:
256,192,102620,1,12,0:0:0:0:
256,192,102754,1,0,0:0:0:0:
256,192,102820,1,0,0:0:0:0:
256,192,102887,1,8,0:0:0:0:
256,192,103020,1,0,0:0:0:0:
256,192,103154,1,0,0:0:0:0:
256,192,103220,1,0,0:0:0:0:
256,192,103287,1,8,0:0:0:0:
256,192,103354,1,0,0:0:0:0:
256,192,103420,1,8,0:0:0:0:
256,192,103487,1,8,0:0:0:0:
256,192,103554,1,0,0:0:0:0:
256,192,103620,1,0,0:0:0:0:
256,192,103687,1,8,0:0:0:0:
256,192,103820,1,8,0:0:0:0:
256,192,103865,1,8,0:0:0:0:
256,192,103909,1,8,0:0:0:0:
256,192,103954,1,0,0:0:0:0:
256,192,104020,1,0,0:0:0:0:
256,192,104087,1,8,0:0:0:0:
256,192,104154,1,0,0:0:0:0:
256,192,104220,1,8,0:0:0:0:
256,192,104287,1,8,0:0:0:0:
256,192,104354,1,0,0:0:0:0:
256,192,104420,1,0,0:0:0:0:
256,192,104487,1,8,0:0:0:0:
256,192,104620,1,0,0:0:0:0:
256,192,104754,1,8,0:0:0:0:
256,192,104798,1,8,0:0:0:0:
256,192,104842,1,8,0:0:0:0:
256,192,104887,1,0,0:0:0:0:
256,192,104931,1,0,0:0:0:0:
256,192,104976,1,0,0:0:0:0:
256,192,105020,1,8,0:0:0:0:
256,192,105154,1,8,0:0:0:0:
256,192,105220,1,8,0:0:0:0:
256,192,105287,1,0,0:0:0:0:
256,192,105420,1,0,0:0:0:0:
256,192,105487,1,0,0:0:0:0:
256,192,105554,1,8,0:0:0:0:
256,192,105620,1,0,0:0:0:0:
256,192,105687,1,0,0:0:0:0:
256,192,105754,1,0,0:0:0:0:
256,192,105820,1,8,0:0:0:0:
256,192,105954,1,0,0:0:0:0:
256,192,106087,1,8,0:0:0:0:
256,192,106220,1,0,0:0:0:0:
256,192,106287,1,8,0:0:0:0:
256,192,106354,1,0,0:0:0:0:
256,192,106420,1,0,0:0:0:0:
256,192,106487,1,8,0:0:0:0:
256,192,106620,1,0,0:0:0:0:
256,192,106687,1,0,0:0:0:0:
256,192,106754,1,8,0:0:0:0:
256,192,106820,1,8,0:0:0:0:
256,192,106887,1,4,0:0:0:0:
256,192,107020,1,0,0:0:0:0:
256,192,107087,1,8,0:0:0:0:
256,192,107154,1,8,0:0:0:0:
256,192,107220,1,8,0:0:0:0:
256,192,107287,1,0,0:0:0:0:
256,192,107331,1,0,0:0:0:0:
256,192,107376,1,0,0:0:0:0:
256,192,107420,1,12,0:0:0:0:
256,192,107620,1,12,0:0:0:0:
256,192,107820,1,12,0:0:0:0:
256,192,107954,1,4,0:0:0:0:
256,192,108154,1,12,0:0:0:0:
256,192,108354,1,4,0:0:0:0:
256,192,108487,1,12,0:0:0:0:
256,192,108620,1,4,0:0:0:0:
256,192,108754,1,12,0:0:0:0:
256,192,108887,1,12,0:0:0:0:
256,192,109020,1,4,0:0:0:0:
256,192,109154,1,0,0:0:0:0:
256,192,109220,1,0,0:0:0:0:
256,192,109287,1,8,0:0:0:0:
256,192,109331,1,8,0:0:0:0:
256,192,109376,1,8,0:0:0:0:
256,192,109420,1,0,0:0:0:0:
256,192,109487,1,0,0:0:0:0:
256,192,109554,1,8,0:0:0:0:
256,192,109620,1,0,0:0:0:0:
256,192,109687,1,8,0:0:0:0:
256,192,109754,1,8,0:0:0:0:
256,192,109820,1,0,0:0:0:0:
256,192,109887,1,0,0:0:0:0:
256,192,109954,1,8,0:0:0:0:
256,192,110020,1,8,0:0:0:0:
256,192,110087,1,0,0:0:0:0:
256,192,110154,1,8,0:0:0:0:
256,192,110220,1,8,0:0:0:0:
256,192,110287,1,8,0:0:0:0:
256,192,110354,1,0,0:0:0:0:
256,192,110420,1,0,0:0:0:0:
256,192,110487,1,8,0:0:0:0:
256,192,110554,1,0,0:0:0:0:
256,192,110620,1,8,0:0:0:0:
256,192,110665,1,0,0:0:0:0:
256,192,110709,1,0,0:0:0:0:
256,192,110754,1,8,0:0:0:0:
256,192,110820,1,0,0:0:0:0:
256,192,110887,1,8,0:0:0:0:
256,192,110954,1,8,0:0:0:0:
256,192,111020,1,0,0:0:0:0:
256,192,111087,1,0,0:0:0:0:
256,192,111154,1,8,0:0:0:0:
256,192,111287,1,0,0:0:0:0:
256,192,111354,1,0,0:0:0:0:
256,192,111420,1,8,0:0:0:0:
256,192,111554,1,0,0:0:0:0:
256,192,111687,1,0,0:0:0:0:
256,192,111754,1,0,0:0:0:0:
256,192,111820,1,8,0:0:0:0:
256,192,111887,1,0,0:0:0:0:
256,192,111954,1,8,0:0:0:0:
256,192,112020,1,8,0:0:0:0:
256,192,112087,1,0,0:0:0:0:
256,192,112154,1,0,0:0:0:0:
256,192,112220,1,8,0:0:0:0:
256,192,112354,1,0,0:0:0:0:
256,192,112420,1,0,0:0:0:0:
256,192,112487,1,8,0:0:0:0:
256,192,112620,1,0,0:0:0:0:
256,192,112754,1,8,0:0:0:0:
256,192,112820,1,8,0:0:0:0:
256,192,112887,1,0,0:0:0:0:
256,192,112954,1,0,0:0:0:0:
256,192,113020,1,8,0:0:0:0:
256,192,113087,1,0,0:0:0:0:
256,192,113154,1,8,0:0:0:0:
256,192,113220,1,0,0:0:0:0:
256,192,113287,1,8,0:0:0:0:
256,192,113331,1,8,0:0:0:0:
256,192,113376,1,8,0:0:0:0:
256,192,113420,1,0,0:0:0:0:
256,192,113487,1,0,0:0:0:0:
256,192,113554,1,8,0:0:0:0:
256,192,113620,1,0,0:0:0:0:
256,192,113687,1,8,0:0:0:0:
256,192,113754,1,0,0:0:0:0:
256,192,113820,1,8,0:0:0:0:
256,192,113887,1,8,0:0:0:0:
256,192,113954,1,8,0:0:0:0:
256,192,114020,1,8,0:0:0:0:
256,192,114087,1,0,0:0:0:0:
256,192,114131,1,0,0:0:0:0:
256,192,114176,1,0,0:0:0:0:
256,192,114220,1,8,0:0:0:0:
256,192,114265,1,8,0:0:0:0:
256,192,114309,1,8,0:0:0:0:
256,192,114354,1,0,0:0:0:0:
256,192,114420,1,0,0:0:0:0:
256,192,114487,1,8,0:0:0:0:
256,192,114554,1,0,0:0:0:0:
256,192,114620,1,8,0:0:0:0:
256,192,114687,1,8,0:0:0:0:
256,192,114754,1,0,0:0:0:0:
256,192,114820,1,0,0:0:0:0:
256,192,114887,1,8,0:0:0:0:
256,192,115420,1,0,0:0:0:0:
256,192,115954,1,8,0:0:0:0:
256,192,116087,1,8,0:0:0:0:
256,192,116220,1,0,0:0:0:0:
256,192,116354,1,0,0:0:0:0:
256,192,116487,1,8,0:0:0:0:
256,192,117020,1,8,0:0:0:0:
256,192,117154,1,0,0:0:0:0:
256,192,117287,1,8,0:0:0:0:
256,192,117420,1,0,0:0:0:0:
256,192,117554,1,8,0:0:0:0:
256,192,118087,1,8,0:0:0:0:
256,192,118220,1,8,0:0:0:0:
256,192,118354,1,0,0:0:0:0:
256,192,118487,1,8,0:0:0:0:
256,192,118620,1,0,0:0:0:0:
256,192,119687,1,8,0:0:0:0:
256,192,119954,1,0,0:0:0:0:
256,192,120220,1,0,0:0:0:0:
256,192,120354,1,8,0:0:0:0:
256,192,120487,1,8,0:0:0:0:
256,192,120620,1,0,0:0:0:0:
256,192,120754,1,8,0:0:0:0:
256,192,121020,1,0,0:0:0:0:
256,192,121287,1,8,0:0:0:0:
256,192,121554,1,8,0:0:0:0:
256,192,121820,1,0,0:0:0:0:
256,192,122087,1,8,0:0:0:0:
256,192,122354,1,0,0:0:0:0:
256,192,122620,1,0,0:0:0:0:
256,192,122887,1,8,0:0:0:0:
256,192,123420,1,8,0:0:0:0:
256,192,123487,1,8,0:0:0:0:
256,192,123554,1,0,0:0:0:0:
256,192,123620,1,0,0:0:0:0:
256,192,123687,1,8,0:0:0:0:
256,192,123754,1,8,0:0:0:0:
256,192,123820,1,8,0:0:0:0:
256,192,123887,1,8,0:0:0:0:
256,192,123954,1,4,0:0:0:0:
