osu file format v14

[General]
AudioFilename: audio.mp3
AudioLeadIn: 0
PreviewTime: 47020
Countdown: 0
SampleSet: Normal
StackLeniency: 0.7
Mode: 1
LetterboxInBreaks: 0
WidescreenStoryboard: 1

[Editor]
Bookmarks: 211,17277,25811,30077,32211,34344,40744,47144,64210,81277,89810,98344,114877,115410,123944
DistanceSpacing: 1.4
BeatDivisor: 4
GridSize: 32
TimelineZoom: 2.5

[Metadata]
Title:DESPERATE DEATHPARADE
TitleUnicode:DESPERATE DEATHPARADE
Artist:69 de 74
ArtistUnicode:69 de 74
Creator:KyeX
Version:KANTAN
Source:BOFU2017 - LEGENDA EST A MYTH -
Tags:electronic instrumental featured artist fa breakcore speedcore amen break classical renaissance BMS of Fighters Ultimate mappers' mappers guild mpg mg
BeatmapID:3949211
BeatmapSetID:1889017

[Difficulty]
HPDrainRate:8
CircleSize:3
OverallDifficulty:3
ApproachRate:10
SliderMultiplier:1.4
SliderTickRate:1

[Events]
//Background and Video events
0,0,"bg.jpg",0,-70
//Break Periods
//Storyboard Layer 0 (Background)
//Storyboard Layer 1 (Fail)
//Storyboard Layer 2 (Pass)
//Storyboard Layer 3 (Foreground)
//Storyboard Layer 4 (Overlay)
//Storyboard Sound Samples

[TimingPoints]
221,266.666666666667,4,1,0,80,1,0
221,-133.333333333333,4,1,0,80,0,0
3614,-133.333333333333,4,1,0,70,0,0
3914,-133.333333333333,4,1,0,60,0,0
4180,-133.333333333333,4,1,0,50,0,0
4450,-133.333333333333,4,1,0,80,0,0
8747,-133.333333333333,4,1,0,80,0,0
12184,-133.333333333333,4,1,0,70,0,0
12450,-133.333333333333,4,1,0,60,0,0
12717,-133.333333333333,4,1,0,50,0,0
12984,-133.333333333333,4,1,0,80,0,0
17278,-111.120679094737,4,1,0,90,0,0
34354,266.666666666667,3,1,0,80,1,0
34354,-117.647058823529,3,1,0,80,0,0
40747,-117.64706,3,1,0,80,0,0
47154,266.666666666667,4,1,0,90,1,0
47154,-114.285714285714,4,1,0,90,0,0
81416,-114.285714285714,4,1,0,80,0,0
82342,-117.647058823529,4,1,0,80,0,0
84713,-117.647058823529,4,1,0,70,0,0
84980,-117.647058823529,4,1,0,60,0,0
85247,-117.647058823529,4,1,0,50,0,0
85513,-117.647058823529,4,1,0,80,0,0
98354,-111.111111111111,4,1,0,95,0,1
114887,-111.111111111111,4,1,0,95,0,0
115413,-117.647058823529,4,1,0,50,0,0
123412,-111.111111111111,4,1,0,95,0,0

[HitObjects]
256,192,221,5,8,0:0:0:0:
256,192,1287,1,8,0:0:0:0:
256,192,2354,1,0,0:0:0:0:
256,192,3421,1,8,0:0:0:0:
256,192,4487,1,0,0:0:0:0:
256,192,5554,1,0,0:0:0:0:
256,192,6621,1,8,0:0:0:0:
256,192,7687,1,0,0:0:0:0:
256,192,8221,1,8,0:0:0:0:
256,192,8754,1,0,0:0:0:0:
256,192,9821,1,8,0:0:0:0:
256,192,10887,1,0,0:0:0:0:
256,192,11954,1,8,0:0:0:0:
256,192,13021,1,8,0:0:0:0:
256,192,13554,1,0,0:0:0:0:
256,192,14087,1,8,0:0:0:0:
256,192,14621,1,8,0:0:0:0:
256,192,15154,1,0,0:0:0:0:
256,192,15687,1,0,0:0:0:0:
256,192,16221,1,8,0:0:0:0:
256,192,17287,1,4,0:0:0:0:
256,192,17687,1,4,0:0:0:0:
256,192,18087,1,4,0:0:0:0:
256,192,18621,1,8,0:0:0:0:
256,192,18887,1,0,0:0:0:0:
256,192,19154,1,8,0:0:0:0:
256,192,19687,1,12,0:0:0:0:
256,192,19954,1,12,0:0:0:0:
256,192,20754,1,8,0:0:0:0:
256,192,21021,1,0,0:0:0:0:
256,192,21554,1,4,0:0:0:0:
256,192,21954,1,4,0:0:0:0:
256,192,22354,1,4,0:0:0:0:
256,192,22887,1,8,0:0:0:0:
256,192,23154,1,0,0:0:0:0:
256,192,23421,1,8,0:0:0:0:
256,192,23954,1,12,0:0:0:0:
256,192,24221,1,12,0:0:0:0:
256,192,25021,1,8,0:0:0:0:
256,192,25287,1,0,0:0:0:0:
256,192,25821,1,4,0:0:0:0:
256,192,26621,1,4,0:0:0:0:
256,192,26887,1,4,0:0:0:0:
256,192,27687,1,4,0:0:0:0:
256,192,27954,1,4,0:0:0:0:
256,192,28754,1,4,0:0:0:0:
256,192,29021,1,4,0:0:0:0:
256,192,30087,1,12,0:0:0:0:
256,192,30621,1,12,0:0:0:0:
256,192,31154,1,12,0:0:0:0:
256,192,31687,1,12,0:0:0:0:
256,192,32221,1,12,0:0:0:0:
256,192,32621,1,12,0:0:0:0:
256,192,34354,1,4,0:0:0:0:
256,192,35154,1,0,0:0:0:0:
256,192,35954,1,8,0:0:0:0:
256,192,36754,1,0,0:0:0:0:
256,192,37554,1,8,0:0:0:0:
256,192,38354,1,0,0:0:0:0:
256,192,39154,1,0,0:0:0:0:
256,192,39954,1,8,0:0:0:0:
256,192,40487,1,8,0:0:0:0:
256,192,40754,1,0,0:0:0:0:
256,192,41020,1,8,0:0:0:0:
256,192,41820,1,0,0:0:0:0:
256,192,42087,1,8,0:0:0:0:
256,192,42354,1,0,0:0:0:0:
256,192,42620,1,8,0:0:0:0:
256,192,43020,1,8,0:0:0:0:
256,192,43954,1,0,0:0:0:0:
256,192,44220,1,8,0:0:0:0:
256,192,45020,1,0,0:0:0:0:
256,192,45287,1,8,0:0:0:0:
256,192,45554,1,0,0:0:0:0:
256,192,45820,1,8,0:0:0:0:
256,192,46354,1,4,0:0:0:0:
256,192,47154,1,12,0:0:0:0:
256,192,47954,1,8,0:0:0:0:
256,192,48220,1,0,0:0:0:0:
256,192,48620,1,8,0:0:0:0:
256,192,49020,1,0,0:0:0:0:
256,192,49287,1,8,0:0:0:0:
256,192,49687,1,8,0:0:0:0:
256,192,50087,1,0,0:0:0:0:
256,192,50354,1,8,0:0:0:0:
256,192,51154,1,8,0:0:0:0:
256,192,51420,1,8,0:0:0:0:
256,192,51820,1,8,0:0:0:0:
256,192,52220,1,0,0:0:0:0:
256,192,52487,1,8,0:0:0:0:
256,192,52887,1,0,0:0:0:0:
256,192,53287,1,8,0:0:0:0:
256,192,53554,1,0,0:0:0:0:
256,192,53954,1,0,0:0:0:0:
256,192,54620,1,8,0:0:0:0:
256,192,54887,1,0,0:0:0:0:
256,192,55154,1,8,0:0:0:0:
256,192,55687,1,12,0:0:0:0:
256,192,56487,1,8,0:0:0:0:
256,192,56754,1,0,0:0:0:0:
256,192,57154,1,8,0:0:0:0:
256,192,57554,1,0,0:0:0:0:
256,192,57820,1,8,0:0:0:0:
256,192,58220,1,8,0:0:0:0:
256,192,58620,1,0,0:0:0:0:
256,192,58887,1,8,0:0:0:0:
256,192,59687,1,8,0:0:0:0:
256,192,59954,1,8,0:0:0:0:
256,192,60354,1,8,0:0:0:0:
256,192,60754,1,0,0:0:0:0:
256,192,61020,1,8,0:0:0:0:
256,192,61420,1,0,0:0:0:0:
256,192,61820,1,8,0:0:0:0:
256,192,62087,1,0,0:0:0:0:
256,192,62487,1,0,0:0:0:0:
256,192,63154,1,8,0:0:0:0:
256,192,63420,1,0,0:0:0:0:
256,192,63687,1,0,0:0:0:0:
256,192,64220,1,12,0:0:0:0:
256,192,64754,1,0,0:0:0:0:
256,192,65287,1,12,0:0:0:0:
256,192,65687,1,12,0:0:0:0:
256,192,66354,1,0,0:0:0:0:
256,192,67420,1,4,0:0:0:0:
256,192,67954,1,4,0:0:0:0:
256,192,68487,1,12,0:0:0:0:
256,192,69020,1,0,0:0:0:0:
256,192,69554,1,12,0:0:0:0:
256,192,69954,1,12,0:0:0:0:
256,192,70620,1,0,0:0:0:0:
256,192,70887,1,8,0:0:0:0:
256,192,71687,1,0,0:0:0:0:
256,192,71954,1,8,0:0:0:0:
256,192,72220,1,0,0:0:0:0:
256,192,72754,1,12,0:0:0:0:
256,192,73287,1,0,0:0:0:0:
256,192,73820,1,12,0:0:0:0:
256,192,74220,1,12,0:0:0:0:
256,192,74887,1,0,0:0:0:0:
256,192,75954,1,4,0:0:0:0:
256,192,76487,1,4,0:0:0:0:
256,192,77020,1,12,0:0:0:0:
256,192,77554,1,0,0:0:0:0:
256,192,78087,1,12,0:0:0:0:
256,192,78487,1,12,0:0:0:0:
256,192,79154,1,0,0:0:0:0:
256,192,79420,1,8,0:0:0:0:
256,192,79687,1,0,0:0:0:0:
256,192,79954,1,0,0:0:0:0:
256,192,80220,1,8,0:0:0:0:
256,192,81287,1,12,0:0:0:0:
256,192,82354,1,8,0:0:0:0:
256,192,83420,1,0,0:0:0:0:
256,192,84487,1,8,0:0:0:0:
256,192,85554,1,0,0:0:0:0:
256,192,86620,1,0,0:0:0:0:
256,192,87687,1,8,0:0:0:0:
256,192,88754,1,0,0:0:0:0:
256,192,89287,1,8,0:0:0:0:
256,192,89820,1,0,0:0:0:0:
256,192,90354,1,8,0:0:0:0:
256,192,91154,1,0,0:0:0:0:
256,192,91420,1,8,0:0:0:0:
256,192,91954,1,0,0:0:0:0:
256,192,92487,1,8,0:0:0:0:
256,192,93287,1,0,0:0:0:0:
256,192,93554,1,8,0:0:0:0:
256,192,94087,1,0,0:0:0:0:
256,192,94620,1,8,0:0:0:0:
256,192,95154,1,8,0:0:0:0:
256,192,95954,1,8,0:0:0:0:
256,192,96220,1,0,0:0:0:0:
256,192,96487,1,0,0:0:0:0:
256,192,96754,1,8,0:0:0:0:
256,192,97287,1,8,0:0:0:0:
256,192,98354,1,4,0:0:0:0:
256,192,98887,1,0,0:0:0:0:
256,192,99154,1,8,0:0:0:0:
256,192,99420,1,0,0:0:0:0:
256,192,99954,1,8,0:0:0:0:
256,192,100220,1,8,0:0:0:0:
256,192,100487,1,0,0:0:0:0:
256,192,101020,1,0,0:0:0:0:
256,192,101287,1,8,0:0:0:0:
256,192,101554,1,0,0:0:0:0:
256,192,102620,1,12,0:0:0:0:
256,192,103154,1,8,0:0:0:0:
256,192,103420,1,0,0:0:0:0:
256,192,103687,1,8,0:0:0:0:
256,192,104087,1,0,0:0:0:0:
256,192,104487,1,8,0:0:0:0:
256,192,104754,1,0,0:0:0:0:
256,192,105820,1,12,0:0:0:0:
256,192,106220,1,4,0:0:0:0:
256,192,106887,1,4,0:0:0:0:
256,192,107420,1,12,0:0:0:0:
256,192,107954,1,4,0:0:0:0:
256,192,108487,1,12,0:0:0:0:
256,192,109020,1,4,0:0:0:0:
256,192,109554,1,8,0:0:0:0:
256,192,109820,1,0,0:0:0:0:
256,192,110087,1,8,0:0:0:0:
256,192,111154,1,12,0:0:0:0:
256,192,111687,1,0,0:0:0:0:
256,192,111954,1,0,0:0:0:0:
256,192,112220,1,8,0:0:0:0:
256,192,112754,1,8,0:0:0:0:
256,192,113287,1,0,0:0:0:0:
256,192,113554,1,8,0:0:0:0:
256,192,114354,1,8,0:0:0:0:
256,192,114620,1,0,0:0:0:0:
256,192,114887,1,8,0:0:0:0:
256,192,115420,1,0,0:0:0:0:
256,192,116487,1,8,0:0:0:0:
256,192,117554,1,0,0:0:0:0:
256,192,118620,1,0,0:0:0:0:
256,192,119687,1,8,0:0:0:0:
256,192,120220,1,0,0:0:0:0:
256,192,120754,1,8,0:0:0:0:
256,192,121287,1,8,0:0:0:0:
256,192,121820,1,0,0:0:0:0:
256,192,122354,1,0,0:0:0:0:
256,192,122887,1,8,0:0:0:0:
256,192,123420,1,8,0:0:0:0:
256,192,123687,1,8,0:0:0:0:
256,192,123954,1,4,0:0:0:0:
