osu file format v14

[General]
AudioFilename: audio.mp3
AudioLeadIn: 0
PreviewTime: 47020
Countdown: 0
SampleSet: Normal
StackLeniency: 0.7
Mode: 1
LetterboxInBreaks: 0
WidescreenStoryboard: 1

[Editor]
Bookmarks: 211,17277,25811,30077,32211,34344,40744,47144,64210,81277,89810,98344,114877,115410,123944
DistanceSpacing: 1.4
BeatDivisor: 4
GridSize: 32
TimelineZoom: 2.5

[Metadata]
Title:DESPERATE DEATHPARADE
TitleUnicode:DESPERATE DEATHPARADE
Artist:69 de 74
ArtistUnicode:69 de 74
Creator:KyeX
Version:INNER ONI
Source:BOFU2017 - LEGENDA EST A MYTH -
Tags:electronic instrumental featured artist fa breakcore speedcore amen break classical renaissance BMS of Fighters Ultimate mappers' mappers guild mpg mg
BeatmapID:3949210
BeatmapSetID:1889017

[Difficulty]
HPDrainRate:5.5
CircleSize:3
OverallDifficulty:6.5
ApproachRate:10
SliderMultiplier:1.4
SliderTickRate:1

[Events]
//Background and Video events
0,0,"bg.jpg",0,-70
//Break Periods
//Storyboard Layer 0 (Background)
//Storyboard Layer 1 (Fail)
//Storyboard Layer 2 (Pass)
//Storyboard Layer 3 (Foreground)
//Storyboard Layer 4 (Overlay)
//Storyboard Sound Samples

[TimingPoints]
221,266.666666666667,4,1,0,80,1,0
221,-129.032258064516,4,1,0,80,0,0
3618,-129.032258064516,4,1,0,70,0,0
3918,-129.032258064516,4,1,0,60,0,0
4184,-129.032258064516,4,1,0,50,0,0
4454,-129.032258064516,4,1,0,80,0,0
8751,-125,4,1,0,80,0,0
12188,-125,4,1,0,70,0,0
12454,-125,4,1,0,60,0,0
12721,-125,4,1,0,50,0,0
12988,-125,4,1,0,80,0,0
16751,-83.333336,4,1,0,80,0,0
16818,-85.26527,4,1,0,80,0,0
16884,-87.21214,4,1,0,80,0,0
16951,-89.233986,4,1,0,80,0,0
17018,-91.30271,4,1,0,80,0,0
17084,-93.387436,4,1,0,80,0,0
17151,-95.55245,4,1,0,80,0,0
17218,-97.76765,4,1,0,80,0,0
17284,-100,4,1,0,90,0,0
17484,-97.051575,4,1,0,90,0,0
17684,-94.19009,4,1,0,90,0,0
17951,-90.50105,4,1,0,90,0,0
18084,-88.71772,4,1,0,90,0,0
18218,-86.95651,4,1,0,90,0,0
18351,-100,4,1,0,90,0,0
19684,-99.93716,4,1,0,90,0,0
19951,-94.49953,4,1,0,90,0,0
20151,-90.62112,4,1,0,90,0,0
20351,-86.90187,4,1,0,90,0,0
20484,-100,4,1,0,90,0,0
21551,-100,4,1,0,90,0,0
21751,-97.04846,4,1,0,90,0,0
21951,-94.184044,4,1,0,90,0,0
22218,-90.49138,4,1,0,90,0,0
22351,-88.70634,4,1,0,90,0,0
22484,-86.95651,4,1,0,90,0,0
22618,-100,4,1,0,90,0,0
23951,-99.93716,4,1,0,90,0,0
24218,-94.49953,4,1,0,90,0,0
24418,-90.62112,4,1,0,90,0,0
24618,-86.90187,4,1,0,90,0,0
24751,-100,4,1,0,90,0,0
25818,-100,4,1,0,90,0,0
26018,-99.88577,4,1,0,90,0,0
26218,-99.35729,4,1,0,90,0,0
26484,-97.73839,4,1,0,90,0,0
26618,-96.46992,4,1,0,90,0,0
26751,-94.89923,4,1,0,90,0,0
26884,-93.023254,4,1,0,90,0,0
27084,-92.92464,4,1,0,90,0,0
27284,-92.46813,4,1,0,90,0,0
27551,-91.06041,4,1,0,90,0,0
27684,-89.96795,4,1,0,90,0,0
27818,-88.592224,4,1,0,90,0,0
27951,-86.956505,4,1,0,90,0,0
28151,-86.87033,4,1,0,90,0,0
28351,-86.47125,4,1,0,90,0,0
28618,-85.238976,4,1,0,90,0,0
28751,-84.281,4,1,0,90,0,0
28884,-83.08246,4,1,0,90,0,0
29018,-81.63265,4,1,0,90,0,0
29218,-81.55652,4,1,0,90,0,0
29418,-81.20385,4,1,0,90,0,0
29684,-80.11924,4,1,0,90,0,0
29818,-79.2649,4,1,0,90,0,0
29951,-78.201416,4,1,0,90,0,0
30084,-76.92308,4,1,0,90,0,0
30215,-86.95651,4,1,0,90,0,0
30281,-86.71758,4,1,0,90,0,0
30348,-86.47569,4,1,0,90,0,0
30481,-85.99752,4,1,0,90,0,0
30615,-78.7811866077667,4,1,0,90,0,0
30748,-85.04555,4,1,0,90,0,0
30815,-84.80832,4,1,0,90,0,0
30881,-84.575294,4,1,0,90,0,0
31015,-84.104126,4,1,0,90,0,0
31148,-77.1835127723847,4,1,0,90,0,0
31281,-83.17658,4,1,0,90,0,0
31348,-82.944565,4,1,0,90,0,0
31415,-82.7132,4,1,0,90,0,0
31548,-82.25584,4,1,0,90,0,0
31681,-75.6155707010809,4,1,0,90,0,0
31815,-81.34529,4,1,0,90,0,0
31881,-81.12177,4,1,0,90,0,0
31948,-80.89548,4,1,0,90,0,0
32081,-80.44817,4,1,0,90,0,0
32217,-74.156746,4,1,0,90,0,0
32414,-76.31812,4,1,0,90,0,0
32617,-78.611244,4,1,0,90,0,0
32883,-81.72065,4,1,0,90,0,0
33017,-83.33332,4,1,0,90,0,0
33148,-86.956505,4,1,0,90,0,0
33215,-86.69115,4,1,0,90,0,0
33281,-86.430565,4,1,0,90,0,0
33348,-86.1668,4,1,0,90,0,0
33415,-85.90385,4,1,0,90,0,0
33481,-85.645615,4,1,0,90,0,0
33548,-85.38427,4,1,0,90,0,0
33615,-85.12371,4,1,0,90,0,0
33681,-84.86781,4,1,0,90,0,0
33748,-84.60883,4,1,0,90,0,0
33815,-84.35064,4,1,0,90,0,0
33881,-84.09708,4,1,0,90,0,0
33948,-83.840454,4,1,0,90,0,0
34015,-83.5846,4,1,0,90,0,0
34081,-83.333336,4,1,0,90,0,0
34354,266.666666666667,3,1,0,80,1,0
34354,-100,3,1,0,80,0,0
34617,-100.931755,3,1,0,80,0,0
34751,-101.40442,3,1,0,80,0,0
34884,-101.87574,3,1,0,80,0,0
35017,-102.34926,3,1,0,80,0,0
35151,-102.82856,3,1,0,80,0,0
35417,-103.786674,3,1,0,80,0,0
35551,-104.272705,3,1,0,80,0,0
35684,-104.75736,3,1,0,80,0,0
35817,-105.24427,3,1,0,80,0,0
35951,-105.73713,3,1,0,80,0,0
36217,-106.722336,3,1,0,80,0,0
36351,-107.222115,3,1,0,80,0,0
36484,-107.72048,3,1,0,80,0,0
36617,-108.22116,3,1,0,80,0,0
36751,-108.72796,3,1,0,80,0,0
36884,-109.23333,3,1,0,80,0,0
37017,-109.74104,3,1,0,80,0,0
37151,-110.25496,3,1,0,80,0,0
37284,-110.767426,3,1,0,80,0,0
37351,-111.02648,3,1,0,80,0,0
37417,-111.282265,3,1,0,80,0,0
37484,-111.54253,3,1,0,80,0,0
37551,-111.8034,3,1,0,80,0,0
37817,-112.84513,3,1,0,80,0,0
37951,-113.37359,3,1,0,80,0,0
38084,-113.90054,3,1,0,80,0,0
38217,-114.429955,3,1,0,80,0,0
38351,-114.96583,3,1,0,80,0,0
38617,-116.03701,3,1,0,80,0,0
38751,-116.580414,3,1,0,80,0,0
38884,-117.122284,3,1,0,80,0,0
39017,-117.66667,3,1,0,80,0,0
39151,-118.2177,3,1,0,80,0,0
39417,-119.3192,3,1,0,80,0,0
39551,-119.877975,3,1,0,80,0,0
39684,-120.43516,3,1,0,80,0,0
39817,-120.994934,3,1,0,80,0,0
39951,-121.561554,3,1,0,80,0,0
40084,-122.12657,3,1,0,80,0,0
40217,-122.69421,3,1,0,80,0,0
40351,-123.26878,3,1,0,80,0,0
40484,-123.84174,3,1,0,80,0,0
40551,-124.13138,3,1,0,80,0,0
40617,-124.41735,3,1,0,80,0,0
40684,-124.708336,3,1,0,80,0,0
40751,-125,3,1,0,80,0,0
41011,-124.984634,3,1,0,80,0,0
41142,-124.98185,3,1,0,80,0,0
41275,-124.9681,3,1,0,80,0,0
41408,-124.93835,3,1,0,80,0,0
41542,-124.88844,3,1,0,80,0,0
41808,-124.71824,3,1,0,80,0,0
41942,-124.59163,3,1,0,80,0,0
42075,-124.43601,3,1,0,80,0,0
42208,-124.24869,3,1,0,80,0,0
42342,-124.02622,3,1,0,80,0,0
42475,-123.770454,3,1,0,80,0,0
42542,-123.62799,3,1,0,80,0,0
42608,-123.478546,3,1,0,80,0,0
42742,-123.146736,3,1,0,80,0,0
42875,-122.779015,3,1,0,80,0,0
43008,-122.37226,3,1,0,80,0,0
43142,-121.9223,3,1,0,80,0,0
43408,-120.90796,3,1,0,80,0,0
43475,-120.62687,3,1,0,80,0,0
43542,-120.33546,3,1,0,80,0,0
43608,-120.03828,3,1,0,80,0,0
43675,-119.726364,3,1,0,80,0,0
43808,-119.07673,3,1,0,80,0,0
43942,-118.38147,3,1,0,80,0,0
44208,-116.88201,3,1,0,80,0,0
44342,-116.0678,3,1,0,80,0,0
44414,-115.61442,3,1,0,80,0,0
44475,-115.22174,3,1,0,80,0,0
44608,-114.338806,3,1,0,80,0,0
44742,-113.41304,3,1,0,80,0,0
45008,-111.47238,3,1,0,80,0,0
45142,-110.445526,3,1,0,80,0,0
45208,-109.928246,3,1,0,80,0,0
45275,-109.3956,3,1,0,80,0,0
45408,-108.31656,3,1,0,80,0,0
45542,-107.20154,3,1,0,80,0,0
45675,-106.06879,3,1,0,80,0,0
45808,-104.91175,3,1,0,80,0,0
45942,-103.723175,3,1,0,80,0,0
46075,-102.52252,3,1,0,80,0,0
46142,-101.910324,3,1,0,80,0,0
46208,-101.302734,3,1,0,80,0,0
46275,-100.681564,3,1,0,80,0,0
46342,-100.0562,3,1,0,80,0,0
46617,-96.88062,3,1,0,80,0,0
46884,-93.84737,3,1,0,80,0,0
47154,266.666666666667,4,1,0,90,1,0
47154,-95.2380952380952,4,1,0,90,0,0
63147,-95.24641,4,1,0,90,0,0
63214,-94.69056,4,1,0,90,0,0
63281,-94.138084,4,1,0,90,0,0
63348,-93.58898,4,1,0,90,0,0
63414,-93.051346,4,1,0,90,0,0
63481,-92.508865,4,1,0,90,0,0
63548,-91.9697,4,1,0,90,0,0
63614,-91.44178,4,1,0,90,0,0
63681,-90.90908,4,1,0,90,0,0
63948,-99.92685,4,1,0,90,0,0
64014,-98.72794,4,1,0,90,0,0
64081,-97.526245,4,1,0,90,0,0
64148,-96.33987,4,1,0,90,0,0
64211,-95.23809,4,1,0,90,0,0
79147,-95.22147,4,1,0,90,0,0
79280,-95.08021,4,1,0,90,0,0
79413,-94.823006,4,1,0,90,0,0
79480,-94.66426,4,1,0,90,0,0
79547,-94.48926,4,1,0,90,0,0
79680,-94.09985,4,1,0,90,0,0
79747,-93.88492,4,1,0,90,0,0
79813,-93.66213,4,1,0,90,0,0
79880,-93.425545,4,1,0,90,0,0
79947,-93.17918,4,1,0,90,0,0
80080,-92.6635,4,1,0,90,0,0
80147,-92.3914,4,1,0,90,0,0
80213,-92.11594,4,1,0,90,0,0
80347,-91.53571,4,1,0,90,0,0
80413,-91.240364,4,1,0,90,0,0
80480,-90.9346,4,1,0,90,0,0
80613,-90.31118,4,1,0,90,0,0
80747,-89.66296,4,1,0,90,0,0
80813,-89.336975,4,1,0,90,0,0
80880,-89.00187,4,1,0,90,0,0
80947,-88.662796,4,1,0,90,0,0
81013,-88.32514,4,1,0,90,0,0
81080,-87.97891,4,1,0,90,0,0
81147,-87.629395,4,1,0,90,0,0
81213,-87.282104,4,1,0,90,0,0
81280,-86.9267,4,1,0,90,0,0
81546,-111.11111,4,1,0,80,0,0
81812,-112.471596,4,1,0,80,0,0
81946,-113.15548,4,1,0,80,0,0
82080,-113.848724,4,1,0,80,0,0
82213,-114.54099,4,1,0,80,0,0
82346,-115.23748,4,1,0,80,0,0
82613,-116.648476,4,1,0,80,0,0
82880,-118.07677,4,1,0,80,0,0
83013,-118.79474,4,1,0,80,0,0
83146,-119.51709,4,1,0,80,0,0
83280,-120.24929,4,1,0,80,0,0
83413,-120.98048,4,1,0,80,0,0
83680,-122.461815,4,1,0,80,0,0
83946,-123.95562,4,1,0,80,0,0
84080,-124.71502,4,1,0,80,0,0
84213,-125.47338,4,1,0,80,0,0
84346,-126.23633,4,1,0,80,0,0
84480,-127.009705,4,1,0,80,0,0
84717,-128.55899,4,1,0,70,0,0
84984,-130.1331,4,1,0,60,0,0
85251,-131.7265,4,1,0,50,0,0
85517,-133.33333,4,1,0,80,0,0
89814,-125,4,1,0,80,0,0
97814,-83.333336,4,1,0,80,0,0
97881,-84.24295,4,1,0,80,0,0
97948,-85.162476,4,1,0,80,0,0
98014,-86.0781,4,1,0,80,0,0
98081,-87.01767,4,1,0,80,0,0
98148,-87.9675,4,1,0,80,0,0
98214,-88.913284,4,1,0,80,0,0
98281,-89.88379,4,1,0,80,0,0
98354,-90.90909,4,1,0,95,0,1
107014,-90.90907,4,1,0,95,0,1
107081,-90.17417,4,1,0,95,0,1
107148,-89.44544,4,1,0,95,0,1
107214,-88.7336,4,1,0,95,0,1
107281,-88.01702,4,1,0,95,0,1
107414,-86.61235,4,1,0,95,0,1
107614,-84.543846,4,1,0,95,0,1
107814,-82.526726,4,1,0,95,0,1
107948,-81.20328,4,1,0,95,0,1
108148,-79.26888,4,1,0,95,0,1
108348,-77.38226,4,1,0,95,0,1
108481,-76.1535,4,1,0,95,0,1
108614,-74.94497,4,1,0,95,0,1
108748,-73.74742,4,1,0,95,0,1
108881,-72.57841,4,1,0,95,0,1
109014,-71.42855,4,1,0,95,0,1
109280,-80,4,1,0,95,0,1
109351,-80.38985,4,1,0,95,0,1
109413,-80.73184,4,1,0,95,0,1
109547,-81.47597,4,1,0,95,0,1
109613,-81.84498,4,1,0,95,0,1
109680,-82.22131,4,1,0,95,0,1
109747,-82.599365,4,1,0,95,0,1
109813,-82.97347,4,1,0,95,0,1
109880,-83.354996,4,1,0,95,0,1
109947,-83.73826,4,1,0,95,0,1
110013,-84.11753,4,1,0,95,0,1
110080,-84.504295,4,1,0,95,0,1
110213,-85.27734,4,1,0,95,0,1
110280,-85.66945,4,1,0,95,0,1
110347,-86.06336,4,1,0,95,0,1
110480,-86.85068,4,1,0,95,0,1
110613,-87.64519,4,1,0,95,0,1
110686,-88.084366,4,1,0,95,0,1
110747,-88.45303,4,1,0,95,0,1
110813,-88.85366,4,1,0,95,0,1
110880,-89.26221,4,1,0,95,0,1
111013,-90.07879,4,1,0,95,0,1
111147,-90.90906,4,1,0,95,0,1
112747,-90.90906,4,1,0,95,0,1
112813,-90.90698,4,1,0,95,0,1
112880,-90.89711,4,1,0,95,0,1
112947,-90.87593,4,1,0,95,0,1
113013,-90.84151,4,1,0,95,0,1
113080,-90.790665,4,1,0,95,0,1
113147,-90.721985,4,1,0,95,0,1
113213,-90.63526,4,1,0,95,0,1
113280,-90.526436,4,1,0,95,0,1
113353,-90.382515,4,1,0,95,0,1
113413,-90.24336,4,1,0,95,0,1
113547,-89.86081,4,1,0,95,0,1
113613,-89.63426,4,1,0,95,0,1
113680,-89.37761,4,1,0,95,0,1
113747,-89.093475,4,1,0,95,0,1
113813,-88.786255,4,1,0,95,0,1
113880,-88.44628,4,1,0,95,0,1
113947,-88.077736,4,1,0,95,0,1
114013,-87.6866,4,1,0,95,0,1
114080,-87.26097,4,1,0,95,0,1
114153,-86.76452,4,1,0,95,0,1
114213,-86.331085,4,1,0,95,0,1
114347,-85.28144,4,1,0,95,0,1
114413,-84.723724,4,1,0,95,0,1
114480,-84.13075,4,1,0,95,0,1
114547,-83.511345,4,1,0,95,0,1
114613,-82.876045,4,1,0,95,0,1
114680,-82.20634,4,1,0,95,0,1
114747,-81.512474,4,1,0,95,0,1
114813,-80.80627,4,1,0,95,0,1
114887,-80,4,1,0,95,0,0
115417,-142.857142857143,4,1,0,50,0,0
123416,-86.95651,4,1,0,95,0,0
123483,-88.49481,4,1,0,95,0,0
123550,-90.06031,4,1,0,95,0,0
123616,-91.62952,4,1,0,95,0,0
123683,-93.25048,4,1,0,95,0,0
123750,-94.90011,4,1,0,95,0,0
123816,-96.55365,4,1,0,95,0,0
123883,-98.26171,4,1,0,95,0,0
123950,-100,4,1,0,95,0,0

[HitObjects]
256,192,221,5,8,0:0:0:0:
256,192,487,1,0,0:0:0:0:
256,192,754,1,8,0:0:0:0:
256,192,887,1,8,0:0:0:0:
256,192,1021,1,0,0:0:0:0:
256,192,1154,1,0,0:0:0:0:
256,192,1287,1,8,0:0:0:0:
256,192,1554,1,0,0:0:0:0:
256,192,1821,1,8,0:0:0:0:
256,192,1954,1,0,0:0:0:0:
256,192,2087,1,8,0:0:0:0:
256,192,2221,1,0,0:0:0:0:
256,192,2354,1,8,0:0:0:0:
256,192,2621,1,0,0:0:0:0:
256,192,2887,1,8,0:0:0:0:
256,192,3021,1,8,0:0:0:0:
256,192,3154,1,0,0:0:0:0:
256,192,3287,1,8,0:0:0:0:
256,192,3421,1,0,0:0:0:0:
256,192,3687,1,0,0:0:0:0:
256,192,3954,1,0,0:0:0:0:
256,192,4221,1,0,0:0:0:0:
256,192,4487,1,8,0:0:0:0:
256,192,4754,1,0,0:0:0:0:
256,192,5021,1,0,0:0:0:0:
256,192,5154,1,8,0:0:0:0:
256,192,5287,1,8,0:0:0:0:
256,192,5421,1,8,0:0:0:0:
256,192,5554,1,0,0:0:0:0:
256,192,5821,1,0,0:0:0:0:
256,192,6087,1,0,0:0:0:0:
256,192,6221,1,8,0:0:0:0:
256,192,6354,1,0,0:0:0:0:
256,192,6487,1,8,0:0:0:0:
256,192,6621,1,0,0:0:0:0:
256,192,6887,1,0,0:0:0:0:
256,192,7154,1,8,0:0:0:0:
256,192,7287,1,0,0:0:0:0:
256,192,7421,1,8,0:0:0:0:
256,192,7554,1,8,0:0:0:0:
256,192,7687,1,0,0:0:0:0:
256,192,7954,1,0,0:0:0:0:
256,192,8221,1,8,0:0:0:0:
256,192,8754,1,8,0:0:0:0:
256,192,9021,1,0,0:0:0:0:
256,192,9287,1,8,0:0:0:0:
256,192,9421,1,8,0:0:0:0:
256,192,9554,1,0,0:0:0:0:
256,192,9687,1,0,0:0:0:0:
256,192,9821,1,8,0:0:0:0:
256,192,10087,1,0,0:0:0:0:
256,192,10354,1,8,0:0:0:0:
256,192,10487,1,0,0:0:0:0:
256,192,10621,1,8,0:0:0:0:
256,192,10754,1,0,0:0:0:0:
256,192,10887,1,8,0:0:0:0:
256,192,11154,1,0,0:0:0:0:
256,192,11421,1,8,0:0:0:0:
256,192,11554,1,8,0:0:0:0:
256,192,11687,1,0,0:0:0:0:
256,192,11821,1,8,0:0:0:0:
256,192,11954,1,0,0:0:0:0:
256,192,12221,1,0,0:0:0:0:
256,192,12487,1,0,0:0:0:0:
256,192,12754,1,0,0:0:0:0:
256,192,13021,1,8,0:0:0:0:
256,192,13287,1,0,0:0:0:0:
256,192,13554,1,0,0:0:0:0:
256,192,13687,1,8,0:0:0:0:
256,192,13821,1,8,0:0:0:0:
256,192,13954,1,0,0:0:0:0:
256,192,14087,1,8,0:0:0:0:
256,192,14354,1,0,0:0:0:0:
256,192,14621,1,8,0:0:0:0:
256,192,14887,1,8,0:0:0:0:
256,192,15021,1,8,0:0:0:0:
256,192,15154,1,0,0:0:0:0:
256,192,15421,1,8,0:0:0:0:
256,192,15687,1,0,0:0:0:0:
256,192,15954,1,0,0:0:0:0:
256,192,16087,1,0,0:0:0:0:
256,192,16221,1,8,0:0:0:0:
256,192,16754,1,8,0:0:0:0:
256,192,16821,1,8,0:0:0:0:
256,192,16887,1,8,0:0:0:0:
256,192,16954,1,8,0:0:0:0:
256,192,17021,1,0,0:0:0:0:
256,192,17087,1,0,0:0:0:0:
256,192,17154,1,8,0:0:0:0:
256,192,17221,1,8,0:0:0:0:
256,192,17287,1,4,0:0:0:0:
256,192,17487,1,4,0:0:0:0:
256,192,17687,1,12,0:0:0:0:
256,192,17954,1,4,0:0:0:0:
256,192,18087,1,12,0:0:0:0:
256,192,18221,1,12,0:0:0:0:
256,192,18354,1,0,0:0:0:0:
256,192,18487,1,0,0:0:0:0:
256,192,18554,1,0,0:0:0:0:
256,192,18621,1,8,0:0:0:0:
256,192,18754,1,8,0:0:0:0:
256,192,18887,1,0,0:0:0:0:
256,192,18954,1,8,0:0:0:0:
256,192,19021,1,0,0:0:0:0:
256,192,19087,1,0,0:0:0:0:
256,192,19154,1,8,0:0:0:0:
256,192,19287,1,8,0:0:0:0:
256,192,19421,1,0,0:0:0:0:
256,192,19487,1,0,0:0:0:0:
256,192,19554,1,0,0:0:0:0:
256,192,19621,1,0,0:0:0:0:
256,192,19687,1,12,0:0:0:0:
256,192,19954,1,12,0:0:0:0:
256,192,20154,1,4,0:0:0:0:
256,192,20354,1,12,0:0:0:0:
256,192,20487,1,0,0:0:0:0:
256,192,20621,1,8,0:0:0:0:
256,192,20687,1,8,0:0:0:0:
256,192,20754,1,8,0:0:0:0:
256,192,20887,1,0,0:0:0:0:
256,192,21021,1,8,0:0:0:0:
256,192,21087,1,0,0:0:0:0:
256,192,21154,1,8,0:0:0:0:
256,192,21287,1,0,0:0:0:0:
256,192,21354,1,0,0:0:0:0:
256,192,21421,1,8,0:0:0:0:
256,192,21487,1,8,0:0:0:0:
256,192,21554,1,4,0:0:0:0:
256,192,21754,1,4,0:0:0:0:
256,192,21954,1,12,0:0:0:0:
256,192,22221,1,4,0:0:0:0:
256,192,22354,1,12,0:0:0:0:
256,192,22487,1,12,0:0:0:0:
256,192,22621,1,0,0:0:0:0:
256,192,22754,1,0,0:0:0:0:
256,192,22821,1,0,0:0:0:0:
256,192,22887,1,8,0:0:0:0:
256,192,23021,1,8,0:0:0:0:
256,192,23154,1,0,0:0:0:0:
256,192,23221,1,8,0:0:0:0:
256,192,23287,1,0,0:0:0:0:
256,192,23354,1,0,0:0:0:0:
256,192,23421,1,8,0:0:0:0:
256,192,23554,1,8,0:0:0:0:
256,192,23687,1,0,0:0:0:0:
256,192,23754,1,0,0:0:0:0:
256,192,23821,1,0,0:0:0:0:
256,192,23887,1,0,0:0:0:0:
256,192,23954,1,12,0:0:0:0:
256,192,24221,1,4,0:0:0:0:
256,192,24421,1,12,0:0:0:0:
256,192,24621,1,12,0:0:0:0:
256,192,24754,1,0,0:0:0:0:
256,192,24887,1,8,0:0:0:0:
256,192,24954,1,8,0:0:0:0:
256,192,25021,1,8,0:0:0:0:
256,192,25154,1,0,0:0:0:0:
256,192,25287,1,8,0:0:0:0:
256,192,25354,1,0,0:0:0:0:
256,192,25421,1,8,0:0:0:0:
256,192,25554,1,0,0:0:0:0:
256,192,25621,1,0,0:0:0:0:
256,192,25687,1,8,0:0:0:0:
256,192,25754,1,8,0:0:0:0:
256,192,25821,1,4,0:0:0:0:
256,192,26021,1,4,0:0:0:0:
256,192,26221,1,12,0:0:0:0:
256,192,26487,1,4,0:0:0:0:
256,192,26621,1,12,0:0:0:0:
256,192,26754,1,4,0:0:0:0:
256,192,26887,1,4,0:0:0:0:
256,192,27087,1,12,0:0:0:0:
256,192,27287,1,12,0:0:0:0:
256,192,27554,1,4,0:0:0:0:
256,192,27687,1,12,0:0:0:0:
256,192,27821,1,12,0:0:0:0:
256,192,27954,1,4,0:0:0:0:
256,192,28154,1,4,0:0:0:0:
256,192,28354,1,12,0:0:0:0:
256,192,28621,1,12,0:0:0:0:
256,192,28754,1,4,0:0:0:0:
256,192,28887,1,12,0:0:0:0:
256,192,29021,1,4,0:0:0:0:
256,192,29221,1,12,0:0:0:0:
256,192,29421,1,12,0:0:0:0:
256,192,29687,1,4,0:0:0:0:
256,192,29821,1,12,0:0:0:0:
256,192,29954,1,12,0:0:0:0:
256,192,30087,1,4,0:0:0:0:
256,192,30221,1,8,0:0:0:0:
256,192,30287,1,8,0:0:0:0:
256,192,30354,1,8,0:0:0:0:
256,192,30487,1,8,0:0:0:0:
256,192,30621,1,4,0:0:0:0:
256,192,30754,1,0,0:0:0:0:
256,192,30821,1,0,0:0:0:0:
256,192,30887,1,8,0:0:0:0:
256,192,31021,1,8,0:0:0:0:
256,192,31154,1,4,0:0:0:0:
256,192,31287,1,8,0:0:0:0:
256,192,31354,1,8,0:0:0:0:
256,192,31421,1,0,0:0:0:0:
256,192,31554,1,8,0:0:0:0:
256,192,31687,1,4,0:0:0:0:
256,192,31821,1,0,0:0:0:0:
256,192,31887,1,0,0:0:0:0:
256,192,31954,1,8,0:0:0:0:
256,192,32087,1,8,0:0:0:0:
256,192,32221,1,4,0:0:0:0:
256,192,32421,1,4,0:0:0:0:
256,192,32621,1,4,0:0:0:0:
256,192,32887,1,4,0:0:0:0:
256,192,33021,1,12,0:0:0:0:
256,192,33154,1,0,0:0:0:0:
256,192,33221,1,0,0:0:0:0:
256,192,33287,1,8,0:0:0:0:
256,192,33354,1,8,0:0:0:0:
256,192,33421,1,8,0:0:0:0:
256,192,33487,1,8,0:0:0:0:
256,192,33554,1,0,0:0:0:0:
256,192,33621,1,0,0:0:0:0:
256,192,33687,1,0,0:0:0:0:
256,192,33754,1,0,0:0:0:0:
256,192,33821,1,8,0:0:0:0:
256,192,33887,1,8,0:0:0:0:
256,192,33954,1,0,0:0:0:0:
256,192,34021,1,0,0:0:0:0:
256,192,34087,1,8,0:0:0:0:
256,192,34354,1,4,0:0:0:0:
256,192,34620,1,8,0:0:0:0:
256,192,34754,1,8,0:0:0:0:
256,192,34887,1,8,0:0:0:0:
256,192,35020,1,0,0:0:0:0:
256,192,35154,1,8,0:0:0:0:
256,192,35420,1,8,0:0:0:0:
256,192,35554,1,8,0:0:0:0:
256,192,35687,1,0,0:0:0:0:
256,192,35820,1,0,0:0:0:0:
256,192,35954,1,8,0:0:0:0:
256,192,36220,1,8,0:0:0:0:
256,192,36354,1,0,0:0:0:0:
256,192,36487,1,8,0:0:0:0:
256,192,36620,1,8,0:0:0:0:
256,192,36754,1,0,0:0:0:0:
256,192,36887,1,0,0:0:0:0:
256,192,37020,1,8,0:0:0:0:
256,192,37154,1,0,0:0:0:0:
256,192,37287,1,8,0:0:0:0:
256,192,37354,1,0,0:0:0:0:
256,192,37420,1,0,0:0:0:0:
256,192,37487,1,0,0:0:0:0:
256,192,37554,1,8,0:0:0:0:
256,192,37820,1,0,0:0:0:0:
256,192,37954,1,8,0:0:0:0:
256,192,38087,1,8,0:0:0:0:
256,192,38220,1,8,0:0:0:0:
256,192,38354,1,0,0:0:0:0:
256,192,38620,1,8,0:0:0:0:
256,192,38754,1,0,0:0:0:0:
256,192,38887,1,0,0:0:0:0:
256,192,39020,1,8,0:0:0:0:
256,192,39154,1,0,0:0:0:0:
256,192,39420,1,8,0:0:0:0:
256,192,39554,1,8,0:0:0:0:
256,192,39687,1,0,0:0:0:0:
256,192,39820,1,0,0:0:0:0:
256,192,39954,1,8,0:0:0:0:
256,192,40087,1,0,0:0:0:0:
256,192,40220,1,0,0:0:0:0:
256,192,40354,1,0,0:0:0:0:
256,192,40487,1,8,0:0:0:0:
256,192,40554,1,8,0:0:0:0:
256,192,40620,1,0,0:0:0:0:
256,192,40687,1,0,0:0:0:0:
256,192,40754,1,8,0:0:0:0:
256,192,41020,1,8,0:0:0:0:
256,192,41154,1,8,0:0:0:0:
256,192,41287,1,0,0:0:0:0:
256,192,41420,1,8,0:0:0:0:
256,192,41554,1,0,0:0:0:0:
256,192,41820,1,0,0:0:0:0:
256,192,41954,1,0,0:0:0:0:
256,192,42087,1,8,0:0:0:0:
256,192,42220,1,8,0:0:0:0:
256,192,42354,1,0,0:0:0:0:
256,192,42487,1,0,0:0:0:0:
256,192,42554,1,0,0:0:0:0:
256,192,42620,1,8,0:0:0:0:
256,192,42754,1,0,0:0:0:0:
256,192,42887,1,0,0:0:0:0:
256,192,43020,1,8,0:0:0:0:
256,192,43154,1,0,0:0:0:0:
256,192,43420,1,8,0:0:0:0:
256,192,43487,1,8,0:0:0:0:
256,192,43554,1,0,0:0:0:0:
256,192,43620,1,0,0:0:0:0:
256,192,43687,1,8,0:0:0:0:
256,192,43820,1,8,0:0:0:0:
256,192,43954,1,0,0:0:0:0:
256,192,44220,1,8,0:0:0:0:
256,192,44354,1,0,0:0:0:0:
256,192,44420,1,0,0:0:0:0:
256,192,44487,1,8,0:0:0:0:
256,192,44620,1,0,0:0:0:0:
256,192,44754,1,8,0:0:0:0:
256,192,45020,1,0,0:0:0:0:
256,192,45154,1,8,0:0:0:0:
256,192,45220,1,0,0:0:0:0:
256,192,45287,1,8,0:0:0:0:
256,192,45420,1,8,0:0:0:0:
256,192,45554,1,0,0:0:0:0:
256,192,45687,1,0,0:0:0:0:
256,192,45820,1,8,0:0:0:0:
256,192,45954,1,0,0:0:0:0:
256,192,46087,1,8,0:0:0:0:
256,192,46154,1,8,0:0:0:0:
256,192,46220,1,8,0:0:0:0:
256,192,46287,1,8,0:0:0:0:
256,192,46354,1,4,0:0:0:0:
256,192,46620,1,4,0:0:0:0:
256,192,46887,1,4,0:0:0:0:
256,192,47154,1,12,0:0:0:0:
256,192,47287,1,0,0:0:0:0:
256,192,47354,1,0,0:0:0:0:
256,192,47420,1,8,0:0:0:0:
256,192,47554,1,8,0:0:0:0:
256,192,47620,1,8,0:0:0:0:
256,192,47687,1,0,0:0:0:0:
256,192,47820,1,0,0:0:0:0:
256,192,47954,1,8,0:0:0:0:
256,192,48020,1,0,0:0:0:0:
256,192,48087,1,8,0:0:0:0:
256,192,48154,1,0,0:0:0:0:
256,192,48220,1,8,0:0:0:0:
256,192,48354,1,0,0:0:0:0:
256,192,48487,1,0,0:0:0:0:
256,192,48620,1,8,0:0:0:0:
256,192,48687,1,8,0:0:0:0:
256,192,48754,1,8,0:0:0:0:
256,192,48887,1,0,0:0:0:0:
256,192,49020,1,8,0:0:0:0:
256,192,49087,1,8,0:0:0:0:
256,192,49154,1,0,0:0:0:0:
256,192,49220,1,0,0:0:0:0:
256,192,49287,1,8,0:0:0:0:
256,192,49420,1,0,0:0:0:0:
256,192,49554,1,8,0:0:0:0:
256,192,49687,1,8,0:0:0:0:
256,192,49754,1,0,0:0:0:0:
256,192,49820,1,0,0:0:0:0:
256,192,49954,1,0,0:0:0:0:
256,192,50087,1,8,0:0:0:0:
256,192,50154,1,0,0:0:0:0:
256,192,50220,1,8,0:0:0:0:
256,192,50287,1,8,0:0:0:0:
256,192,50354,1,0,0:0:0:0:
256,192,50487,1,8,0:0:0:0:
256,192,50620,1,0,0:0:0:0:
256,192,50754,1,8,0:0:0:0:
256,192,50820,1,0,0:0:0:0:
256,192,50887,1,8,0:0:0:0:
256,192,51020,1,0,0:0:0:0:
256,192,51154,1,8,0:0:0:0:
256,192,51220,1,0,0:0:0:0:
256,192,51287,1,0,0:0:0:0:
256,192,51420,1,8,0:0:0:0:
256,192,51487,1,8,0:0:0:0:
256,192,51554,1,0,0:0:0:0:
256,192,51687,1,8,0:0:0:0:
256,192,51820,1,8,0:0:0:0:
256,192,51887,1,8,0:0:0:0:
256,192,51954,1,0,0:0:0:0:
256,192,52087,1,8,0:0:0:0:
256,192,52220,1,0,0:0:0:0:
256,192,52287,1,8,0:0:0:0:
256,192,52354,1,0,0:0:0:0:
256,192,52420,1,0,0:0:0:0:
256,192,52487,1,8,0:0:0:0:
256,192,52620,1,0,0:0:0:0:
256,192,52754,1,8,0:0:0:0:
256,192,52887,1,0,0:0:0:0:
256,192,52954,1,0,0:0:0:0:
256,192,53020,1,8,0:0:0:0:
256,192,53154,1,0,0:0:0:0:
256,192,53287,1,8,0:0:0:0:
256,192,53354,1,0,0:0:0:0:
256,192,53420,1,8,0:0:0:0:
256,192,53487,1,8,0:0:0:0:
256,192,53554,1,0,0:0:0:0:
256,192,53687,1,0,0:0:0:0:
256,192,53820,1,8,0:0:0:0:
256,192,53954,1,0,0:0:0:0:
256,192,54020,1,0,0:0:0:0:
256,192,54087,1,0,0:0:0:0:
256,192,54220,1,8,0:0:0:0:
256,192,54354,1,0,0:0:0:0:
256,192,54420,1,8,0:0:0:0:
256,192,54487,1,0,0:0:0:0:
256,192,54620,1,8,0:0:0:0:
256,192,54687,1,0,0:0:0:0:
256,192,54754,1,8,0:0:0:0:
256,192,54820,1,8,0:0:0:0:
256,192,54887,1,0,0:0:0:0:
256,192,54954,1,8,0:0:0:0:
256,192,55020,1,0,0:0:0:0:
256,192,55087,1,0,0:0:0:0:
256,192,55154,1,8,0:0:0:0:
256,192,55220,1,8,0:0:0:0:
256,192,55287,1,0,0:0:0:0:
256,192,55354,1,0,0:0:0:0:
256,192,55420,1,8,0:0:0:0:
256,192,55554,1,0,0:0:0:0:
256,192,55687,1,12,0:0:0:0:
256,192,55820,1,0,0:0:0:0:
256,192,55887,1,0,0:0:0:0:
256,192,55954,1,8,0:0:0:0:
256,192,56087,1,8,0:0:0:0:
256,192,56154,1,8,0:0:0:0:
256,192,56220,1,0,0:0:0:0:
256,192,56354,1,0,0:0:0:0:
256,192,56487,1,8,0:0:0:0:
256,192,56554,1,0,0:0:0:0:
256,192,56620,1,8,0:0:0:0:
256,192,56687,1,0,0:0:0:0:
256,192,56754,1,8,0:0:0:0:
256,192,56887,1,0,0:0:0:0:
256,192,57020,1,0,0:0:0:0:
256,192,57154,1,8,0:0:0:0:
256,192,57220,1,8,0:0:0:0:
256,192,57287,1,8,0:0:0:0:
256,192,57420,1,0,0:0:0:0:
256,192,57554,1,8,0:0:0:0:
256,192,57620,1,8,0:0:0:0:
256,192,57687,1,0,0:0:0:0:
256,192,57754,1,0,0:0:0:0:
256,192,57820,1,8,0:0:0:0:
256,192,57954,1,0,0:0:0:0:
256,192,58087,1,8,0:0:0:0:
256,192,58220,1,8,0:0:0:0:
256,192,58287,1,0,0:0:0:0:
256,192,58354,1,0,0:0:0:0:
256,192,58487,1,0,0:0:0:0:
256,192,58620,1,8,0:0:0:0:
256,192,58687,1,0,0:0:0:0:
256,192,58754,1,8,0:0:0:0:
256,192,58820,1,8,0:0:0:0:
256,192,58887,1,0,0:0:0:0:
256,192,59020,1,8,0:0:0:0:
256,192,59154,1,0,0:0:0:0:
256,192,59287,1,8,0:0:0:0:
256,192,59354,1,0,0:0:0:0:
256,192,59420,1,8,0:0:0:0:
256,192,59554,1,0,0:0:0:0:
256,192,59687,1,8,0:0:0:0:
256,192,59754,1,0,0:0:0:0:
256,192,59820,1,0,0:0:0:0:
256,192,59954,1,8,0:0:0:0:
256,192,60020,1,8,0:0:0:0:
256,192,60087,1,0,0:0:0:0:
256,192,60220,1,8,0:0:0:0:
256,192,60354,1,8,0:0:0:0:
256,192,60420,1,8,0:0:0:0:
256,192,60487,1,0,0:0:0:0:
256,192,60620,1,8,0:0:0:0:
256,192,60754,1,0,0:0:0:0:
256,192,60820,1,8,0:0:0:0:
256,192,60887,1,0,0:0:0:0:
256,192,60954,1,0,0:0:0:0:
256,192,61020,1,8,0:0:0:0:
256,192,61154,1,0,0:0:0:0:
256,192,61287,1,8,0:0:0:0:
256,192,61420,1,0,0:0:0:0:
256,192,61487,1,0,0:0:0:0:
256,192,61554,1,8,0:0:0:0:
256,192,61687,1,0,0:0:0:0:
256,192,61820,1,8,0:0:0:0:
256,192,61887,1,0,0:0:0:0:
256,192,61954,1,8,0:0:0:0:
256,192,62020,1,8,0:0:0:0:
256,192,62087,1,0,0:0:0:0:
256,192,62220,1,0,0:0:0:0:
256,192,62354,1,8,0:0:0:0:
256,192,62487,1,0,0:0:0:0:
256,192,62554,1,0,0:0:0:0:
256,192,62620,1,0,0:0:0:0:
256,192,62754,1,8,0:0:0:0:
256,192,62887,1,0,0:0:0:0:
256,192,62954,1,8,0:0:0:0:
256,192,63020,1,0,0:0:0:0:
256,192,63154,1,8,0:0:0:0:
256,192,63220,1,0,0:0:0:0:
256,192,63287,1,8,0:0:0:0:
256,192,63354,1,8,0:0:0:0:
256,192,63420,1,0,0:0:0:0:
256,192,63487,1,8,0:0:0:0:
256,192,63554,1,0,0:0:0:0:
256,192,63620,1,0,0:0:0:0:
256,192,63687,1,8,0:0:0:0:
256,192,63954,1,8,0:0:0:0:
256,192,64020,1,8,0:0:0:0:
256,192,64087,1,0,0:0:0:0:
256,192,64154,1,0,0:0:0:0:
256,192,64220,1,12,0:0:0:0:
256,192,64354,1,0,0:0:0:0:
256,192,64420,1,0,0:0:0:0:
256,192,64487,1,8,0:0:0:0:
256,192,64620,1,8,0:0:0:0:
256,192,64754,1,0,0:0:0:0:
256,192,64820,1,0,0:0:0:0:
256,192,64887,1,0,0:0:0:0:
256,192,65020,1,8,0:0:0:0:
256,192,65154,1,8,0:0:0:0:
256,192,65287,1,4,0:0:0:0:
256,192,65420,1,8,0:0:0:0:
256,192,65687,1,4,0:0:0:0:
256,192,65954,1,0,0:0:0:0:
256,192,66020,1,0,0:0:0:0:
256,192,66087,1,8,0:0:0:0:
256,192,66220,1,0,0:0:0:0:
256,192,66354,1,8,0:0:0:0:
256,192,66420,1,0,0:0:0:0:
256,192,66487,1,0,0:0:0:0:
256,192,66620,1,8,0:0:0:0:
256,192,66754,1,8,0:0:0:0:
256,192,66820,1,0,0:0:0:0:
256,192,66887,1,0,0:0:0:0:
256,192,67020,1,8,0:0:0:0:
256,192,67154,1,0,0:0:0:0:
256,192,67287,1,8,0:0:0:0:
256,192,67354,1,0,0:0:0:0:
256,192,67420,1,8,0:0:0:0:
256,192,67554,1,0,0:0:0:0:
256,192,67620,1,0,0:0:0:0:
256,192,67687,1,8,0:0:0:0:
256,192,67820,1,0,0:0:0:0:
256,192,67954,1,8,0:0:0:0:
256,192,68020,1,8,0:0:0:0:
256,192,68087,1,0,0:0:0:0:
256,192,68154,1,0,0:0:0:0:
256,192,68220,1,8,0:0:0:0:
256,192,68354,1,0,0:0:0:0:
256,192,68487,1,12,0:0:0:0:
256,192,68620,1,0,0:0:0:0:
256,192,68687,1,0,0:0:0:0:
256,192,68754,1,8,0:0:0:0:
256,192,68887,1,8,0:0:0:0:
256,192,69020,1,0,0:0:0:0:
256,192,69087,1,0,0:0:0:0:
256,192,69154,1,0,0:0:0:0:
256,192,69287,1,8,0:0:0:0:
256,192,69420,1,8,0:0:0:0:
256,192,69554,1,4,0:0:0:0:
256,192,69687,1,8,0:0:0:0:
256,192,69954,1,12,0:0:0:0:
256,192,70220,1,0,0:0:0:0:
256,192,70287,1,0,0:0:0:0:
256,192,70354,1,8,0:0:0:0:
256,192,70487,1,8,0:0:0:0:
256,192,70620,1,0,0:0:0:0:
256,192,70754,1,0,0:0:0:0:
256,192,70887,1,8,0:0:0:0:
256,192,70954,1,8,0:0:0:0:
256,192,71020,1,8,0:0:0:0:
256,192,71154,1,0,0:0:0:0:
256,192,71220,1,0,0:0:0:0:
256,192,71287,1,8,0:0:0:0:
256,192,71354,1,8,0:0:0:0:
256,192,71420,1,0,0:0:0:0:
256,192,71554,1,8,0:0:0:0:
256,192,71620,1,0,0:0:0:0:
256,192,71687,1,8,0:0:0:0:
256,192,71820,1,0,0:0:0:0:
256,192,71954,1,8,0:0:0:0:
256,192,72087,1,8,0:0:0:0:
256,192,72154,1,8,0:0:0:0:
256,192,72220,1,0,0:0:0:0:
256,192,72354,1,8,0:0:0:0:
256,192,72487,1,0,0:0:0:0:
256,192,72554,1,8,0:0:0:0:
256,192,72620,1,0,0:0:0:0:
256,192,72687,1,0,0:0:0:0:
256,192,72754,1,12,0:0:0:0:
256,192,72887,1,0,0:0:0:0:
256,192,72954,1,0,0:0:0:0:
256,192,73020,1,8,0:0:0:0:
256,192,73154,1,8,0:0:0:0:
256,192,73287,1,0,0:0:0:0:
256,192,73354,1,0,0:0:0:0:
256,192,73420,1,0,0:0:0:0:
256,192,73554,1,8,0:0:0:0:
256,192,73687,1,8,0:0:0:0:
256,192,73820,1,4,0:0:0:0:
256,192,73954,1,8,0:0:0:0:
256,192,74220,1,4,0:0:0:0:
256,192,74487,1,0,0:0:0:0:
256,192,74554,1,0,0:0:0:0:
256,192,74620,1,8,0:0:0:0:
256,192,74754,1,0,0:0:0:0:
256,192,74887,1,8,0:0:0:0:
256,192,74954,1,0,0:0:0:0:
256,192,75020,1,0,0:0:0:0:
256,192,75154,1,8,0:0:0:0:
256,192,75287,1,8,0:0:0:0:
256,192,75354,1,0,0:0:0:0:
256,192,75420,1,0,0:0:0:0:
256,192,75554,1,8,0:0:0:0:
256,192,75687,1,0,0:0:0:0:
256,192,75820,1,8,0:0:0:0:
256,192,75887,1,0,0:0:0:0:
256,192,75954,1,8,0:0:0:0:
256,192,76087,1,0,0:0:0:0:
256,192,76154,1,0,0:0:0:0:
256,192,76220,1,8,0:0:0:0:
256,192,76354,1,0,0:0:0:0:
256,192,76487,1,8,0:0:0:0:
256,192,76554,1,8,0:0:0:0:
256,192,76620,1,0,0:0:0:0:
256,192,76687,1,0,0:0:0:0:
256,192,76754,1,8,0:0:0:0:
256,192,76887,1,0,0:0:0:0:
256,192,77020,1,12,0:0:0:0:
256,192,77154,1,0,0:0:0:0:
256,192,77220,1,0,0:0:0:0:
256,192,77287,1,8,0:0:0:0:
256,192,77420,1,8,0:0:0:0:
256,192,77554,1,0,0:0:0:0:
256,192,77620,1,0,0:0:0:0:
256,192,77687,1,0,0:0:0:0:
256,192,77820,1,8,0:0:0:0:
256,192,77954,1,8,0:0:0:0:
256,192,78087,1,4,0:0:0:0:
256,192,78220,1,8,0:0:0:0:
256,192,78487,1,12,0:0:0:0:
256,192,78754,1,0,0:0:0:0:
256,192,78820,1,0,0:0:0:0:
256,192,78887,1,8,0:0:0:0:
256,192,79020,1,8,0:0:0:0:
256,192,79154,1,0,0:0:0:0:
256,192,79287,1,0,0:0:0:0:
256,192,79420,1,8,0:0:0:0:
256,192,79487,1,8,0:0:0:0:
256,192,79554,1,8,0:0:0:0:
256,192,79687,1,0,0:0:0:0:
256,192,79754,1,0,0:0:0:0:
256,192,79820,1,8,0:0:0:0:
256,192,79887,1,8,0:0:0:0:
256,192,79954,1,0,0:0:0:0:
256,192,80087,1,8,0:0:0:0:
256,192,80154,1,0,0:0:0:0:
256,192,80220,1,8,0:0:0:0:
256,192,80354,1,0,0:0:0:0:
256,192,80420,1,0,0:0:0:0:
256,192,80487,1,8,0:0:0:0:
256,192,80620,1,0,0:0:0:0:
256,192,80754,1,8,0:0:0:0:
256,192,80820,1,8,0:0:0:0:
256,192,80887,1,8,0:0:0:0:
256,192,80954,1,8,0:0:0:0:
256,192,81020,1,0,0:0:0:0:
256,192,81087,1,0,0:0:0:0:
256,192,81154,1,0,0:0:0:0:
256,192,81220,1,0,0:0:0:0:
256,192,81287,1,12,0:0:0:0:
256,192,81554,1,0,0:0:0:0:
256,192,81820,1,8,0:0:0:0:
256,192,81954,1,8,0:0:0:0:
256,192,82087,1,0,0:0:0:0:
256,192,82220,1,0,0:0:0:0:
256,192,82354,1,8,0:0:0:0:
256,192,82620,1,0,0:0:0:0:
256,192,82887,1,8,0:0:0:0:
256,192,83020,1,0,0:0:0:0:
256,192,83154,1,8,0:0:0:0:
256,192,83287,1,0,0:0:0:0:
256,192,83420,1,8,0:0:0:0:
256,192,83687,1,0,0:0:0:0:
256,192,83954,1,8,0:0:0:0:
256,192,84087,1,8,0:0:0:0:
256,192,84220,1,0,0:0:0:0:
256,192,84354,1,8,0:0:0:0:
256,192,84487,1,0,0:0:0:0:
256,192,84754,1,0,0:0:0:0:
256,192,85020,1,0,0:0:0:0:
256,192,85287,1,0,0:0:0:0:
256,192,85554,1,8,0:0:0:0:
256,192,85820,1,0,0:0:0:0:
256,192,86087,1,0,0:0:0:0:
256,192,86220,1,8,0:0:0:0:
256,192,86354,1,8,0:0:0:0:
256,192,86487,1,8,0:0:0:0:
256,192,86620,1,0,0:0:0:0:
256,192,86887,1,0,0:0:0:0:
256,192,87154,1,0,0:0:0:0:
256,192,87287,1,8,0:0:0:0:
256,192,87420,1,0,0:0:0:0:
256,192,87554,1,8,0:0:0:0:
256,192,87687,1,0,0:0:0:0:
256,192,87954,1,0,0:0:0:0:
256,192,88220,1,8,0:0:0:0:
256,192,88354,1,0,0:0:0:0:
256,192,88487,1,8,0:0:0:0:
256,192,88620,1,8,0:0:0:0:
256,192,88754,1,0,0:0:0:0:
256,192,89020,1,0,0:0:0:0:
256,192,89287,1,8,0:0:0:0:
256,192,89820,1,8,0:0:0:0:
256,192,90087,1,0,0:0:0:0:
256,192,90354,1,8,0:0:0:0:
256,192,90487,1,8,0:0:0:0:
256,192,90620,1,0,0:0:0:0:
256,192,90754,1,8,0:0:0:0:
256,192,90887,1,0,0:0:0:0:
256,192,91020,1,8,0:0:0:0:
256,192,91154,1,0,0:0:0:0:
256,192,91420,1,8,0:0:0:0:
256,192,91554,1,0,0:0:0:0:
256,192,91687,1,8,0:0:0:0:
256,192,91820,1,0,0:0:0:0:
256,192,91954,1,8,0:0:0:0:
256,192,92220,1,0,0:0:0:0:
256,192,92487,1,8,0:0:0:0:
256,192,92620,1,8,0:0:0:0:
256,192,92754,1,0,0:0:0:0:
256,192,92887,1,8,0:0:0:0:
256,192,93020,1,0,0:0:0:0:
256,192,93154,1,8,0:0:0:0:
256,192,93287,1,0,0:0:0:0:
256,192,93420,1,0,0:0:0:0:
256,192,93554,1,8,0:0:0:0:
256,192,93820,1,0,0:0:0:0:
256,192,93954,1,0,0:0:0:0:
256,192,94087,1,8,0:0:0:0:
256,192,94354,1,0,0:0:0:0:
256,192,94620,1,0,0:0:0:0:
256,192,94754,1,8,0:0:0:0:
256,192,94887,1,8,0:0:0:0:
256,192,95020,1,0,0:0:0:0:
256,192,95154,1,8,0:0:0:0:
256,192,95420,1,0,0:0:0:0:
256,192,95687,1,8,0:0:0:0:
256,192,95954,1,8,0:0:0:0:
256,192,96087,1,8,0:0:0:0:
256,192,96220,1,0,0:0:0:0:
256,192,96354,1,8,0:0:0:0:
256,192,96487,1,0,0:0:0:0:
256,192,96620,1,0,0:0:0:0:
256,192,96754,1,8,0:0:0:0:
256,192,97020,1,0,0:0:0:0:
256,192,97154,1,0,0:0:0:0:
256,192,97287,1,8,0:0:0:0:
256,192,97820,1,0,0:0:0:0:
256,192,97887,1,8,0:0:0:0:
256,192,97954,1,8,0:0:0:0:
256,192,98020,1,8,0:0:0:0:
256,192,98087,1,0,0:0:0:0:
256,192,98154,1,8,0:0:0:0:
256,192,98220,1,8,0:0:0:0:
256,192,98287,1,8,0:0:0:0:
256,192,98354,1,4,0:0:0:0:
256,192,98487,1,0,0:0:0:0:
256,192,98554,1,8,0:0:0:0:
256,192,98620,1,8,0:0:0:0:
256,192,98687,1,8,0:0:0:0:
256,192,98754,1,0,0:0:0:0:
256,192,98887,1,8,0:0:0:0:
256,192,99020,1,8,0:0:0:0:
256,192,99087,1,0,0:0:0:0:
256,192,99154,1,8,0:0:0:0:
256,192,99287,1,0,0:0:0:0:
256,192,99420,1,8,0:0:0:0:
256,192,99554,1,0,0:0:0:0:
256,192,99620,1,8,0:0:0:0:
256,192,99687,1,8,0:0:0:0:
256,192,99754,1,8,0:0:0:0:
256,192,99820,1,0,0:0:0:0:
256,192,99954,1,8,0:0:0:0:
256,192,100087,1,8,0:0:0:0:
256,192,100154,1,0,0:0:0:0:
256,192,100220,1,8,0:0:0:0:
256,192,100354,1,0,0:0:0:0:
256,192,100487,1,8,0:0:0:0:
256,192,100620,1,0,0:0:0:0:
256,192,100687,1,8,0:0:0:0:
256,192,100754,1,8,0:0:0:0:
256,192,100820,1,8,0:0:0:0:
256,192,100887,1,0,0:0:0:0:
256,192,101020,1,8,0:0:0:0:
256,192,101154,1,8,0:0:0:0:
256,192,101220,1,8,0:0:0:0:
256,192,101287,1,8,0:0:0:0:
256,192,101420,1,0,0:0:0:0:
256,192,101554,1,8,0:0:0:0:
256,192,101620,1,8,0:0:0:0:
256,192,101687,1,0,0:0:0:0:
256,192,101754,1,0,0:0:0:0:
256,192,101820,1,8,0:0:0:0:
256,192,101954,1,0,0:0:0:0:
256,192,102087,1,8,0:0:0:0:
256,192,102154,1,8,0:0:0:0:
256,192,102220,1,8,0:0:0:0:
256,192,102287,1,8,0:0:0:0:
256,192,102354,1,0,0:0:0:0:
256,192,102487,1,0,0:0:0:0:
256,192,102620,1,12,0:0:0:0:
256,192,102754,1,0,0:0:0:0:
256,192,102820,1,0,0:0:0:0:
256,192,102887,1,8,0:0:0:0:
256,192,103020,1,0,0:0:0:0:
256,192,103154,1,0,0:0:0:0:
256,192,103220,1,0,0:0:0:0:
256,192,103287,1,8,0:0:0:0:
256,192,103354,1,0,0:0:0:0:
256,192,103420,1,8,0:0:0:0:
256,192,103554,1,0,0:0:0:0:
256,192,103687,1,8,0:0:0:0:
256,192,103820,1,0,0:0:0:0:
256,192,103887,1,0,0:0:0:0:
256,192,103954,1,0,0:0:0:0:
256,192,104087,1,8,0:0:0:0:
256,192,104154,1,8,0:0:0:0:
256,192,104220,1,0,0:0:0:0:
256,192,104287,1,8,0:0:0:0:
256,192,104354,1,0,0:0:0:0:
256,192,104420,1,0,0:0:0:0:
256,192,104487,1,8,0:0:0:0:
256,192,104620,1,0,0:0:0:0:
256,192,104754,1,8,0:0:0:0:
256,192,104820,1,0,0:0:0:0:
256,192,104887,1,0,0:0:0:0:
256,192,104954,1,0,0:0:0:0:
256,192,105020,1,8,0:0:0:0:
256,192,105154,1,8,0:0:0:0:
256,192,105220,1,8,0:0:0:0:
256,192,105287,1,0,0:0:0:0:
256,192,105420,1,0,0:0:0:0:
256,192,105487,1,0,0:0:0:0:
256,192,105554,1,8,0:0:0:0:
256,192,105687,1,0,0:0:0:0:
256,192,105820,1,12,0:0:0:0:
256,192,105954,1,0,0:0:0:0:
256,192,106087,1,8,0:0:0:0:
256,192,106220,1,0,0:0:0:0:
256,192,106287,1,0,0:0:0:0:
256,192,106354,1,0,0:0:0:0:
256,192,106487,1,8,0:0:0:0:
256,192,106620,1,0,0:0:0:0:
256,192,106687,1,0,0:0:0:0:
256,192,106754,1,8,0:0:0:0:
256,192,106820,1,8,0:0:0:0:
256,192,106887,1,4,0:0:0:0:
256,192,107020,1,0,0:0:0:0:
256,192,107087,1,8,0:0:0:0:
256,192,107154,1,8,0:0:0:0:
256,192,107220,1,8,0:0:0:0:
256,192,107287,1,0,0:0:0:0:
256,192,107420,1,12,0:0:0:0:
256,192,107620,1,12,0:0:0:0:
256,192,107820,1,12,0:0:0:0:
256,192,107954,1,4,0:0:0:0:
256,192,108154,1,12,0:0:0:0:
256,192,108354,1,4,0:0:0:0:
256,192,108487,1,12,0:0:0:0:
256,192,108620,1,4,0:0:0:0:
256,192,108754,1,12,0:0:0:0:
256,192,108887,1,12,0:0:0:0:
256,192,109020,1,4,0:0:0:0:
256,192,109287,1,8,0:0:0:0:
256,192,109354,1,8,0:0:0:0:
256,192,109420,1,8,0:0:0:0:
256,192,109554,1,8,0:0:0:0:
256,192,109620,1,0,0:0:0:0:
256,192,109687,1,8,0:0:0:0:
256,192,109754,1,8,0:0:0:0:
256,192,109820,1,0,0:0:0:0:
256,192,109887,1,0,0:0:0:0:
256,192,109954,1,8,0:0:0:0:
256,192,110020,1,8,0:0:0:0:
256,192,110087,1,0,0:0:0:0:
256,192,110220,1,8,0:0:0:0:
256,192,110287,1,8,0:0:0:0:
256,192,110354,1,0,0:0:0:0:
256,192,110487,1,8,0:0:0:0:
256,192,110620,1,0,0:0:0:0:
256,192,110687,1,0,0:0:0:0:
256,192,110754,1,0,0:0:0:0:
256,192,110820,1,0,0:0:0:0:
256,192,110887,1,8,0:0:0:0:
256,192,111020,1,0,0:0:0:0:
256,192,111154,1,12,0:0:0:0:
256,192,111287,1,0,0:0:0:0:
256,192,111354,1,0,0:0:0:0:
256,192,111420,1,8,0:0:0:0:
256,192,111554,1,0,0:0:0:0:
256,192,111687,1,0,0:0:0:0:
256,192,111754,1,0,0:0:0:0:
256,192,111820,1,8,0:0:0:0:
256,192,111887,1,0,0:0:0:0:
256,192,111954,1,8,0:0:0:0:
256,192,112087,1,0,0:0:0:0:
256,192,112220,1,8,0:0:0:0:
256,192,112354,1,0,0:0:0:0:
256,192,112420,1,0,0:0:0:0:
256,192,112487,1,8,0:0:0:0:
256,192,112620,1,0,0:0:0:0:
256,192,112754,1,8,0:0:0:0:
256,192,112820,1,8,0:0:0:0:
256,192,112887,1,0,0:0:0:0:
256,192,112954,1,0,0:0:0:0:
256,192,113020,1,8,0:0:0:0:
256,192,113087,1,0,0:0:0:0:
256,192,113154,1,8,0:0:0:0:
256,192,113220,1,8,0:0:0:0:
256,192,113287,1,0,0:0:0:0:
256,192,113354,1,0,0:0:0:0:
256,192,113420,1,0,0:0:0:0:
256,192,113554,1,8,0:0:0:0:
256,192,113620,1,0,0:0:0:0:
256,192,113687,1,8,0:0:0:0:
256,192,113754,1,0,0:0:0:0:
256,192,113820,1,8,0:0:0:0:
256,192,113887,1,8,0:0:0:0:
256,192,113954,1,8,0:0:0:0:
256,192,114020,1,8,0:0:0:0:
256,192,114087,1,0,0:0:0:0:
256,192,114154,1,0,0:0:0:0:
256,192,114220,1,0,0:0:0:0:
256,192,114354,1,8,0:0:0:0:
256,192,114420,1,0,0:0:0:0:
256,192,114487,1,0,0:0:0:0:
256,192,114554,1,0,0:0:0:0:
256,192,114620,1,8,0:0:0:0:
256,192,114687,1,8,0:0:0:0:
256,192,114754,1,0,0:0:0:0:
256,192,114820,1,0,0:0:0:0:
256,192,114887,1,8,0:0:0:0:
256,192,115420,1,0,0:0:0:0:
256,192,115954,1,8,0:0:0:0:
256,192,116087,1,8,0:0:0:0:
256,192,116220,1,0,0:0:0:0:
256,192,116354,1,0,0:0:0:0:
256,192,116487,1,8,0:0:0:0:
256,192,117020,1,8,0:0:0:0:
256,192,117154,1,0,0:0:0:0:
256,192,117287,1,8,0:0:0:0:
256,192,117420,1,0,0:0:0:0:
256,192,117554,1,8,0:0:0:0:
256,192,118087,1,8,0:0:0:0:
256,192,118220,1,8,0:0:0:0:
256,192,118354,1,0,0:0:0:0:
256,192,118487,1,8,0:0:0:0:
256,192,118620,1,0,0:0:0:0:
256,192,119687,1,8,0:0:0:0:
256,192,119954,1,0,0:0:0:0:
256,192,120220,1,0,0:0:0:0:
256,192,120354,1,8,0:0:0:0:
256,192,120487,1,8,0:0:0:0:
256,192,120620,1,0,0:0:0:0:
256,192,120754,1,8,0:0:0:0:
256,192,121020,1,0,0:0:0:0:
256,192,121287,1,8,0:0:0:0:
256,192,121554,1,8,0:0:0:0:
256,192,121820,1,0,0:0:0:0:
256,192,122087,1,8,0:0:0:0:
256,192,122354,1,0,0:0:0:0:
256,192,122620,1,0,0:0:0:0:
256,192,122887,1,8,0:0:0:0:
256,192,123420,1,8,0:0:0:0:
256,192,123487,1,8,0:0:0:0:
256,192,123554,1,0,0:0:0:0:
256,192,123620,1,0,0:0:0:0:
256,192,123687,1,8,0:0:0:0:
256,192,123754,1,8,0:0:0:0:
256,192,123820,1,8,0:0:0:0:
256,192,123887,1,8,0:0:0:0:
256,192,123954,1,4,0:0:0:0:
