osu file format v14

[General]
AudioFilename: audio.mp3
AudioLeadIn: 0
PreviewTime: 47020
Countdown: 0
SampleSet: Normal
StackLeniency: 0.7
Mode: 1
LetterboxInBreaks: 0
WidescreenStoryboard: 1

[Editor]
Bookmarks: 211,17277,25811,30077,32211,34344,40744,47144,64210,81277,89810,98344,114877,115410,123944
DistanceSpacing: 1.4
BeatDivisor: 4
GridSize: 32
TimelineZoom: 2.5

[Metadata]
Title:DESPERATE DEATHPARADE
TitleUnicode:DESPERATE DEATHPARADE
Artist:69 de 74
ArtistUnicode:69 de 74
Creator:KyeX
Version:FUTSUU
Source:BOFU2017 - LEGENDA EST A MYTH -
Tags:electronic instrumental featured artist fa breakcore speedcore amen break classical renaissance BMS of Fighters Ultimate mappers' mappers guild mpg mg
BeatmapID:3949209
BeatmapSetID:1889017

[Difficulty]
HPDrainRate:7
CircleSize:3
OverallDifficulty:4
ApproachRate:10
SliderMultiplier:1.4
SliderTickRate:1

[Events]
//Background and Video events
0,0,"bg.jpg",0,-70
//Break Periods
//Storyboard Layer 0 (Background)
//Storyboard Layer 1 (Fail)
//Storyboard Layer 2 (Pass)
//Storyboard Layer 3 (Foreground)
//Storyboard Layer 4 (Overlay)
//Storyboard Sound Samples

[TimingPoints]
221,266.666666666667,4,1,0,80,1,0
221,-129.032258064516,4,1,0,80,0,0
3614,-129.032258064516,4,1,0,70,0,0
3914,-129.032258064516,4,1,0,60,0,0
4180,-129.032258064516,4,1,0,50,0,0
4450,-129.032258064516,4,1,0,80,0,0
8747,-125,4,1,0,80,0,0
12184,-125,4,1,0,70,0,0
12450,-125,4,1,0,60,0,0
12717,-125,4,1,0,50,0,0
12984,-125,4,1,0,80,0,0
16747,-105.263157894737,4,1,0,80,0,0
17278,-100.00775,4,1,0,90,0,0
34354,266.666666666667,3,1,0,80,1,0
34354,-117.647058823529,3,1,0,80,0,0
40748,-117.64706,3,1,0,80,0,0
41017,-117.098595,3,1,0,80,0,0
41151,-116.82635,3,1,0,80,0,0
41417,-116.28778,3,1,0,80,0,0
41817,-115.48258,3,1,0,80,0,0
42084,-114.948204,3,1,0,80,0,0
42351,-114.41631,3,1,0,80,0,0
42617,-113.88884,3,1,0,80,0,0
42751,-113.62406,3,1,0,80,0,0
42884,-113.36184,3,1,0,80,0,0
43017,-113.10025,3,1,0,80,0,0
43684,-111.79739,3,1,0,80,0,0
43951,-111.28008,3,1,0,80,0,0
44217,-110.76709,3,1,0,80,0,0
44351,-110.509544,3,1,0,80,0,0
44617,-110.0001,3,1,0,80,0,0
45017,-109.23843,3,1,0,80,0,0
45284,-108.73294,3,1,0,80,0,0
45551,-108.22981,3,1,0,80,0,0
45817,-107.73087,3,1,0,80,0,0
45951,-107.48041,3,1,0,80,0,0
46084,-107.232376,3,1,0,80,0,0
46351,-106.73617,3,1,0,80,0,0
46617,-106.24412,3,1,0,80,0,0
46884,-105.752495,3,1,0,80,0,0
47154,266.666666666667,4,1,0,90,1,0
47154,-105.26316,4,1,0,90,0,0
81542,-111.11111,4,1,0,80,0,0
81808,-112.471596,4,1,0,80,0,0
81942,-113.15548,4,1,0,80,0,0
82076,-113.848724,4,1,0,80,0,0
82209,-114.54099,4,1,0,80,0,0
82342,-115.23748,4,1,0,80,0,0
82609,-116.648476,4,1,0,80,0,0
82876,-118.07677,4,1,0,80,0,0
83009,-118.79474,4,1,0,80,0,0
83142,-119.51709,4,1,0,80,0,0
83276,-120.24929,4,1,0,80,0,0
83409,-120.98048,4,1,0,80,0,0
83676,-122.461815,4,1,0,80,0,0
83942,-123.95562,4,1,0,80,0,0
84076,-124.71502,4,1,0,80,0,0
84209,-125.47338,4,1,0,80,0,0
84342,-126.23633,4,1,0,80,0,0
84476,-127.009705,4,1,0,80,0,0
84713,-128.55899,4,1,0,70,0,0
84980,-130.1331,4,1,0,60,0,0
85247,-131.7265,4,1,0,50,0,0
85513,-133.33333,4,1,0,80,0,0
89810,-125,4,1,0,80,0,0
98354,-105.263157894737,4,1,0,95,0,1
114887,-105.263157894737,4,1,0,95,0,0
115413,-125,4,1,0,50,0,0
123412,-111.111111111111,4,1,0,95,0,0

[HitObjects]
256,192,221,5,8,0:0:0:0:
256,192,754,1,8,0:0:0:0:
256,192,1021,1,0,0:0:0:0:
256,192,1287,1,8,0:0:0:0:
256,192,1821,1,0,0:0:0:0:
256,192,2087,1,0,0:0:0:0:
256,192,2354,1,8,0:0:0:0:
256,192,2887,1,8,0:0:0:0:
256,192,3154,1,8,0:0:0:0:
256,192,3421,1,0,0:0:0:0:
256,192,4487,1,0,0:0:0:0:
256,192,5021,1,0,0:0:0:0:
256,192,5287,1,8,0:0:0:0:
256,192,5554,1,0,0:0:0:0:
256,192,6087,1,8,0:0:0:0:
256,192,6354,1,8,0:0:0:0:
256,192,6621,1,0,0:0:0:0:
256,192,7154,1,0,0:0:0:0:
256,192,7421,1,8,0:0:0:0:
256,192,7687,1,0,0:0:0:0:
256,192,8221,1,8,0:0:0:0:
256,192,8754,1,8,0:0:0:0:
256,192,9287,1,8,0:0:0:0:
256,192,9554,1,0,0:0:0:0:
256,192,9821,1,8,0:0:0:0:
256,192,10354,1,0,0:0:0:0:
256,192,10621,1,8,0:0:0:0:
256,192,10887,1,0,0:0:0:0:
256,192,11421,1,8,0:0:0:0:
256,192,11687,1,8,0:0:0:0:
256,192,11954,1,0,0:0:0:0:
256,192,13021,1,8,0:0:0:0:
256,192,13554,1,8,0:0:0:0:
256,192,13821,1,0,0:0:0:0:
256,192,14087,1,8,0:0:0:0:
256,192,14621,1,8,0:0:0:0:
256,192,14887,1,8,0:0:0:0:
256,192,15154,1,0,0:0:0:0:
256,192,15421,1,8,0:0:0:0:
256,192,15687,1,0,0:0:0:0:
256,192,15954,1,0,0:0:0:0:
256,192,16221,1,8,0:0:0:0:
256,192,16754,1,8,0:0:0:0:
256,192,16887,1,8,0:0:0:0:
256,192,17021,1,0,0:0:0:0:
256,192,17287,1,4,0:0:0:0:
256,192,17687,1,12,0:0:0:0:
256,192,17954,1,4,0:0:0:0:
256,192,18087,1,4,0:0:0:0:
256,192,18621,1,8,0:0:0:0:
256,192,18887,1,0,0:0:0:0:
256,192,19021,1,0,0:0:0:0:
256,192,19154,1,8,0:0:0:0:
256,192,19421,1,0,0:0:0:0:
256,192,19687,1,12,0:0:0:0:
256,192,19954,1,12,0:0:0:0:
256,192,20354,1,12,0:0:0:0:
256,192,20754,1,8,0:0:0:0:
256,192,20887,1,8,0:0:0:0:
256,192,21021,1,0,0:0:0:0:
256,192,21287,1,8,0:0:0:0:
256,192,21554,1,4,0:0:0:0:
256,192,21954,1,12,0:0:0:0:
256,192,22221,1,4,0:0:0:0:
256,192,22354,1,4,0:0:0:0:
256,192,22887,1,8,0:0:0:0:
256,192,23154,1,0,0:0:0:0:
256,192,23287,1,0,0:0:0:0:
256,192,23421,1,8,0:0:0:0:
256,192,23687,1,0,0:0:0:0:
256,192,23954,1,12,0:0:0:0:
256,192,24221,1,4,0:0:0:0:
256,192,24621,1,12,0:0:0:0:
256,192,25021,1,8,0:0:0:0:
256,192,25154,1,8,0:0:0:0:
256,192,25287,1,0,0:0:0:0:
256,192,25554,1,8,0:0:0:0:
256,192,25821,1,4,0:0:0:0:
256,192,26221,1,12,0:0:0:0:
256,192,26487,1,4,0:0:0:0:
256,192,26621,1,4,0:0:0:0:
256,192,26887,1,12,0:0:0:0:
256,192,27287,1,12,0:0:0:0:
256,192,27554,1,4,0:0:0:0:
256,192,27687,1,4,0:0:0:0:
256,192,27954,1,12,0:0:0:0:
256,192,28354,1,12,0:0:0:0:
256,192,28621,1,4,0:0:0:0:
256,192,28754,1,4,0:0:0:0:
256,192,29021,1,12,0:0:0:0:
256,192,29421,1,12,0:0:0:0:
256,192,29687,1,4,0:0:0:0:
256,192,29821,1,4,0:0:0:0:
256,192,30087,1,4,0:0:0:0:
256,192,30621,1,4,0:0:0:0:
256,192,31154,1,4,0:0:0:0:
256,192,31687,1,4,0:0:0:0:
256,192,32221,1,4,0:0:0:0:
256,192,32621,1,4,0:0:0:0:
256,192,32887,1,12,0:0:0:0:
256,192,33021,1,12,0:0:0:0:
256,192,34354,1,4,0:0:0:0:
256,192,34620,1,8,0:0:0:0:
256,192,34887,1,8,0:0:0:0:
256,192,35020,1,0,0:0:0:0:
256,192,35154,1,8,0:0:0:0:
256,192,35420,1,0,0:0:0:0:
256,192,35687,1,0,0:0:0:0:
256,192,35954,1,8,0:0:0:0:
256,192,36220,1,0,0:0:0:0:
256,192,36487,1,8,0:0:0:0:
256,192,36620,1,8,0:0:0:0:
256,192,36754,1,0,0:0:0:0:
256,192,37554,1,8,0:0:0:0:
256,192,37820,1,0,0:0:0:0:
256,192,38087,1,8,0:0:0:0:
256,192,38220,1,8,0:0:0:0:
256,192,38354,1,0,0:0:0:0:
256,192,38620,1,8,0:0:0:0:
256,192,38887,1,8,0:0:0:0:
256,192,39154,1,0,0:0:0:0:
256,192,39420,1,8,0:0:0:0:
256,192,39687,1,0,0:0:0:0:
256,192,39820,1,0,0:0:0:0:
256,192,39954,1,8,0:0:0:0:
256,192,40487,1,8,0:0:0:0:
256,192,40620,1,8,0:0:0:0:
256,192,40754,1,0,0:0:0:0:
256,192,41020,1,8,0:0:0:0:
256,192,41154,1,0,0:0:0:0:
256,192,41420,1,8,0:0:0:0:
256,192,41820,1,0,0:0:0:0:
256,192,42087,1,8,0:0:0:0:
256,192,42354,1,0,0:0:0:0:
256,192,42620,1,8,0:0:0:0:
256,192,42754,1,0,0:0:0:0:
256,192,42887,1,0,0:0:0:0:
256,192,43020,1,8,0:0:0:0:
256,192,43687,1,8,0:0:0:0:
256,192,43954,1,0,0:0:0:0:
256,192,44220,1,8,0:0:0:0:
256,192,44354,1,0,0:0:0:0:
256,192,44620,1,8,0:0:0:0:
256,192,45020,1,0,0:0:0:0:
256,192,45287,1,8,0:0:0:0:
256,192,45554,1,0,0:0:0:0:
256,192,45820,1,8,0:0:0:0:
256,192,45954,1,0,0:0:0:0:
256,192,46087,1,8,0:0:0:0:
256,192,46354,1,4,0:0:0:0:
256,192,46620,1,4,0:0:0:0:
256,192,46887,1,4,0:0:0:0:
256,192,47154,1,12,0:0:0:0:
256,192,47554,1,0,0:0:0:0:
256,192,47820,1,0,0:0:0:0:
256,192,47954,1,8,0:0:0:0:
256,192,48087,1,0,0:0:0:0:
256,192,48220,1,8,0:0:0:0:
256,192,48620,1,8,0:0:0:0:
256,192,49020,1,8,0:0:0:0:
256,192,49154,1,8,0:0:0:0:
256,192,49287,1,0,0:0:0:0:
256,192,49687,1,8,0:0:0:0:
256,192,50087,1,0,0:0:0:0:
256,192,50220,1,0,0:0:0:0:
256,192,50354,1,8,0:0:0:0:
256,192,50754,1,0,0:0:0:0:
256,192,51420,1,8,0:0:0:0:
256,192,51820,1,8,0:0:0:0:
256,192,52220,1,8,0:0:0:0:
256,192,52354,1,0,0:0:0:0:
256,192,52487,1,8,0:0:0:0:
256,192,52887,1,8,0:0:0:0:
256,192,53287,1,8,0:0:0:0:
256,192,53420,1,8,0:0:0:0:
256,192,53554,1,0,0:0:0:0:
256,192,53954,1,0,0:0:0:0:
256,192,54354,1,0,0:0:0:0:
256,192,54620,1,8,0:0:0:0:
256,192,54754,1,8,0:0:0:0:
256,192,54887,1,0,0:0:0:0:
256,192,55020,1,0,0:0:0:0:
256,192,55154,1,8,0:0:0:0:
256,192,55687,1,12,0:0:0:0:
256,192,56087,1,0,0:0:0:0:
256,192,56354,1,0,0:0:0:0:
256,192,56487,1,8,0:0:0:0:
256,192,56620,1,0,0:0:0:0:
256,192,56754,1,8,0:0:0:0:
256,192,57154,1,8,0:0:0:0:
256,192,57554,1,8,0:0:0:0:
256,192,57687,1,8,0:0:0:0:
256,192,57820,1,0,0:0:0:0:
256,192,58220,1,8,0:0:0:0:
256,192,58620,1,0,0:0:0:0:
256,192,58754,1,0,0:0:0:0:
256,192,58887,1,8,0:0:0:0:
256,192,59287,1,0,0:0:0:0:
256,192,59954,1,8,0:0:0:0:
256,192,60354,1,8,0:0:0:0:
256,192,60754,1,8,0:0:0:0:
256,192,60887,1,0,0:0:0:0:
256,192,61020,1,8,0:0:0:0:
256,192,61420,1,8,0:0:0:0:
256,192,61820,1,8,0:0:0:0:
256,192,61954,1,8,0:0:0:0:
256,192,62087,1,0,0:0:0:0:
256,192,62487,1,0,0:0:0:0:
256,192,62887,1,0,0:0:0:0:
256,192,63154,1,8,0:0:0:0:
256,192,63420,1,0,0:0:0:0:
256,192,63554,1,0,0:0:0:0:
256,192,63687,1,0,0:0:0:0:
256,192,64220,1,12,0:0:0:0:
256,192,64487,1,8,0:0:0:0:
256,192,64754,1,0,0:0:0:0:
256,192,64887,1,0,0:0:0:0:
256,192,65020,1,8,0:0:0:0:
256,192,65287,1,4,0:0:0:0:
256,192,65687,1,4,0:0:0:0:
256,192,66354,1,0,0:0:0:0:
256,192,66620,1,8,0:0:0:0:
256,192,66754,1,0,0:0:0:0:
256,192,67020,1,8,0:0:0:0:
256,192,67154,1,8,0:0:0:0:
256,192,67420,1,4,0:0:0:0:
256,192,67687,1,12,0:0:0:0:
256,192,67954,1,4,0:0:0:0:
256,192,68220,1,12,0:0:0:0:
256,192,68487,1,4,0:0:0:0:
256,192,68754,1,8,0:0:0:0:
256,192,69020,1,0,0:0:0:0:
256,192,69154,1,0,0:0:0:0:
256,192,69287,1,8,0:0:0:0:
256,192,69554,1,4,0:0:0:0:
256,192,69954,1,12,0:0:0:0:
256,192,70620,1,8,0:0:0:0:
224,192,70754,1,0,0:0:0:0:
256,192,70887,1,8,0:0:0:0:
256,192,71154,1,0,0:0:0:0:
256,192,71554,1,8,0:0:0:0:
256,192,71687,1,0,0:0:0:0:
256,192,71954,1,8,0:0:0:0:
256,192,72220,1,0,0:0:0:0:
256,192,72354,1,8,0:0:0:0:
256,192,72487,1,0,0:0:0:0:
256,192,72754,1,12,0:0:0:0:
256,192,73020,1,8,0:0:0:0:
256,192,73287,1,0,0:0:0:0:
256,192,73420,1,0,0:0:0:0:
256,192,73554,1,8,0:0:0:0:
256,192,73820,1,4,0:0:0:0:
256,192,74220,1,4,0:0:0:0:
256,192,74887,1,0,0:0:0:0:
256,192,75154,1,8,0:0:0:0:
256,192,75287,1,0,0:0:0:0:
256,192,75554,1,8,0:0:0:0:
256,192,75687,1,8,0:0:0:0:
256,192,75954,1,4,0:0:0:0:
256,192,76220,1,12,0:0:0:0:
256,192,76487,1,4,0:0:0:0:
256,192,76754,1,12,0:0:0:0:
256,192,77020,1,4,0:0:0:0:
256,192,77287,1,8,0:0:0:0:
256,192,77554,1,0,0:0:0:0:
256,192,77687,1,0,0:0:0:0:
256,192,77820,1,8,0:0:0:0:
256,192,78087,1,4,0:0:0:0:
256,192,78487,1,12,0:0:0:0:
256,192,79154,1,0,0:0:0:0:
256,192,79287,1,0,0:0:0:0:
256,192,79420,1,8,0:0:0:0:
256,192,79687,1,0,0:0:0:0:
256,192,79820,1,8,0:0:0:0:
256,192,79954,1,0,0:0:0:0:
256,192,80087,1,8,0:0:0:0:
256,192,80220,1,8,0:0:0:0:
256,192,80754,1,0,0:0:0:0:
256,192,81020,1,0,0:0:0:0:
256,192,81287,1,12,0:0:0:0:
256,192,81820,1,8,0:0:0:0:
256,192,82087,1,0,0:0:0:0:
256,192,82354,1,8,0:0:0:0:
256,192,82887,1,0,0:0:0:0:
256,192,83154,1,8,0:0:0:0:
256,192,83420,1,0,0:0:0:0:
256,192,83954,1,8,0:0:0:0:
256,192,84220,1,8,0:0:0:0:
256,192,84487,1,0,0:0:0:0:
256,192,85554,1,0,0:0:0:0:
256,192,86087,1,0,0:0:0:0:
256,192,86354,1,8,0:0:0:0:
256,192,86620,1,0,0:0:0:0:
256,192,87154,1,8,0:0:0:0:
256,192,87420,1,8,0:0:0:0:
256,192,87687,1,0,0:0:0:0:
256,192,88220,1,0,0:0:0:0:
256,192,88487,1,8,0:0:0:0:
256,192,88754,1,0,0:0:0:0:
256,192,89287,1,8,0:0:0:0:
256,192,89820,1,8,0:0:0:0:
256,192,90354,1,8,0:0:0:0:
256,192,90887,1,0,0:0:0:0:
256,192,91154,1,0,0:0:0:0:
256,192,91420,1,8,0:0:0:0:
256,192,91954,1,0,0:0:0:0:
256,192,92220,1,0,0:0:0:0:
256,192,92487,1,8,0:0:0:0:
256,192,93020,1,8,0:0:0:0:
256,192,93287,1,0,0:0:0:0:
256,192,93554,1,8,0:0:0:0:
256,192,94087,1,8,0:0:0:0:
256,192,94354,1,0,0:0:0:0:
256,192,94620,1,8,0:0:0:0:
256,192,95154,1,8,0:0:0:0:
256,192,95420,1,0,0:0:0:0:
256,192,95954,1,8,0:0:0:0:
256,192,96220,1,0,0:0:0:0:
256,192,96487,1,0,0:0:0:0:
256,192,96754,1,8,0:0:0:0:
256,192,97020,1,0,0:0:0:0:
256,192,97287,1,8,0:0:0:0:
256,192,98354,1,4,0:0:0:0:
256,192,98887,1,0,0:0:0:0:
256,192,99020,1,8,0:0:0:0:
256,192,99154,1,8,0:0:0:0:
256,192,99287,1,0,0:0:0:0:
256,192,99420,1,8,0:0:0:0:
256,192,99954,1,0,0:0:0:0:
256,192,100087,1,8,0:0:0:0:
256,192,100220,1,8,0:0:0:0:
256,192,100354,1,8,0:0:0:0:
256,192,100487,1,0,0:0:0:0:
256,192,100754,1,8,0:0:0:0:
256,192,101020,1,0,0:0:0:0:
256,192,101154,1,8,0:0:0:0:
256,192,101287,1,8,0:0:0:0:
256,192,101420,1,0,0:0:0:0:
256,192,101554,1,8,0:0:0:0:
256,192,101820,1,8,0:0:0:0:
256,192,102087,1,0,0:0:0:0:
256,192,102620,1,12,0:0:0:0:
256,192,102887,1,0,0:0:0:0:
256,192,103154,1,8,0:0:0:0:
256,192,103287,1,8,0:0:0:0:
256,192,103420,1,0,0:0:0:0:
256,192,103554,1,0,0:0:0:0:
256,192,103687,1,8,0:0:0:0:
256,192,104087,1,0,0:0:0:0:
256,192,104487,1,8,0:0:0:0:
256,192,104754,1,0,0:0:0:0:
256,192,105420,1,8,0:0:0:0:
256,192,105554,1,0,0:0:0:0:
256,192,105820,1,12,0:0:0:0:
256,192,106220,1,4,0:0:0:0:
256,192,106620,1,8,0:0:0:0:
256,192,106887,1,4,0:0:0:0:
256,192,107420,1,12,0:0:0:0:
256,192,107620,1,12,0:0:0:0:
256,192,107954,1,4,0:0:0:0:
256,192,108154,1,4,0:0:0:0:
256,192,108487,1,12,0:0:0:0:
256,192,108754,1,12,0:0:0:0:
256,192,109020,1,4,0:0:0:0:
256,192,109554,1,8,0:0:0:0:
256,192,109687,1,0,0:0:0:0:
256,192,109820,1,8,0:0:0:0:
256,192,109954,1,8,0:0:0:0:
256,192,110087,1,0,0:0:0:0:
256,192,110354,1,8,0:0:0:0:
256,192,110487,1,8,0:0:0:0:
256,192,110620,1,0,0:0:0:0:
256,192,110887,1,0,0:0:0:0:
256,192,111154,1,12,0:0:0:0:
256,192,111687,1,0,0:0:0:0:
256,192,111820,1,8,0:0:0:0:
256,192,111954,1,0,0:0:0:0:
256,192,112087,1,0,0:0:0:0:
256,192,112220,1,8,0:0:0:0:
256,192,112487,1,0,0:0:0:0:
256,192,112754,1,8,0:0:0:0:
256,192,112887,1,0,0:0:0:0:
256,192,113020,1,8,0:0:0:0:
256,192,113154,1,8,0:0:0:0:
256,192,113287,1,0,0:0:0:0:
256,192,113554,1,8,0:0:0:0:
256,192,113687,1,8,0:0:0:0:
256,192,114354,1,8,0:0:0:0:
256,192,114620,1,0,0:0:0:0:
256,192,114887,1,8,0:0:0:0:
256,192,115420,1,0,0:0:0:0:
256,192,115954,1,8,0:0:0:0:
256,192,116220,1,0,0:0:0:0:
256,192,116487,1,8,0:0:0:0:
256,192,117020,1,0,0:0:0:0:
256,192,117287,1,8,0:0:0:0:
256,192,117554,1,0,0:0:0:0:
256,192,118087,1,8,0:0:0:0:
256,192,118354,1,8,0:0:0:0:
256,192,118620,1,0,0:0:0:0:
256,192,119687,1,8,0:0:0:0:
256,192,120220,1,8,0:0:0:0:
256,192,120487,1,0,0:0:0:0:
256,192,120754,1,8,0:0:0:0:
256,192,121287,1,8,0:0:0:0:
256,192,121820,1,0,0:0:0:0:
256,192,122087,1,8,0:0:0:0:
256,192,122354,1,0,0:0:0:0:
256,192,122620,1,0,0:0:0:0:
256,192,122887,1,8,0:0:0:0:
256,192,123420,1,8,0:0:0:0:
256,192,123554,1,8,0:0:0:0:
256,192,123687,1,8,0:0:0:0:
256,192,123954,1,4,0:0:0:0:
