osu file format v14

[General]
AudioFilename: audio.mp3
AudioLeadIn: 0
PreviewTime: 81913
Countdown: 0
SampleSet: Soft
StackLeniency: 0
Mode: 0
LetterboxInBreaks: 0
WidescreenStoryboard: 0

[Editor]
Bookmarks: 31120,41278,71755,81913,92072,102231,112707,123024
DistanceSpacing: 1
BeatDivisor: 4
GridSize: 8
TimelineZoom: 3.699999

[Metadata]
Title:Aratanaru Ketsui
TitleUnicode:新たなる決意
Artist:69 de 74
ArtistUnicode:69 de 74
Creator:Reywateil
Version:The Determination
Source:大血戦 -THE BMS OF FIGHTERS ULTIMATE-
Tags:BOF Daikessen BOFU2015 RENAISSANCE TRANCECORE TEAM 創作トランス推進委員会 Sōsaku Sousaku Toransu Suishin īnkai Iinkai electronic instrumental remix yooh starcastler phynta kalindraz flask fa featured artist mappers mappers' guild mg mpg
BeatmapID:3625423
BeatmapSetID:1771017

[Difficulty]
HPDrainRate:6
CircleSize:4.5
OverallDifficulty:9
ApproachRate:9.6
SliderMultiplier:2.3
SliderTickRate:0.5

[Events]
//Background and Video events
0,0,"1234.jpg",0,0
//Break Periods
//Storyboard Layer 0 (Background)
//Storyboard Layer 1 (Fail)
//Storyboard Layer 2 (Pass)
//Storyboard Layer 3 (Foreground)
//Storyboard Layer 4 (Overlay)
//Storyboard Sound Samples

[TimingPoints]
644,317.460317460318,4,2,1,70,1,0
644,-166.666666666667,4,2,1,70,0,0
723,-166.666666666667,4,2,1,50,0,0
1913,-133.333333333333,4,2,1,50,0,0
3183,-166.666666666667,4,2,1,50,0,0
5723,-166.666666666667,4,2,1,60,0,0
6993,-125,4,2,1,60,0,0
8263,-125,4,2,1,65,0,0
8897,-83.3333333333333,4,2,1,65,0,0
10485,-57.1428571428571,4,2,1,70,0,0
10723,-57.1428571428571,4,2,2,5,0,0
10802,-83.3333333333333,4,2,1,75,0,0
11199,-83.3333333333333,4,2,2,5,0,0
11278,-83.3333333333333,4,2,1,75,0,0
12786,-83.3333333333333,4,2,2,5,0,0
12866,-83.3333333333333,4,2,1,75,0,0
14215,-83.3333333333333,4,2,2,5,0,0
14294,-83.3333333333333,4,2,1,75,0,0
16278,-83.3333333333333,4,2,2,5,0,0
16358,-83.3333333333333,4,2,1,75,0,0
17866,-83.3333333333333,4,2,2,5,0,0
17945,-83.3333333333333,4,2,1,75,0,0
18421,-74.0740740740741,4,2,1,80,0,0
18818,-74.0740740740741,4,2,2,5,0,0
18897,-74.0740740740741,4,2,1,80,0,0
20961,-83.3333333333333,4,2,1,75,0,0
21358,-83.3333333333333,4,2,2,5,0,0
21437,-83.3333333333333,4,2,1,75,0,0
22945,-83.3333333333333,4,2,2,5,0,0
23024,-83.3333333333333,4,2,1,75,0,0
24374,-83.3333333333333,4,2,2,5,0,0
24453,-83.3333333333333,4,2,1,75,0,0
26437,-83.3333333333333,4,2,2,5,0,0
26517,-83.3333333333333,4,2,1,75,0,0
28024,-83.3333333333333,4,2,2,5,0,0
28104,-83.3333333333333,4,2,1,75,0,0
28580,-74.0740740740741,4,2,1,80,0,0
28977,-74.0740740740741,4,2,2,5,0,0
29056,-74.0740740740741,4,2,1,80,0,0
30009,-68.9655172413793,4,2,1,80,0,0
31120,-100,4,2,1,70,0,0
40088,-100,4,2,2,5,0,0
40167,-80,4,2,1,70,0,0
40485,-66.6666666666667,4,2,1,70,0,0
41278,-62.5,4,2,1,80,0,0
41437,-62.5,4,2,2,5,0,0
41517,-62.5,4,2,1,80,0,0
41675,-62.5,4,2,2,5,0,0
41755,-62.5,4,2,1,80,0,0
41913,-62.5,4,2,2,5,0,0
41993,-62.5,4,2,1,80,0,0
42151,-62.5,4,2,2,5,0,0
42231,-62.5,4,2,1,80,0,0
43818,-58.8235294117647,4,2,1,80,0,0
43977,-58.8235294117647,4,2,2,5,0,0
44056,-58.8235294117647,4,2,1,80,0,0
44215,-58.8235294117647,4,2,2,5,0,0
44294,-58.8235294117647,4,2,1,80,0,0
44453,-58.8235294117647,4,2,2,5,0,0
44532,-58.8235294117647,4,2,1,80,0,0
44691,-58.8235294117647,4,2,2,5,0,0
44770,-58.8235294117647,4,2,1,80,0,0
46358,-66.6666666666667,4,2,1,80,0,0
47151,-66.6666666666667,4,2,2,5,0,0
47231,-66.6666666666667,4,2,1,80,0,0
47390,-66.6666666666667,4,2,2,5,0,0
47469,-66.6666666666667,4,2,1,80,0,0
48897,-62.5,4,2,1,85,0,0
50802,-83.3333333333333,4,2,1,85,0,0
51199,-71.4285714285714,4,2,1,85,0,0
51278,-62.5,4,2,1,85,0,0
51358,-55.5555555555556,4,2,1,85,0,0
51437,-76.9230769230769,4,2,1,70,0,0
51675,-76.9230769230769,4,2,2,5,0,0
51755,-76.9230769230769,4,2,1,70,0,0
56199,-55.5555555555556,4,2,1,70,0,0
56318,-55.5555555555556,4,2,2,5,0,0
56358,-55.5555555555556,4,2,1,70,0,0
56477,-55.5555555555556,4,2,2,5,0,0
56517,-250,4,2,1,70,0,0
56834,-66.6666666666667,4,2,1,70,0,0
57786,-250,4,2,1,70,0,0
58104,-66.6666666666667,4,2,1,70,0,0
59691,-62.5,4,2,1,70,0,0
59850,-62.5,4,2,2,5,0,0
59903,-62.5,4,2,1,70,0,0
60061,-62.5,4,2,2,5,0,0
60114,-62.5,4,2,1,70,0,0
60220,-62.5,4,2,2,5,0,0
60326,-62.5,4,2,1,70,0,0
61596,-76.9230769230769,4,2,1,75,0,0
65961,-76.9230769230769,4,2,2,5,0,0
66040,-76.9230769230769,4,2,1,75,0,0
66675,-250,4,2,1,75,0,0
66993,-66.6666666666667,4,2,1,75,0,0
67945,-250,4,2,1,75,0,0
68263,-66.6666666666667,4,2,1,75,0,0
69215,-66.6666666666667,4,2,1,80,0,0
70485,-57.1428571428571,4,2,1,80,0,0
70644,-44.4444444444445,4,2,1,80,0,0
70802,-57.1428571428571,4,2,1,80,0,0
70961,-44.4444444444445,4,2,1,80,0,0
71120,-57.1428571428571,4,2,1,80,0,0
71755,-76.9230769230769,4,2,3,70,0,0
73977,-50,4,2,3,70,0,0
74096,-50,4,2,2,5,0,0
74136,-50,4,2,3,70,0,0
74255,-50,4,2,2,5,0,0
74294,-76.9230769230769,4,2,3,70,0,0
76199,-66.6666666666667,4,2,3,70,0,0
76834,-76.9230769230769,4,2,3,70,0,0
79056,-57.1428571428571,4,2,1,70,0,0
79294,-57.1428571428571,4,2,2,5,0,0
79374,-76.9230769230769,4,2,3,70,0,0
81596,-50,4,2,1,70,0,0
81834,-50,4,2,2,5,0,0
81913,-166.666666666667,4,2,1,70,0,0
83183,-166.666666666667,4,2,1,55,0,0
85723,-250.000000000001,4,2,1,55,0,0
86913,-250.000000000001,4,2,2,5,0,0
86993,-166.666666666667,4,2,1,55,0,0
89453,-166.666666666667,4,2,2,5,0,0
89532,-166.666666666667,4,2,1,55,0,0
90802,-250,4,2,1,55,0,0
91993,-250,4,2,2,5,0,0
92072,-125,4,2,1,60,0,0
94612,-111.111111111111,4,2,1,65,0,0
97151,-111.111111111111,4,2,1,70,0,0
99770,-111.111111111111,4,2,2,5,0,0
99850,-111.111111111111,4,2,1,70,0,0
100167,-90.9090909090908,4,2,1,70,0,0
100247,-90.9090909090908,4,2,2,5,0,0
100326,-90.9090909090908,4,2,1,70,0,0
100644,-76.9230769230769,4,2,1,70,0,0
100723,-76.9230769230769,4,2,2,5,0,0
100802,-76.9230769230769,4,2,1,70,0,0
102231,-71.4285714285714,4,2,1,75,0,0
102628,-71.4285714285714,4,2,2,5,0,0
102707,-71.4285714285714,4,2,1,75,0,0
104215,-71.4285714285714,4,2,2,5,0,0
104294,-71.4285714285714,4,2,1,75,0,0
105009,-71.4285714285714,4,2,2,5,0,0
105088,-71.4285714285714,4,2,1,75,0,0
105644,-71.4285714285714,4,2,2,5,0,0
105723,-71.4285714285714,4,2,1,75,0,0
107707,-71.4285714285714,4,2,2,5,0,0
107786,-71.4285714285714,4,2,1,75,0,0
109850,-62.5,4,2,1,80,0,0
110802,-57.1428571428571,4,2,1,80,0,0
111120,-57.1428571428571,4,2,1,85,0,0
112231,-250,4,2,1,90,0,0
112628,-250,4,2,2,5,0,0
112707,-57.1428571428571,4,2,1,75,0,0
112945,-57.1428571428571,4,2,2,5,0,0
113024,-57.1428571428571,4,2,1,75,0,0
117469,-57.1428571428571,4,2,1,80,0,0
118739,-66.6666666666667,4,2,1,80,0,0
119691,-50,4,2,1,80,0,0
120009,-50,4,2,1,85,0,0

[Colours]
Combo1 : 236,232,145
Combo2 : 112,156,155
Combo3 : 220,219,218

[HitObjects]
117,241,644,6,0,P|213:253|353:281,1,206.999993682861,4|0,3:2|0:0,0:0:0:0:
358,356,1278,2,0,P|411:348|443:261,1,137.999995788574,2|0,0:0|0:0,0:0:0:0:
252,125,1913,6,0,P|102:161|-26:181,2,258.75000987053,0|2|0,3:0|3:2|3:0,0:0:0:0:
392,0,3183,2,0,P|492:35|498:146,2,206.999993682861,0|2|0,3:0|0:0|0:0,0:0:0:0:
252,125,4453,5,0,3:0:0:0:
256,138,4929,1,0,3:0:0:0:
300,65,5247,5,0,3:0:0:0:
210,201,5405,2,0,P|182:192|163:190,3,34.4999989471436,0|0|0|0,3:0|3:0|3:0|3:0,0:0:0:0:
264,260,5723,5,4,3:2:0:0:
335,246,5882,1,0,3:0:0:0:
300,65,6040,5,0,3:0:0:0:
371,79,6199,1,0,3:0:0:0:
270,276,6358,5,0,3:0:0:0:
362,294,6517,1,0,3:0:0:0:
304,53,6675,5,0,3:0:0:0:
396,35,6834,1,0,3:0:0:0:
444,241,6993,5,4,3:2:0:0:
267,369,7151,2,0,P|216:342|160:326,1,92,0|0,3:0|0:0,0:0:0:0:
433,238,7469,1,0,3:0:0:0:
193,219,7628,2,0,P|142:246|86:262,1,92,4|0,3:2|0:0,0:0:0:0:
261,382,7945,2,0,P|210:355|154:339,1,92,0|0,3:0|0:0,0:0:0:0:
12,191,8263,5,4,3:2:0:0:
0,146,8342,1,0,3:0:0:0:
3,101,8421,1,0,3:0:0:0:
23,60,8501,1,0,3:0:0:0:
56,28,8580,1,0,3:0:0:0:
98,10,8659,1,0,3:0:0:0:
144,9,8739,2,0,P|133:40|129:70,1,46,2|0,3:0|0:0,0:0:0:0:
288,255,8897,6,0,P|277:224|273:181,1,68.9999978942872,8|0,3:0|0:0,0:0:0:0:
261,83,9056,2,0,P|263:75|274:88,2,34.4999989471436,2|0|0,3:0|3:0|3:0,0:0:0:0:
362,315,9215,6,0,P|373:284|377:241,1,68.9999978942872,8|0,3:0|0:0,0:0:0:0:
394,27,9374,2,0,P|392:19|381:32,2,34.4999989471436,2|0|0,3:0|3:0|3:0,0:0:0:0:
500,156,9532,5,8,3:0:0:0:
187,131,9691,1,4,3:2:0:0:
187,131,10009,5,0,0:0:0:0:
162,96,10088,1,0,0:0:0:0:
122,84,10167,1,8,3:0:0:0:
116,72,10326,1,8,3:0:0:0:
293,138,10485,6,0,B|208:112|165:192|172:196|149:294|22:277,1,301.875002878904,12|0,3:2|0:0,0:0:0:0:
0,157,10802,6,0,P|66:172|308:340,1,344.999989471436,12|0,3:0|0:0,0:0:0:0:
346,379,11278,1,2,0:3:0:0:
494,231,11437,2,0,P|463:292|416:343,1,137.999995788574,8|0,3:0|0:0,0:0:0:0:
339,66,11755,2,0,P|360:131|362:200,1,137.999995788574,4|0,3:0|0:0,0:0:0:0:
254,21,12072,5,8,3:0:0:0:
269,20,12231,1,2,0:3:0:0:
451,162,12390,6,0,P|441:113|447:64,1,68.9999978942872,4|0,3:0|0:0,0:0:0:0:
254,21,12548,2,0,P|184:35|175:178,1,206.999993682861,4|0,3:2|0:0,0:0:0:0:
199,215,12866,5,8,3:0:0:0:
348,307,13024,2,0,P|333:242|272:215,1,137.999995788574,4|2,3:2|0:3,0:0:0:0:
129,246,13342,6,0,P|66:274|0:292,2,137.999995788574,8|0|4,3:0|0:0|0:3,0:0:0:0:
215,65,13818,1,2,3:0:0:0:
102,62,13977,2,0,P|219:99|314:120,1,206.999993682861,8|0,3:0|0:0,0:0:0:0:
375,124,14294,2,0,P|442:90|436:20,1,137.999995788574,4|0,3:0|0:0,0:0:0:0:
330,188,14612,5,8,3:0:0:0:
341,218,14691,1,0,0:0:0:0:
344,250,14770,1,2,0:3:0:0:
512,144,14929,2,0,P|493:231|491:301,1,137.999995788574,4|2,3:2|0:3,0:0:0:0:
403,349,15247,5,8,3:0:0:0:
405,332,15326,1,0,0:0:0:0:
410,318,15405,1,2,0:3:0:0:
256,132,15564,1,8,3:0:0:0:
300,326,15723,1,2,3:3:0:0:
510,384,15882,6,0,P|318:357|157:340,1,344.999989471436,12|0,3:0|0:0,0:0:0:0:
97,334,16358,1,2,0:3:0:0:
17,138,16517,2,0,P|55:222|79:288,1,137.999995788574,8|0,3:0|0:0,0:0:0:0:
234,38,16834,2,0,P|201:124|171:187,1,137.999995788574,4|0,3:0|0:0,0:0:0:0:
145,0,17151,5,8,3:0:0:0:
158,4,17310,1,2,0:3:0:0:
281,171,17469,6,0,P|291:137|312:97,1,68.9999978942872,8|0,3:0|0:0,0:0:0:0:
145,0,17628,2,0,P|72:5|32:137,1,206.999993682861,4|0,3:2|0:0,0:0:0:0:
50,184,17945,5,8,3:0:0:0:
209,249,18104,2,0,P|177:180|116:174,1,137.999995788574,4|2,3:2|0:3,0:0:0:0:
232,384,18421,6,0,P|348:221|501:76,1,388.125001480579,8|0,3:0|0:0,0:0:0:0:
492,15,18897,2,0,P|446:6|424:57,1,77.6250002961159,2|0,0:3|0:0,0:0:0:0:
379,83,19056,2,0,P|418:149|449:220,1,155.250000592232,8|0,3:0|0:0,0:0:0:0:
304,3,19374,2,0,P|285:78|256:150,1,155.250000592232,4|0,3:0|0:0,0:0:0:0:
384,355,19691,1,8,3:0:0:0:
390,343,19850,1,2,3:0:0:0:
232,384,20009,2,0,P|307:365|403:354,1,155.250000592232,4|0,3:0|0:0,0:0:0:0:
214,232,20326,5,8,3:0:0:0:
414,256,20485,2,0,P|433:265|448:303,2,38.8125001480579,2|0|0,3:0|3:0|3:0,0:0:0:0:
466,350,20644,1,8,3:0:0:0:
131,326,20802,1,2,3:0:0:0:
6,154,20961,6,0,P|52:17|233:35,1,344.999989471436,12|0,3:0|0:0,0:0:0:0:
279,89,21437,1,2,0:3:0:0:
489,42,21596,2,0,P|377:62|304:92,1,137.999995788574,8|0,3:0|0:0,0:0:0:0:
81,175,21913,2,0,P|148:192|212:219,1,137.999995788574,4|0,3:0|0:0,0:0:0:0:
103,98,22231,5,8,3:0:0:0:
90,101,22390,1,2,0:3:0:0:
202,305,22548,6,0,P|243:291|280:284,1,68.9999978942872,8|0,3:0|0:0,0:0:0:0:
90,101,22707,2,0,P|46:212|3:298,1,206.999993682861,4|0,3:2|0:0,0:0:0:0:
61,345,23024,5,8,3:0:0:0:
227,384,23183,2,0,P|288:348|253:268,1,137.999995788574,4|2,3:2|0:3,0:0:0:0:
183,124,23501,6,0,P|183:194|270:204,2,137.999995788574,8|0|4,3:0|0:0|0:3,0:0:0:0:
362,110,23977,1,2,3:0:0:0:
353,14,24136,2,0,P|325:156|317:252,1,206.999993682861,8|0,3:0|0:0,0:0:0:0:
378,269,24453,2,0,P|458:239|536:229,1,137.999995788574,4|0,3:0|0:0,0:0:0:0:
352,357,24770,5,8,3:0:0:0:
319,345,24850,1,0,0:0:0:0:
298,317,24929,1,2,0:3:0:0:
486,143,25088,2,0,P|406:173|328:183,1,137.999995788574,4|2,3:2|0:3,0:0:0:0:
217,318,25405,5,8,3:0:0:0:
213,301,25485,1,0,0:0:0:0:
220,286,25564,1,2,0:3:0:0:
378,269,25723,1,4,3:2:0:0:
170,215,25882,1,2,3:3:0:0:
82,384,26040,6,0,P|55:239|-3:39,1,344.999989471436,8|0,3:0|0:0,0:0:0:0:
59,0,26517,1,2,0:3:0:0:
254,87,26675,2,0,P|175:58|120:30,1,137.999995788574,8|0,3:0|0:0,0:0:0:0:
303,175,26993,2,0,P|226:210|167:229,1,137.999995788574,4|0,3:0|0:0,0:0:0:0:
346,254,27310,5,8,3:0:0:0:
341,242,27469,1,2,0:3:0:0:
107,176,27628,6,0,P|136:160|174:146,1,68.9999978942872,8|0,3:0|0:0,0:0:0:0:
346,254,27786,2,0,P|390:137|463:147,1,206.999993682861,4|0,3:2|0:0,0:0:0:0:
506,194,28104,5,8,3:0:0:0:
422,384,28263,2,0,P|444:275|469:212,1,137.999995788574,4|2,3:2|0:3,0:0:0:0:
357,0,28580,6,0,P|311:157|258:387,1,388.125001480579,8|0,3:0|0:0,0:0:0:0:
188,384,29056,2,0,P|174:336|155:288,1,77.6250002961159,2|0,0:3|0:0,0:0:0:0:
81,101,29215,1,8,3:0:0:0:
277,184,29374,1,2,3:0:0:0:
386,148,29532,1,8,3:0:0:0:
76,87,29691,1,2,3:0:0:0:
76,87,30009,6,0,P|51:43|11:0,1,83.3750025444031,2|0,3:0|0:0,0:0:0:0:
398,144,30167,1,8,3:0:0:0:
157,79,30326,2,0,P|157:101|144:136,2,41.6875012722016,0|0|0,3:0|3:0|3:0,0:0:0:0:
114,182,30485,1,8,3:0:0:0:
256,0,30644,1,10,3:0:0:0:
319,283,30802,5,2,0:0:0:0:
376,281,30882,5,2,0:0:0:0:
424,312,30961,5,2,0:0:0:0:
455,360,31040,5,2,0:0:0:0:
512,372,31120,5,8,3:0:0:0:
360,360,31278,1,2,0:0:0:0:
352,367,31437,1,4,0:3:0:0:
275,361,31596,5,0,3:2:0:0:
204,136,31755,1,8,0:3:0:0:
207,123,31913,1,2,0:0:0:0:
280,18,32072,5,4,3:0:0:0:
237,271,32231,1,2,0:0:0:0:
87,309,32390,5,8,3:0:0:0:
237,271,32548,1,0,3:2:0:0:
87,309,32707,1,4,3:0:0:0:
21,247,32866,1,0,3:2:0:0:
237,271,33024,5,8,3:0:0:0:
458,229,33183,1,2,0:0:0:0:
501,60,33342,5,4,3:0:0:0:
280,18,33501,1,2,0:0:0:0:
352,60,33659,5,8,3:0:0:0:
202,78,33818,1,2,0:0:0:0:
192,72,33977,1,4,0:3:0:0:
133,24,34136,5,0,3:0:0:0:
98,250,34295,1,8,0:3:0:0:
86,252,34454,1,2,0:0:0:0:
0,356,34612,5,4,3:0:0:0:
249,292,34770,1,2,0:0:0:0:
317,328,34929,5,8,3:0:0:0:
249,292,35087,1,0,3:0:0:0:
221,167,35247,1,4,3:0:0:0:
219,155,35405,1,0,3:0:0:0:
317,328,35564,5,8,3:0:0:0:
418,339,35723,1,2,0:0:0:0:
429,237,35882,5,4,3:0:0:0:
328,226,36040,1,2,0:0:0:0:
485,296,36199,5,8,3:0:0:0:
447,142,36358,1,2,0:0:0:0:
438,134,36517,1,4,0:3:0:0:
490,77,36675,5,0,3:0:0:0:
280,24,36834,1,8,0:3:0:0:
271,31,36993,1,2,0:0:0:0:
346,68,37151,5,4,3:0:0:0:
98,100,37310,1,2,0:0:0:0:
55,29,37469,5,8,3:0:0:0:
98,100,37628,1,0,3:0:0:0:
240,138,37786,1,4,3:0:0:0:
252,142,37945,1,0,3:0:0:0:
45,163,38104,5,8,3:0:0:0:
98,100,38263,1,2,0:0:0:0:
55,29,38422,5,4,3:0:0:0:
34,167,38580,1,2,0:0:0:0:
221,321,38739,5,8,3:0:0:0:
131,204,38897,1,2,0:0:0:0:
120,207,39056,1,4,3:0:0:0:
101,353,39215,1,2,0:0:0:0:
290,384,39374,5,8,3:0:0:0:
327,64,39532,1,0,3:0:0:0:
389,0,39691,1,8,3:0:0:0:
512,299,39850,2,0,L|328:334,1,172.5,0|0,3:0|0:0,0:0:0:0:
290,384,40167,5,8,3:0:0:0:
473,223,40326,2,0,P|423:215|397:185,1,71.875,4|0,3:2|0:0,0:0:0:0:
230,231,40485,2,0,L|272:239,3,43.1250016450883,2|0|0|0,3:0|3:0|3:0|3:0,0:0:0:0:
343,250,40644,1,8,3:0:0:0:
470,142,40802,1,8,3:0:0:0:
155,318,40961,5,4,3:2:0:0:
73,2,41120,1,2,3:0:0:0:
42,257,41278,6,0,P|145:227|154:151,1,184,8|0,3:0|0:0,0:0:0:0:
37,100,41517,2,0,P|11:204|72:249,1,184,8|0,3:0|0:0,0:0:0:0:
179,179,41755,2,0,L|372:143,1,184,8|0,3:0|0:0,0:0:0:0:
472,65,41993,2,0,L|279:29,1,184,8|0,3:0|0:0,0:0:0:0:
178,13,42231,5,12,3:2:0:0:
178,13,42548,5,8,3:0:0:0:
175,34,42628,2,0,P|211:51|205:124,1,92,2|0,0:2|0:0,0:0:0:0:
149,162,42786,1,8,3:0:0:0:
152,141,42866,2,0,P|116:124|122:51,1,92,2|0,0:2|0:0,0:0:0:0:
0,51,43024,1,8,3:0:0:0:
12,35,43104,2,0,L|122:52,1,92,2|0,0:2|0:0,0:0:0:0:
238,118,43263,1,8,3:0:0:0:
250,134,43342,2,0,L|360:117,1,92,2|0,0:2|0:0,0:0:0:0:
487,96,43501,5,12,3:2:0:0:
487,96,43818,2,0,P|395:107|413:241,1,195.500003728867,8|0,3:0|0:0,0:0:0:0:
494,252,44056,2,0,P|530:166|405:115,1,195.500003728867,8|0,3:0|2:0,2:0:0:0:
377,212,44294,2,0,P|270:225|166:246,1,195.500003728867,8|0,3:0|0:0,0:0:0:0:
103,346,44532,2,0,P|91:248|73:152,1,195.500003728867,8|0,3:0|0:0,0:0:0:0:
43,30,44770,5,12,3:2:0:0:
43,30,45088,5,8,3:0:0:0:
110,41,45167,1,2,0:2:0:0:
155,93,45247,1,2,0:2:0:0:
85,129,45326,5,8,3:0:0:0:
67,118,45405,1,2,0:2:0:0:
48,111,45485,1,2,0:2:0:0:
43,30,45564,5,8,3:0:0:0:
110,41,45643,1,2,0:2:0:0:
155,93,45723,1,2,0:2:0:0:
192,175,45802,5,8,3:0:0:0:
211,179,45881,1,2,0:2:0:0:
230,187,45961,1,2,0:2:0:0:
308,214,46040,5,12,3:2:0:0:
308,214,46358,6,0,P|368:116|415:66,1,172.500006580353,8|0,3:0|0:0,0:0:0:0:
341,0,46596,1,0,3:0:0:0:
327,0,46675,2,0,P|244:16|244:104,1,172.500006580353,0|4,3:0|0:0,0:0:0:0:
331,312,46993,6,0,P|427:284|514:264,1,172.500006580353,8|0,3:0|0:0,0:0:0:0:
413,373,47231,2,0,P|317:345|230:325,1,172.500006580353,0|0,3:0|0:0,0:0:0:0:
140,309,47469,1,4,3:2:0:0:
0,151,47628,6,0,P|42:142|111:109,1,86.2500032901765,8|0,3:0|0:0,0:0:0:0:
246,170,47786,1,0,3:0:0:0:
247,185,47866,2,0,P|202:196|144:219,1,86.2500032901765,8|0,3:0|0:0,0:0:0:0:
341,80,48024,1,0,3:0:0:0:
338,94,48104,2,0,P|260:77|216:61,1,86.2500032901765,8|0,3:0|0:0,0:0:0:0:
71,16,48263,6,0,P|113:25|182:58,1,86.2500032901765,8|0,3:0|0:0,0:0:0:0:
352,226,48421,1,0,3:0:0:0:
383,240,48501,2,0,P|436:216|436:171,1,86.2500032901765,8|0,3:0|0:0,0:0:0:0:
510,54,48659,1,0,3:0:0:0:
511,20,48739,2,0,P|454:33|409:39,1,86.2500032901765,8|0,3:0|0:0,0:0:0:0:
252,18,48897,5,8,3:0:0:0:
235,42,48976,1,0,3:0:0:0:
227,70,49056,1,0,3:0:0:0:
6,96,49215,5,8,3:0:0:0:
25,140,49294,1,0,3:0:0:0:
59,174,49374,1,0,3:0:0:0:
165,280,49532,6,0,P|145:223|140:162,1,92,8|0,3:0|3:0,0:0:0:0:
144,50,49691,2,0,P|133:52|146:41,2,46,0|0|0,3:0|3:0|3:0,0:0:0:0:
298,356,49850,6,0,P|318:299|323:238,1,92,8|0,3:0|3:0,0:0:0:0:
348,27,50009,2,0,P|337:29|350:18,2,46,0|0|0,3:0|3:0|3:0,0:0:0:0:
454,315,50167,5,4,3:1:0:0:
492,251,50247,1,0,0:0:0:0:
490,186,50326,1,0,0:0:0:0:
462,138,50405,1,0,0:0:0:0:
414,109,50485,1,0,0:0:0:0:
369,99,50564,1,0,0:0:0:0:
328,107,50644,1,0,0:0:0:0:
296,124,50723,1,0,0:0:0:0:
274,148,50802,6,0,P|311:150|350:164,1,68.9999978942872,8|0,3:0|0:0,0:0:0:0:
489,56,50961,1,0,3:0:0:0:
294,228,51120,2,0,P|296:249|309:282,1,34.4999989471436,0|0,3:0|0:0,0:0:0:0:
225,233,51199,2,0,P|227:254|237:287,1,40.2499987716675,0|0,3:0|0:0,0:0:0:0:
156,241,51278,2,0,P|158:262|167:296,1,46,0|0,3:0|0:0,0:0:0:0:
88,251,51358,2,0,P|89:273|96:305,1,51.7499984207154,0|0,3:0|0:0,0:0:0:0:
20,263,51437,6,0,P|93:209|69:88,1,224.24998973465,8|0,3:0|0:0,0:0:0:0:
10,53,51755,1,0,3:0:0:0:
10,40,51913,1,2,0:3:0:0:
184,11,52072,2,0,P|179:85|185:160,1,149.499993156433,8|0,3:0|0:0,0:0:0:0:
221,354,52390,1,0,3:0:0:0:
224,366,52548,1,2,0:3:0:0:
148,319,52707,5,8,3:0:0:0:
310,371,52866,2,0,L|340:265,2,74.7499965782167,2|0|0,3:3|3:0|3:0,0:0:0:0:
307,383,53183,1,0,0:0:0:0:
48,262,53342,5,8,3:0:0:0:
179,215,53501,1,2,0:3:0:0:
401,359,53659,5,8,3:0:0:0:
463,81,53818,1,2,0:3:0:0:
512,301,53977,5,8,3:0:0:0:
465,291,54056,1,0,3:0:0:0:
418,281,54135,1,0,3:0:0:0:
372,273,54215,1,0,3:0:0:0:
325,263,54294,2,0,P|308:250|296:214,2,37.3749982891084,0|0|0,3:0|3:0|3:0,0:0:0:0:
216,11,54453,5,0,3:0:0:0:
203,46,54532,1,0,3:0:0:0:
189,81,54612,2,0,L|112:101,1,74.7499965782167,8|0,3:0|0:0,0:0:0:0:
43,117,54770,1,2,3:0:0:0:
280,101,54929,6,0,P|272:136|242:158,1,74.7499965782167,8|0,3:0|0:0,0:0:0:0:
0,53,55088,1,2,0:3:0:0:
69,235,55247,5,0,3:0:0:0:
91,265,55326,1,0,3:0:0:0:
126,277,55405,2,0,P|273:247|472:195,1,298.999986312867,6|0,3:0|0:0,0:0:0:0:
417,210,55802,1,0,0:0:0:0:
417,210,55882,1,8,3:0:0:0:
497,362,56040,2,0,P|485:334|439:327,1,74.7499965782167,2|0,3:0|3:0,0:0:0:0:
218,367,56199,6,0,P|298:345|394:329,1,155.249995262146,8|0,3:0|0:0,0:0:0:0:
364,316,56358,2,0,P|283:337|187:353,1,155.249995262146,8|0,3:0|0:0,0:0:0:0:
95,383,56517,6,0,P|70:335|46:315,1,69
108,384,56834,2,0,P|158:217|234:39,1,345.000013160706,4|0,3:2|0:0,0:0:0:0:
304,55,57310,5,8,3:0:0:0:
158,0,57469,1,2,3:0:0:0:
145,2,57628,1,2,3:0:0:0:
0,63,57786,6,0,P|15:27|52:17,1,69
0,77,58104,2,0,B|122:48|152:134|143:136|206:233|331:189,1,345.000013160706,4|0,3:1|0:0,0:0:0:0:
335,271,58580,5,8,3:0:0:0:
490,45,58739,1,2,3:0:0:0:
491,32,58897,1,2,3:0:0:0:
343,0,59056,5,8,3:0:0:0:
361,61,59135,1,0,3:0:0:0:
378,124,59214,1,0,3:0:0:0:
394,187,59294,1,0,3:0:0:0:
408,250,59374,2,0,P|430:243|462:241,2,43.1250016450883,0|0|0,3:0|3:0|3:0,0:0:0:0:
512,207,59532,2,0,P|449:223|395:227,1,86.2500032901765,0|0,3:0|3:0,0:0:0:0:
292,384,59691,6,0,P|194:352|189:266,1,184,12|0,3:0|0:0,0:0:0:0:
168,279,59903,2,0,P|244:210|321:248,1,184,12|0,3:0|0:0,0:0:0:0:
326,235,60114,2,0,P|305:301|226:289,1,122.666666666667,12|0,3:0|0:0,0:0:0:0:
94,262,60326,5,8,3:0:0:0:
363,355,60485,1,0,0:0:0:0:
453,338,60644,1,0,0:0:0:0:
456,327,60802,1,0,0:0:0:0:
258,310,60961,5,8,3:0:0:0:
219,78,61120,2,0,L|227:124,2,46,0|0|0,3:0|3:0|3:0,0:0:0:0:
73,0,61278,5,0,3:0:0:0:
64,69,61357,1,0,3:0:0:0:
56,140,61436,1,0,3:0:0:0:
48,211,61516,1,0,3:0:0:0:
40,280,61596,2,0,P|157:278|154:164,1,224.24998973465,8|0,3:0|0:0,0:0:0:0:
222,133,61913,2,0,P|307:152|371:171,1,149.499993156433,4|0,3:0|3:0,0:0:0:0:
462,354,62231,1,8,3:0:0:0:
483,276,62390,1,2,0:3:0:0:
425,222,62548,1,4,3:0:0:0:
347,242,62707,1,2,0:3:0:0:
244,47,62866,6,0,P|315:68|389:83,1,149.499993156433,8|0,3:0|0:0,0:0:0:0:
429,19,63104,1,0,0:0:0:0:
433,9,63183,2,0,P|511:61|497:130,1,149.499993156433,4|0,3:0|0:0,0:0:0:0:
425,222,63501,1,8,3:0:0:0:
347,242,63660,1,2,0:3:0:0:
462,354,63818,1,4,3:0:0:0:
210,326,63977,1,2,0:3:0:0:
262,384,64136,6,0,P|235:280|193:162,1,224.24998973465,8|0,3:0|0:0,0:0:0:0:
166,101,64453,2,0,P|250:97|243:188,1,149.499993156433,4|0,3:0|0:0,0:0:0:0:
210,326,64770,1,8,3:0:0:0:
132,306,64929,1,2,0:3:0:0:
39,182,65088,1,4,3:0:0:0:
117,162,65247,1,2,0:3:0:0:
207,338,65405,5,8,3:0:0:0:
192,343,65485,1,0,0:0:0:0:
178,349,65564,2,0,P|160:298|140:257,1,74.7499965782167,2|0,0:3|0:0,0:0:0:0:
312,215,65723,2,0,P|415:240|426:345,1,224.24998973465,4|0,3:0|0:0,0:0:0:0:
354,369,66040,1,8,3:0:0:0:
339,374,66120,1,0,0:0:0:0:
325,380,66199,2,0,P|307:329|287:288,1,74.7499965782167,2|0,0:3|0:0,0:0:0:0:
426,345,66358,1,8,3:0:0:0:
478,68,66517,1,2,0:3:0:0:
203,21,66675,6,0,P|161:37|146:70,1,69
207,34,66993,2,0,P|339:47|419:62,1,172.500006580353,4|0,3:1|0:0,0:0:0:0:
503,145,67310,5,8,3:0:0:0:
478,68,67469,1,2,0:3:0:0:
306,9,67628,5,8,3:0:0:0:
258,155,67787,1,2,0:3:0:0:
53,284,67945,6,0,P|11:268|-4:235,1,69
57,271,68263,2,0,P|194:258|412:225,1,345.000013160706,4|8,3:1|3:0,0:0:0:0:
399,227,68739,5,2,0:3:0:0:
173,347,68897,1,8,3:0:0:0:
170,362,69056,1,2,0:3:0:0:
57,271,69215,5,8,3:0:0:0:
25,143,69374,1,2,3:0:0:0:
249,363,69532,5,8,3:0:0:0:
317,77,69691,1,2,3:0:0:0:
151,0,69850,5,8,3:0:0:0:
108,6,69929,1,0,3:0:0:0:
74,31,70008,1,0,3:0:0:0:
56,70,70088,1,0,3:0:0:0:
25,143,70167,5,8,3:0:0:0:
82,143,70246,1,0,3:0:0:0:
137,158,70325,1,0,3:0:0:0:
188,186,70405,1,0,3:0:0:0:
260,223,70485,6,0,P|316:183|305:111,1,100.625000959635,8|0,3:0|0:0,0:0:0:0:
340,12,70644,2,0,P|346:-2|346:20,2,64.6875024676324,2|0|0,3:0|3:0|3:0,0:0:0:0:
499,384,70802,6,0,P|442:344|453:272,1,100.625000959635,8|0,3:0|0:0,0:0:0:0:
421,103,70961,2,0,P|414:88|414:111,2,64.6875024676324,2|0|0,3:0|3:0|3:0,0:0:0:0:
512,281,71120,5,8,3:0:0:0:
484,292,71199,1,0,3:0:0:0:
457,303,71278,1,0,3:0:0:0:
427,309,71358,1,0,3:0:0:0:
369,362,71437,5,10,3:0:0:0:
298,345,71516,1,2,3:0:0:0:
228,332,71595,1,2,3:0:0:0:
157,323,71675,1,2,3:0:0:0:
86,315,71754,5,8,3:0:0:0:
13,370,71913,1,0,0:0:0:0:
170,147,72072,1,2,3:0:0:0:
201,255,72231,2,0,P|191:224|190:203,2,37.3749982891084,0|0|0,3:0|3:0|3:0,0:0:0:0:
318,122,72390,6,0,P|277:127|155:151,1,149.499993156433,8|0,3:0|0:0,0:0:0:0:
154,73,72628,2,0,P|80:87|6:98,1,149.499993156433,8|0,3:0|0:0,0:0:0:0:
10,174,72866,2,0,P|19:226|24:266,1,74.7499965782167,4|0,3:2|0:0,0:0:0:0:
214,11,73024,5,8,3:0:0:0:
232,8,73104,1,0,3:0:0:0:
385,178,73263,1,0,3:0:0:0:
403,175,73342,2,0,P|396:157|392:139,2,37.3749982891084,8|0|0,3:0|3:0|3:0,0:0:0:0:
510,2,73501,5,2,0:3:0:0:
492,5,73581,1,2,0:3:0:0:
452,67,73659,2,0,P|476:160|486:220,1,149.499993156433,8|0,3:0|0:0,0:0:0:0:
306,371,73977,6,0,B|303:327|292:292|292:292|290:284|298:282|298:282|336:279|393:266,1,172.5,8|0,3:0|0:0,0:0:0:0:
386,279,74136,2,0,B|388:322|399:357|399:357|401:365|393:367|393:367|355:370|298:383,1,172.5,4|0,3:2|0:0,0:0:0:0:
196,343,74294,5,8,3:0:0:0:
188,306,74373,1,0,0:0:0:0:
182,271,74452,1,0,0:0:0:0:
175,235,74532,1,0,0:0:0:0:
166,199,74612,2,0,P|188:195|205:191,2,37.3749982891084,2|0|0,3:0|3:0|3:0,0:0:0:0:
60,142,74770,5,0,0:0:0:0:
68,179,74849,1,0,0:0:0:0:
74,214,74928,1,0,0:0:0:0:
81,250,75008,1,0,0:0:0:0:
90,286,75088,2,0,P|68:290|51:294,2,37.3749982891084,2|0|0,3:0|3:0|3:0,0:0:0:0:
145,111,75247,5,8,3:0:0:0:
129,56,75326,1,0,3:0:0:0:
125,0,75405,1,0,3:0:0:0:
71,16,75485,1,0,3:0:0:0:
15,20,75564,2,0,P|38:94|52:168,1,149.499993156433,8|2,3:0|3:0,0:0:0:0:
276,176,75882,1,8,3:0:0:0:
291,172,75961,1,0,3:0:0:0:
306,168,76040,1,0,3:0:0:0:
433,1,76199,6,0,P|444:57|478:174,1,172.500006580353,8|0,3:0|0:0,0:0:0:0:
464,173,76397,1,0,3:0:0:0:
467,183,76437,2,0,P|491:265|509:349,1,172.500006580353,8|0,3:0|0:0,0:0:0:0:
497,354,76636,1,0,3:0:0:0:
500,364,76675,2,0,P|434:373|391:388,1,86.2500032901765,4|0,3:2|0:0,0:0:0:0:
239,280,76834,6,0,P|232:250|227:234,2,37.3749982891084,8|0|0,3:0|3:0|3:0,0:0:0:0:
311,307,76993,1,8,3:0:0:0:
326,304,77072,1,0,3:0:0:0:
269,71,77231,1,0,3:0:0:0:
254,74,77310,1,8,3:0:0:0:
28,36,77469,6,0,P|24:17|19:0,2,37.3749982891084,8|0|0,3:0|3:0|3:0,0:0:0:0:
45,110,77628,1,2,3:0:0:0:
60,107,77707,1,0,3:0:0:0:
75,104,77786,1,0,3:0:0:0:
90,101,77866,1,0,3:0:0:0:
105,98,77945,1,2,3:0:0:0:
330,120,78104,6,0,P|333:138|338:156,2,37.3749982891084,8|0|0,3:0|3:0|3:0,0:0:0:0:
269,71,78263,1,2,3:0:0:0:
254,74,78342,1,0,3:0:0:0:
165,334,78501,1,2,3:0:0:0:
180,331,78580,1,0,3:0:0:0:
318,382,78739,6,0,P|336:378|354:373,2,37.3749982891084,8|0|0,3:0|3:0|3:0,0:0:0:0:
181,159,78897,1,2,3:0:0:0:
184,174,78976,1,2,3:0:0:0:
132,230,79056,2,0,B|430:176|132:237|431:184,1,301.875002878904,12|0,3:2|0:0,0:0:0:0:
503,168,79374,6,0,P|499:150|494:132,2,37.3749982891084,8|0|0,3:0|3:0|3:0,0:0:0:0:
445,244,79532,1,2,0:3:0:0:
441,232,79612,1,0,0:0:0:0:
438,220,79691,2,0,P|434:202|429:184,2,37.3749982891084,8|0|0,3:0|3:0|3:0,0:0:0:0:
356,0,79850,1,2,0:3:0:0:
344,4,79930,1,0,0:0:0:0:
305,67,80009,2,0,P|310:85|314:103,2,37.3749982891084,8|0|0,3:0|3:0|3:0,0:0:0:0:
229,84,80167,1,2,0:3:0:0:
61,248,80326,2,0,P|56:229|51:211,2,37.3749982891084,8|0|0,3:0|3:0|3:0,0:0:0:0:
132,230,80485,1,2,0:3:0:0:
38,359,80644,6,0,P|33:340|28:322,2,37.3749982891084,8|0|0,3:0|3:0|3:0,0:0:0:0:
101,124,80802,2,0,P|106:142|110:160,2,37.3749982891084,8|0|0,3:0|3:0|3:0,0:0:0:0:
279,334,80961,2,0,P|284:352|288:370,2,37.3749982891084,8|0|0,3:0|3:0|3:0,0:0:0:0:
329,25,81120,2,0,P|334:43|338:61,2,37.3749982891084,8|0|0,3:0|3:0|3:0,0:0:0:0:
478,154,81278,5,10,3:0:0:0:
405,171,81357,1,2,3:0:0:0:
332,186,81436,1,2,3:0:0:0:
258,197,81516,1,2,3:0:0:0:
189,175,81596,2,0,B|233:169|297:154|297:154|305:153|307:161|307:161|311:200|323:255|323:255|325:263|333:262|333:262|389:249|443:242,1,345,12|0,3:2|0:0,0:0:0:0:
512,230,81913,5,4,3:2:0:0:
512,230,82390,1,0,0:0:0:0:
512,230,82866,1,0,0:0:0:0:
512,230,83183,2,0,B|449:237|429:285|440:286|407:339|332:329,2,206.999993682861,2|2|0,0:0|0:0|0:0,0:0:0:0:
202,192,84453,2,0,P|251:283|274:384,2,206.999993682861,0|2|0,0:0|0:0|0:0,0:0:0:0:
325,246,85723,2,0,B|316:168|383:124|406:151|413:86|423:46|367:-9|280:16|285:86,1,345,2|0,0:0|0:0,0:0:0:0:
285,70,86993,6,0,P|195:57|84:27,2,206.999993682861,0|2|0,0:0|0:0|0:0,0:0:0:0:
507,138,88263,2,0,P|433:154|374:173,1,137.999995788574,2|0,0:0|0:0,0:0:0:0:
373,173,88739,1,2,0:0:0:0:
263,291,89056,1,2,0:0:0:0:
263,291,89215,2,0,P|279:238|291:184,1,103.499996841431
289,191,89532,1,2,0:0:0:0:
373,173,90009,1,2,0:0:0:0:
289,191,90485,1,2,0:0:0:0:
181,361,90802,6,0,B|192:250|110:206|105:231|7:158|37:55,1,345
33,70,92072,6,0,P|80:50|116:31,2,92,2|0|0,3:0|0:0|0:0,0:0:0:0:
145,129,92548,1,0,0:0:0:0:
145,129,92707,2,0,P|223:91|207:-7,1,184
216,201,93342,6,0,P|272:202|331:211,1,92,2|0,3:0|0:0,0:0:0:0:
413,218,93659,1,0,0:0:0:0:
413,218,93818,2,0,P|491:256|475:354,1,184
485,342,94294,1,0,0:0:0:0:
292,384,94612,6,0,P|280:326|261:270,2,103.499996841431,2|0|0,3:0|0:0|0:0,0:0:0:0:
163,271,95088,1,0,0:0:0:0:
163,271,95247,2,0,P|190:206|237:206,1,103.499996841431,0|0,3:0|0:0,0:0:0:0:
275,103,95564,2,0,P|287:159|306:217,1,103.499996841431,0|0,3:0|0:0,0:0:0:0:
85,319,95882,2,0,P|47:161|21:90,1,206.999993682861,2|0,3:0|0:0,0:0:0:0:
253,17,96517,5,2,3:0:0:0:
275,103,96675,1,0,0:0:0:0:
161,0,96834,5,2,3:0:0:0:
124,154,96992,1,0,0:0:0:0:
338,44,97151,6,0,P|381:36|402:35,5,51.7499984207154,8|0|0|0|0|0,3:0|3:0|3:0|3:0|3:0|3:0,0:0:0:0:
436,119,97628,1,2,3:0:0:0:
440,133,97707,1,0,3:0:0:0:
445,149,97786,2,0,P|483:138|510:134,3,51.7499984207154,8|0|0|0,3:0|3:0|3:0|3:0,0:0:0:0:
315,128,98104,2,0,P|277:139|250:143,3,51.7499984207154,4|0|0|0,3:2|3:0|3:0|3:0,0:0:0:0:
427,236,98421,5,8,3:0:0:0:
435,275,98500,1,0,3:0:0:0:
421,314,98579,1,0,3:0:0:0:
388,338,98659,1,0,3:0:0:0:
347,341,98739,2,0,P|340:309|327:274,1,51.7499984207154,8|0,3:0|3:0,0:0:0:0:
228,384,98897,1,4,3:2:0:0:
214,321,98977,1,0,3:0:0:0:
199,260,99056,1,0,3:0:0:0:
182,199,99136,1,0,3:0:0:0:
162,139,99215,2,0,P|196:134|226:128,1,51.7499984207154,2|0,3:0|3:0,0:0:0:0:
263,15,99374,5,8,3:0:0:0:
331,0,99453,1,0,3:0:0:0:
399,25,99532,1,0,3:0:0:0:
441,83,99612,1,0,3:0:0:0:
446,154,99692,6,0,P|419:157|393:164,1,51.7499984207154,8|0,3:0|0:0,0:0:0:0:
182,199,99850,1,4,3:2:0:0:
182,199,100167,6,0,P|226:205|276:218,1,63.2500019302369,8|0,3:0|0:0,0:0:0:0:
512,253,100326,1,4,3:2:0:0:
512,253,100644,6,0,P|480:260|411:284,1,74.7499965782167,8|0,3:0|0:0,0:0:0:0:
104,379,100802,1,4,3:2:0:0:
104,379,101120,5,8,3:0:0:0:
24,357,101278,1,0,3:0:0:0:
297,279,101437,6,0,P|319:261|319:232,2,37.3749982891084,2|0|0,3:0|3:0|3:0,0:0:0:0:
188,305,101596,1,8,3:0:0:0:
461,97,101755,6,0,P|483:115|483:144,2,37.3749982891084,4|0|0,3:2|3:0|3:0,0:0:0:0:
153,34,101913,1,0,3:0:0:0:
223,0,102072,1,4,3:2:0:0:
474,210,102231,6,0,P|248:168|49:137,1,402.499987716675,12|0,3:0|0:0,0:0:0:0:
2,128,102707,1,2,0:3:0:0:
196,191,102866,2,0,P|261:175|276:83,1,160.99999508667,8|0,3:0|0:0,0:0:0:0:
352,3,103104,1,0,0:0:0:0:
375,0,103183,2,0,P|400:117|413:182,1,160.99999508667,4|0,3:0|0:0,0:0:0:0:
295,311,103501,5,8,3:0:0:0:
312,348,103580,1,0,3:0:0:0:
348,365,103659,2,0,P|387:357|427:352,1,80.499997543335,2|0,3:0|0:0,0:0:0:0:
495,287,103818,2,0,P|483:249|474:210,1,80.499997543335,8|0,3:0|0:0,0:0:0:0:
252,0,103977,2,0,P|283:102|318:252,1,241.499992630005,4|0,3:2|0:0,0:0:0:0:
295,311,104294,2,0,P|230:320|191:329,1,80.499997543335,8|0,3:0|0:0,0:0:0:0:
55,342,104453,1,4,3:2:0:0:
35,285,104532,1,0,3:0:0:0:
51,228,104611,1,2,3:0:0:0:
96,190,104691,1,0,3:0:0:0:
155,183,104770,6,0,P|240:198|421:214,1,241.499992630005,8|0,3:0|0:0,0:0:0:0:
474,210,105088,1,4,3:0:0:0:
286,235,105247,2,0,P|258:210|259:170,1,80.499997543335,2|0,0:3|0:0,0:0:0:0:
0,88,105405,2,0,P|156:65|269:30,1,241.499992630005,8|0,3:0|0:0,0:0:0:0:
307,13,105723,2,0,P|335:38|334:78,1,80.499997543335,4|0,3:0|0:0,0:0:0:0:
253,307,105882,2,0,B|236:343|209:365|203:337|224:328,1,80.499997543335,2|0,3:0|0:0,0:0:0:0:
346,153,106040,5,8,3:0:0:0:
410,163,106119,1,0,3:0:0:0:
454,211,106199,1,2,3:0:0:0:
464,277,106278,1,0,3:0:0:0:
385,317,106358,5,8,3:0:0:0:
357,318,106437,1,0,3:0:0:0:
334,334,106516,1,2,3:0:0:0:
322,359,106596,1,0,3:0:0:0:
248,380,106675,6,0,P|208:375|168:368,1,80.499997543335,8|0,3:0|0:0,0:0:0:0:
4,336,106834,1,2,3:0:0:0:
5,73,106993,5,8,3:0:0:0:
60,384,107151,1,2,3:0:0:0:
2,59,107310,6,0,P|169:5|227:216,1,402.499987716675,8|0,3:0|0:0,0:0:0:0:
198,243,107786,1,2,0:3:0:0:
0,157,107945,2,0,P|105:120|185:105,1,160.99999508667,8|0,3:0|0:0,0:0:0:0:
285,0,108183,1,0,0:0:0:0:
307,11,108263,2,0,P|412:48|492:63,1,160.99999508667,4|0,3:0|0:0,0:0:0:0:
304,350,108580,5,8,3:0:0:0:
270,305,108659,1,0,3:0:0:0:
274,248,108739,2,0,P|320:234|377:226,1,80.499997543335,2|0,3:0|0:0,0:0:0:0:
491,149,108897,2,0,P|452:136|413:129,1,80.499997543335,8|0,3:0|0:0,0:0:0:0:
168,94,109056,2,0,P|134:63|147:7,1,80.499997543335,4|0,3:2|0:0,0:0:0:0:
285,0,109215,5,0,3:0:0:0:
295,30,109294,1,0,3:0:0:0:
296,70,109374,1,8,3:0:0:0:
283,116,109453,1,0,3:0:0:0:
248,160,109532,1,4,3:2:0:0:
191,191,109612,1,0,3:0:0:0:
122,192,109691,1,2,3:0:0:0:
54,166,109770,1,0,3:0:0:0:
9,103,109850,6,0,P|29:148|42:199,1,92,8|0,3:0|0:0,0:0:0:0:
248,160,110009,2,0,P|242:208|228:259,1,92,2|0,3:0|0:0,0:0:0:0:
103,368,110167,1,2,3:0:0:0:
197,47,110326,5,8,3:0:0:0:
266,38,110405,1,0,3:0:0:0:
329,70,110484,1,2,3:0:0:0:
363,131,110564,1,0,3:0:0:0:
358,201,110644,2,0,P|346:245|341:291,1,92,2|0,3:0|0:0,0:0:0:0:
103,368,110802,6,0,P|139:311|205:334,1,100.625000959635,8|0,3:0|0:0,0:0:0:0:
434,213,110961,2,0,P|429:258|414:313,1,100.625000959635,2|0,3:0|0:0,0:0:0:0:
271,384,111120,6,0,P|267:340|235:255,1,100.625000959635,8|0,3:0|0:0,0:0:0:0:
217,136,111278,2,0,P|211:114|206:146,1,100.625000959635,2|0,3:0|0:0,0:0:0:0:
18,347,111437,6,0,P|22:303|54:218,1,100.625000959635,8|0,3:0|3:0,0:0:0:0:
105,12,111596,2,0,P|110:-9|115:22,1,100.625000959635,10|0,3:0|3:0,0:0:0:0:
151,223,111755,5,8,3:0:0:0:
497,307,111913,2,0,P|473:297|449:290,2,50.3125004798174,2|0|0,3:0|3:0|3:0,0:0:0:0:
377,276,112072,1,8,3:0:0:0:
96,107,112231,6,0,B|64:114|32:129|32:129|60:113|75:92,1,115,4|0,3:1|0:0,0:0:0:0:
105,12,112707,6,0,P|199:34|427:65,1,301.875002878904,12|0,3:0|0:0,0:0:0:0:
465,12,113024,2,0,P|357:58|362:154,1,201.25000191927,4|2,3:0|0:3,0:0:0:0:
468,370,113342,1,8,3:0:0:0:
477,384,113501,1,2,3:3:0:0:
504,197,113659,2,0,P|427:211|310:248,1,201.25000191927,4|0,3:2|0:0,0:0:0:0:
138,318,113977,1,8,3:0:0:0:
9,89,114136,2,0,P|104:120|203:140,1,201.25000191927,4|0,3:2|0:0,0:0:0:0:
218,384,114453,1,2,3:3:0:0:
278,108,114612,1,8,3:0:0:0:
247,0,114770,1,2,3:3:0:0:
282,120,114929,5,8,3:0:0:0:
445,148,115088,1,2,0:3:0:0:
512,105,115247,1,2,0:3:0:0:
247,0,115405,5,8,3:0:0:0:
329,276,115564,1,2,0:3:0:0:
409,325,115723,1,2,0:3:0:0:
247,0,115882,5,8,3:0:0:0:
203,340,116040,1,2,3:3:0:0:
6,383,116199,5,8,3:0:0:0:
31,317,116278,1,0,3:0:0:0:
100,301,116358,1,2,3:3:0:0:
255,216,116517,1,8,3:0:0:0:
298,190,116596,1,0,3:0:0:0:
317,143,116675,1,2,3:3:0:0:
174,39,116834,1,8,3:0:0:0:
138,58,116913,1,0,3:0:0:0:
120,94,116993,1,2,3:3:0:0:
234,307,117151,5,8,3:0:0:0:
182,29,117310,1,2,3:3:0:0:
312,360,117469,5,8,3:0:0:0:
432,383,117628,1,2,3:0:0:0:
480,171,117786,5,8,3:0:0:0:
216,223,117945,1,2,3:0:0:0:
72,0,118104,5,8,3:0:0:0:
362,57,118263,1,2,3:0:0:0:
305,347,118421,1,8,3:0:0:0:
15,290,118580,1,2,3:0:0:0:
213,68,118739,5,8,3:0:0:0:
279,63,118818,1,0,3:0:0:0:
336,101,118897,1,0,3:0:0:0:
356,167,118977,1,0,3:0:0:0:
334,231,119056,2,0,P|278:240|245:255,1,86.2500032901765,8|0,3:0|3:0,0:0:0:0:
40,361,119215,5,4,3:2:0:0:
15,290,119294,1,0,3:0:0:0:
37,217,119374,1,0,3:0:0:0:
100,176,119453,1,0,3:0:0:0:
173,181,119532,2,0,P|229:172|262:157,1,86.2500032901765,8|0,3:0|3:0,0:0:0:0:
415,10,119691,6,0,P|464:12|503:90,1,115,4|0,3:2|3:0,0:0:0:0:
512,353,119850,2,0,P|454:330|393:323,1,115,2|0,3:0|3:0,0:0:0:0:
125,308,120009,5,12,3:0:0:0:
42,54,120167,1,4,3:2:0:0:
42,54,120485,5,8,3:0:0:0:
225,355,120644,1,4,3:2:0:0:
225,355,120961,5,8,3:0:0:0:
300,0,121120,1,4,3:2:0:0:
497,224,121437,5,12,3:1:0:0:
262,101,121596,1,12,3:1:0:0:
6,156,121755,1,12,3:1:0:0:
263,89,121913,1,12,3:1:0:0:
484,357,122072,5,12,3:1:0:0:
180,303,122231,1,12,3:1:0:0:
233,0,122390,1,12,3:1:0:0:
233,0,123024,5,12,3:1:0:0:
256,192,123104,12,0,127628,0:0:0:0:
