osu file format v14

[General]
AudioFilename: audio.mp3
AudioLeadIn: 0
PreviewTime: 102728
Countdown: 1
SampleSet: Normal
StackLeniency: 0.7
Mode: 1
LetterboxInBreaks: 0
WidescreenStoryboard: 0

[Editor]
Bookmarks: 11458,31776,41934,52093
DistanceSpacing: 1
BeatDivisor: 4
GridSize: 32
TimelineZoom: 2.1

[Metadata]
Title:Aratanaru Ketsui
TitleUnicode:新たなる決意
Artist:69 de 74
ArtistUnicode:69 de 74
Creator:-[ ix Ishida xi ]-
Version:-[ ix Inner xi ]-
Source:
Tags:
BeatmapID:1902573
BeatmapSetID:911450

[Difficulty]
HPDrainRate:5
CircleSize:5
OverallDifficulty:5
ApproachRate:5
SliderMultiplier:1.4
SliderTickRate:1

[Events]
//Background and Video events
0,0,"29881_shadow_of_the_colossus.jpg",0,0
//Break Periods
//Storyboard Layer 0 (Background)
//Storyboard Layer 1 (Fail)
//Storyboard Layer 2 (Pass)
//Storyboard Layer 3 (Foreground)
//Storyboard Sound Samples

[TimingPoints]
30,317.460317460317,4,1,0,5,1,0
30,-133.333333333333,4,1,0,5,0,0
1298,-133.333333333333,4,1,0,20,0,0
6139,-129.87012987013,4,1,0,40,0,0
6218,-126.582278481013,4,1,0,40,0,0
6297,-123.456790123457,4,1,0,40,0,0
6377,-120.481927710843,4,1,0,40,0,0
7647,-113.636363636364,4,1,0,40,0,0
8917,-107.52688172043,4,1,0,40,0,0
9551,-102.040816326531,4,1,0,40,0,0
10186,-83.3333333333333,4,1,0,40,0,0
10663,-100,4,1,0,40,0,0
11139,-70.4225352112676,4,1,0,40,0,0
11192,-73.5294117647059,4,1,0,40,0,0
11245,-76.9230769230769,4,1,0,40,0,0
11297,-80.6451612903226,4,1,0,40,0,0
11350,-84.7457627118644,4,1,0,40,0,0
11403,-89.2857142857143,4,1,0,40,0,0
11456,-94.3396226415094,4,1,0,40,0,0
11776,-100,4,1,0,40,0,0
31776,-83.3333333333333,4,1,0,40,0,0
41895,-71.4285714285714,4,1,0,80,0,1
41934,-71.4285714285714,4,1,0,80,0,1
41974,-71.4285714285714,4,1,0,40,0,1
42371,-71.4285714285714,4,1,0,80,0,1
42450,-71.4285714285714,4,1,0,40,0,1
42847,-71.4285714285714,4,1,0,80,0,1
42926,-71.4285714285714,4,1,0,40,0,1
43164,-71.4285714285714,4,1,0,80,0,1
43243,-71.4285714285714,4,1,0,40,0,1
43641,-71.4285714285714,4,1,0,80,0,1
43720,-71.4285714285714,4,1,0,40,0,1
44117,-71.4285714285714,4,1,0,80,0,1
44196,-71.4285714285714,4,1,0,40,0,1
44434,-71.4285714285714,4,1,0,80,0,1
44513,-71.4285714285714,4,1,0,40,0,1
44910,-71.4285714285714,4,1,0,80,0,1
44989,-71.4285714285714,4,1,0,40,0,1
45387,-71.4285714285714,4,1,0,80,0,1
45466,-71.4285714285714,4,1,0,40,0,1
45704,-71.4285714285714,4,1,0,80,0,1
45783,-71.4285714285714,4,1,0,40,0,1
46180,-71.4285714285714,4,1,0,80,0,1
46259,-71.4285714285714,4,1,0,40,0,1
46656,-71.4285714285714,4,1,0,80,0,1
46735,-71.4285714285714,4,1,0,40,0,1
46974,-71.4285714285714,4,1,0,80,0,1
47053,-71.4285714285714,4,1,0,40,0,1
47609,-71.4285714285714,4,1,0,80,0,1
47688,-71.4285714285714,4,1,0,40,0,1
48244,-71.4285714285714,4,1,0,80,0,1
48323,-71.4285714285714,4,1,0,40,0,1
48879,-71.4285714285714,4,1,0,80,0,1
48958,-71.4285714285714,4,1,0,40,0,1
49514,-71.4285714285714,4,1,0,80,0,1
49593,-71.4285714285714,4,1,0,40,0,1
49831,-71.4285714285714,4,1,0,80,0,1
49910,-71.4285714285714,4,1,0,40,0,1
50149,-71.4285714285714,4,1,0,80,0,1
50228,-71.4285714285714,4,1,0,40,0,1
50466,-71.4285714285714,4,1,0,80,0,1
50545,-71.4285714285714,4,1,0,40,0,1
50783,-71.4285714285714,4,1,0,80,0,1
50862,-71.4285714285714,4,1,0,60,0,1
52133,-100,4,1,0,40,0,0
57172,317.460317460317,4,1,0,40,1,8
57450,-25,4,1,0,80,0,0
57529,-100,4,1,0,40,0,0
58441,317.460317460317,4,1,0,40,1,8
58720,-25,4,1,0,80,0,0
58799,-100,4,1,0,40,0,0
62010,-95.2380952380952,4,1,0,40,0,0
62083,-90.9090909090909,4,1,0,40,0,0
62162,-86.9565217391304,4,1,0,40,0,0
62242,-83.3333333333333,4,1,0,60,0,0
67291,-133.333333333333,4,1,0,60,0,0
67371,-133.333333333333,4,1,0,60,0,0
67450,-133.333333333333,4,1,0,60,0,0
67529,-133.333333333333,4,1,0,60,0,0
67609,-83.3333333333333,4,1,0,100,0,0
67688,-83.3333333333333,4,1,0,60,0,0
68561,-133.333333333333,4,1,0,60,0,0
68879,-83.3333333333333,4,1,0,100,0,0
68958,-83.3333333333333,4,1,0,60,0,0
72410,-83.3333333333333,4,1,0,60,0,0
72450,-83.3333333333333,4,1,0,40,0,0
82887,-90.9090909090909,4,1,0,40,0,0
83837,-100,4,1,0,40,0,0
85107,-111.111111111111,4,1,0,40,0,0
87966,-125,4,1,0,40,0,0
92678,-200,4,1,0,10,0,0
92837,-192.307692307692,4,1,0,10,0,0
92996,-185.185185185185,4,1,0,10,0,0
93154,-178.571428571429,4,1,0,10,0,0
93313,-172.413793103448,4,1,0,17,0,0
93472,-166.666666666667,4,1,0,17,0,0
93631,-161.290322580645,4,1,0,17,0,0
93789,-156.25,4,1,0,17,0,0
93988,-151.515151515152,4,1,0,24,0,0
94146,-147.058823529412,4,1,0,24,0,0
94305,-142.857142857143,4,1,0,24,0,0
94464,-138.888888888889,4,1,0,24,0,0
94623,-135.135135135135,4,1,0,31,0,0
94623,-131.578947368421,4,1,0,31,0,0
94781,-128.205128205128,4,1,0,31,0,0
94940,-125,4,1,0,31,0,0
95099,-121.951219512195,4,1,0,38,0,0
95258,-119.047619047619,4,1,0,38,0,0
95416,-116.279069767442,4,1,0,38,0,0
95575,-113.636363636364,4,1,0,38,0,0
95734,-111.111111111111,4,1,0,45,0,0
95893,-108.695652173913,4,1,0,45,0,0
96051,-106.382978723404,4,1,0,45,0,0
96210,-104.166666666667,4,1,0,45,0,0
96369,-102.040816326531,4,1,0,50,0,0
96527,-100,4,1,0,50,0,0
96686,-98.0392156862745,4,1,0,50,0,0
96845,-96.1538461538461,4,1,0,50,0,0
97004,-94.3396226415094,4,1,0,55,0,0
97162,-92.5925925925926,4,1,0,55,0,0
97321,-90.9090909090909,4,1,0,55,0,0
97480,-89.2857142857143,4,1,0,55,0,0
97639,-87.719298245614,4,1,0,60,0,0
97797,-86.2068965517241,4,1,0,60,0,0
99067,-83.3333333333333,4,1,0,60,0,0
100337,-66.6666666666667,4,1,0,60,0,0
100813,-66.6666666666667,4,1,0,60,0,0
101289,-66.6666666666667,4,1,0,60,0,0
102887,-66.6666666666667,4,1,0,60,0,1
113044,317.460317460317,4,1,0,60,1,8
113362,-25,4,1,0,60,0,1
113441,-66.6666666666667,4,1,0,60,0,1
123202,317.460317460317,4,1,0,60,1,9
123679,-25,4,1,0,60,0,8
123758,-100,4,1,0,60,0,8

[HitObjects]
256,192,1299,5,4,0:0:0:0:
256,192,1616,1,8,0:0:0:0:
256,192,1775,1,0,0:0:0:0:
256,192,1933,1,8,0:0:0:0:
256,192,2251,1,0,0:0:0:0:
256,192,2568,1,0,0:0:0:0:
256,192,3045,1,0,0:0:0:0:
256,192,3521,1,0,0:0:0:0:
256,192,3838,1,0,0:0:0:0:
256,192,4156,1,8,0:0:0:0:
256,192,4314,1,0,0:0:0:0:
256,192,4473,1,8,0:0:0:0:
256,192,4791,1,0,0:0:0:0:
256,192,5108,1,0,0:0:0:0:
256,192,5267,1,0,0:0:0:0:
256,192,5584,1,0,0:0:0:0:
256,192,5902,1,0,0:0:0:0:
256,192,6060,1,0,0:0:0:0:
256,192,6140,1,0,0:0:0:0:
256,192,6219,1,0,0:0:0:0:
256,192,6298,1,0,0:0:0:0:
256,192,6379,5,8,0:0:0:0:
256,192,6537,1,0,0:0:0:0:
256,192,6695,1,0,0:0:0:0:
256,192,6854,1,0,0:0:0:0:
256,192,7013,1,0,0:0:0:0:
256,192,7172,1,0,0:0:0:0:
256,192,7330,1,0,0:0:0:0:
256,192,7489,1,0,0:0:0:0:
256,192,7648,5,8,0:0:0:0:
256,192,7806,1,0,0:0:0:0:
256,192,7965,1,0,0:0:0:0:
256,192,8124,1,0,0:0:0:0:
256,192,8283,1,0,0:0:0:0:
256,192,8441,1,0,0:0:0:0:
256,192,8600,1,0,0:0:0:0:
256,192,8759,1,0,0:0:0:0:
256,192,8918,5,8,0:0:0:0:
256,192,8997,1,0,0:0:0:0:
256,192,9076,1,0,0:0:0:0:
256,192,9156,1,0,0:0:0:0:
256,192,9235,1,0,0:0:0:0:
256,192,9314,1,0,0:0:0:0:
256,192,9394,1,0,0:0:0:0:
256,192,9473,1,0,0:0:0:0:
256,192,9552,5,8,0:0:0:0:
256,192,9632,1,0,0:0:0:0:
256,192,9711,5,8,0:0:0:0:
256,192,9764,1,8,0:0:0:0:
256,192,9817,1,8,0:0:0:0:
256,192,9870,1,0,0:0:0:0:
256,192,9949,1,0,0:0:0:0:
256,192,10029,5,8,0:0:0:0:
256,192,10082,1,8,0:0:0:0:
256,192,10134,1,8,0:0:0:0:
256,192,10187,1,0,0:0:0:0:
256,192,10346,1,8,0:0:0:0:
256,192,10664,5,0,0:0:0:0:
256,192,10743,1,0,0:0:0:0:
256,192,10822,1,0,0:0:0:0:
256,192,10981,1,8,0:0:0:0:
256,192,11140,1,8,0:0:0:0:
256,192,11193,1,0,0:0:0:0:
256,192,11246,1,0,0:0:0:0:
256,192,11298,1,0,0:0:0:0:
256,192,11351,1,0,0:0:0:0:
256,192,11404,1,0,0:0:0:0:
256,192,11457,1,4,0:0:0:0:
256,192,11776,5,8,0:0:0:0:
256,192,11934,1,0,0:0:0:0:
256,192,12014,1,0,0:0:0:0:
256,192,12093,1,0,0:0:0:0:
256,192,12251,1,0,0:0:0:0:
256,192,12410,1,8,0:0:0:0:
256,192,12727,1,0,0:0:0:0:
256,192,12806,1,0,0:0:0:0:
256,192,12886,1,0,0:0:0:0:
256,192,12965,1,0,0:0:0:0:
256,192,13045,1,8,0:0:0:0:
256,192,13203,1,8,0:0:0:0:
256,192,13283,1,0,0:0:0:0:
256,192,13362,1,0,0:0:0:0:
256,192,13441,1,0,0:0:0:0:
256,192,13521,1,8,0:0:0:0:
256,192,13679,1,8,0:0:0:0:
256,192,13838,1,0,0:0:0:0:
256,192,13997,5,0,0:0:0:0:
256,192,14314,1,8,0:0:0:0:
256,192,14473,1,0,0:0:0:0:
256,192,14791,1,0,0:0:0:0:
256,192,14949,1,8,0:0:0:0:
256,192,15267,1,0,0:0:0:0:
256,192,15346,1,0,0:0:0:0:
256,192,15425,1,0,0:0:0:0:
256,192,15505,1,0,0:0:0:0:
256,192,15584,1,8,0:0:0:0:
256,192,15743,1,0,0:0:0:0:
256,192,15822,1,0,0:0:0:0:
256,192,15902,1,0,0:0:0:0:
256,192,15981,1,0,0:0:0:0:
256,192,16060,1,8,0:0:0:0:
256,192,16219,1,0,0:0:0:0:
256,192,16378,1,8,0:0:0:0:
256,192,16537,5,4,0:0:0:0:
256,192,16695,1,0,0:0:0:0:
256,192,16854,1,8,0:0:0:0:
256,192,17013,1,0,0:0:0:0:
256,192,17092,1,0,0:0:0:0:
256,192,17172,1,0,0:0:0:0:
256,192,17330,1,0,0:0:0:0:
256,192,17489,1,8,0:0:0:0:
256,192,17806,1,0,0:0:0:0:
256,192,17886,1,0,0:0:0:0:
256,192,17965,1,0,0:0:0:0:
256,192,18045,1,0,0:0:0:0:
256,192,18124,1,8,0:0:0:0:
256,192,18283,1,8,0:0:0:0:
256,192,18362,1,0,0:0:0:0:
256,192,18441,1,0,0:0:0:0:
256,192,18521,1,0,0:0:0:0:
256,192,18600,1,8,0:0:0:0:
256,192,18759,1,8,0:0:0:0:
256,192,18918,1,0,0:0:0:0:
256,192,18997,1,0,0:0:0:0:
256,192,19076,5,8,0:0:0:0:
256,192,19235,1,0,0:0:0:0:
256,192,19314,1,0,0:0:0:0:
256,192,19394,1,0,0:0:0:0:
256,192,19552,1,8,0:0:0:0:
256,192,19711,1,0,0:0:0:0:
256,192,19791,1,0,0:0:0:0:
256,192,19870,1,0,0:0:0:0:
256,192,20029,1,8,0:0:0:0:
256,192,20187,1,0,0:0:0:0:
256,192,20267,1,0,0:0:0:0:
256,192,20346,1,8,0:0:0:0:
256,192,20505,1,0,0:0:0:0:
256,192,20664,1,8,0:0:0:0:
256,192,20822,1,8,0:0:0:0:
256,192,20902,1,8,0:0:0:0:
256,192,20981,1,0,0:0:0:0:
256,192,21060,1,0,0:0:0:0:
256,192,21140,1,8,0:0:0:0:
256,192,21193,1,8,0:0:0:0:
256,192,21246,1,8,0:0:0:0:
256,192,21298,1,0,0:0:0:0:
256,192,21457,1,8,0:0:0:0:
256,192,21617,5,4,0:0:0:0:
256,192,21933,1,8,0:0:0:0:
256,192,22092,1,0,0:0:0:0:
256,192,22172,1,0,0:0:0:0:
256,192,22251,1,0,0:0:0:0:
256,192,22410,1,0,0:0:0:0:
256,192,22568,1,8,0:0:0:0:
256,192,22886,1,0,0:0:0:0:
256,192,22965,1,0,0:0:0:0:
256,192,23045,1,0,0:0:0:0:
256,192,23124,1,0,0:0:0:0:
256,192,23203,1,8,0:0:0:0:
256,192,23362,1,8,0:0:0:0:
256,192,23441,1,0,0:0:0:0:
256,192,23521,1,0,0:0:0:0:
256,192,23600,1,0,0:0:0:0:
256,192,23679,1,8,0:0:0:0:
256,192,23838,1,8,0:0:0:0:
256,192,23997,1,0,0:0:0:0:
256,192,24156,5,0,0:0:0:0:
256,192,24473,1,8,0:0:0:0:
256,192,24632,1,0,0:0:0:0:
256,192,24949,1,0,0:0:0:0:
256,192,25108,1,8,0:0:0:0:
256,192,25425,1,0,0:0:0:0:
256,192,25505,1,0,0:0:0:0:
256,192,25584,1,0,0:0:0:0:
256,192,25664,1,0,0:0:0:0:
256,192,25743,1,8,0:0:0:0:
256,192,25902,1,0,0:0:0:0:
256,192,25981,1,0,0:0:0:0:
256,192,26060,1,0,0:0:0:0:
256,192,26140,1,0,0:0:0:0:
256,192,26219,1,8,0:0:0:0:
256,192,26378,1,0,0:0:0:0:
256,192,26537,1,8,0:0:0:0:
256,192,26695,5,4,0:0:0:0:
256,192,27013,1,8,0:0:0:0:
256,192,27172,1,0,0:0:0:0:
256,192,27251,1,0,0:0:0:0:
256,192,27330,1,0,0:0:0:0:
256,192,27489,1,0,0:0:0:0:
256,192,27648,1,8,0:0:0:0:
256,192,27965,1,0,0:0:0:0:
256,192,28045,1,0,0:0:0:0:
256,192,28124,1,0,0:0:0:0:
256,192,28203,1,0,0:0:0:0:
256,192,28283,1,8,0:0:0:0:
256,192,28441,1,8,0:0:0:0:
256,192,28521,1,0,0:0:0:0:
256,192,28600,1,0,0:0:0:0:
256,192,28679,1,0,0:0:0:0:
256,192,28759,1,8,0:0:0:0:
256,192,28918,1,8,0:0:0:0:
256,192,29076,1,0,0:0:0:0:
256,192,29156,1,0,0:0:0:0:
256,192,29235,5,8,0:0:0:0:
256,192,29314,1,0,0:0:0:0:
256,192,29394,1,0,0:0:0:0:
256,192,29473,1,0,0:0:0:0:
256,192,29552,1,0,0:0:0:0:
256,192,29632,1,0,0:0:0:0:
256,192,29711,5,8,0:0:0:0:
256,192,29791,1,0,0:0:0:0:
256,192,29870,1,0,0:0:0:0:
256,192,29949,1,0,0:0:0:0:
256,192,30029,1,0,0:0:0:0:
256,192,30108,1,0,0:0:0:0:
256,192,30188,5,8,0:0:0:0:
256,192,30346,1,0,0:0:0:0:
256,192,30664,5,12,0:0:0:0:
256,192,30822,5,0,0:0:0:0:
256,192,30981,1,8,0:0:0:0:
256,192,31034,1,8,0:0:0:0:
256,192,31087,1,8,0:0:0:0:
256,192,31140,1,0,0:0:0:0:
256,192,31298,1,0,0:0:0:0:
256,192,31457,1,8,0:0:0:0:
256,192,31616,1,0,0:0:0:0:
256,192,31776,5,4,0:0:0:0:
256,192,32092,1,8,0:0:0:0:
256,192,32251,1,0,0:0:0:0:
256,192,32410,1,0,0:0:0:0:
256,192,32568,1,0,0:0:0:0:
256,192,32727,1,8,0:0:0:0:
256,192,32886,1,0,0:0:0:0:
256,192,33203,1,0,0:0:0:0:
256,192,33362,1,8,0:0:0:0:
256,192,33521,1,0,0:0:0:0:
256,192,33679,1,0,0:0:0:0:
256,192,33838,1,0,0:0:0:0:
256,192,33997,1,8,0:0:0:0:
256,192,34156,1,0,0:0:0:0:
256,192,34315,5,0,0:0:0:0:
256,192,34632,1,8,0:0:0:0:
256,192,34791,1,0,0:0:0:0:
256,192,34949,1,0,0:0:0:0:
256,192,35108,1,0,0:0:0:0:
256,192,35267,1,8,0:0:0:0:
256,192,35425,1,0,0:0:0:0:
256,192,35743,1,0,0:0:0:0:
256,192,35902,1,8,0:0:0:0:
256,192,36060,1,0,0:0:0:0:
256,192,36219,1,0,0:0:0:0:
256,192,36378,1,0,0:0:0:0:
256,192,36537,1,8,0:0:0:0:
256,192,36695,1,0,0:0:0:0:
256,192,36854,5,0,0:0:0:0:
256,192,37172,1,8,0:0:0:0:
256,192,37330,1,0,0:0:0:0:
256,192,37489,1,0,0:0:0:0:
256,192,37648,1,0,0:0:0:0:
256,192,37806,1,8,0:0:0:0:
256,192,37965,1,0,0:0:0:0:
256,192,38283,1,0,0:0:0:0:
256,192,38441,1,8,0:0:0:0:
256,192,38600,1,0,0:0:0:0:
256,192,38759,1,0,0:0:0:0:
256,192,38918,1,0,0:0:0:0:
256,192,39076,1,8,0:0:0:0:
256,192,39235,1,0,0:0:0:0:
256,192,39394,5,8,0:0:0:0:
256,192,39552,5,0,0:0:0:0:
256,192,39711,5,8,0:0:0:0:
256,192,39870,5,0,0:0:0:0:
256,192,40029,5,8,0:0:0:0:
256,192,40187,5,0,0:0:0:0:
256,192,40346,5,8,0:0:0:0:
256,192,40505,5,0,0:0:0:0:
256,192,40664,5,8,0:0:0:0:
256,192,40822,1,4,0:0:0:0:
256,192,40981,1,0,0:0:0:0:
256,192,41140,1,8,0:0:0:0:
256,192,41193,1,8,0:0:0:0:
256,192,41246,1,8,0:0:0:0:
256,192,41298,1,0,0:0:0:0:
256,192,41457,1,0,0:0:0:0:
256,192,41616,1,8,0:0:0:0:
256,192,41775,1,0,0:0:0:0:
256,192,41933,5,8,0:0:0:0:
256,192,42013,1,0,0:0:0:0:
256,192,42092,1,0,0:0:0:0:
256,192,42172,1,8,0:0:0:0:
256,192,42251,1,0,0:0:0:0:
256,192,42330,1,0,0:0:0:0:
256,192,42410,1,8,0:0:0:0:
256,192,42489,1,0,0:0:0:0:
256,192,42568,1,0,0:0:0:0:
256,192,42648,1,8,0:0:0:0:
256,192,42727,1,0,0:0:0:0:
256,192,42806,1,0,0:0:0:0:
256,192,42886,1,8,0:0:0:0:
256,192,42965,1,8,0:0:0:0:
256,192,43045,1,0,0:0:0:0:
256,192,43124,1,0,0:0:0:0:
256,192,43203,5,8,0:0:0:0:
256,192,43283,1,0,0:0:0:0:
256,192,43362,1,0,0:0:0:0:
256,192,43441,1,8,0:0:0:0:
256,192,43521,1,0,0:0:0:0:
256,192,43600,1,0,0:0:0:0:
256,192,43679,1,8,0:0:0:0:
256,192,43759,1,0,0:0:0:0:
256,192,43838,1,0,0:0:0:0:
256,192,43918,1,8,0:0:0:0:
256,192,43997,1,0,0:0:0:0:
256,192,44076,1,0,0:0:0:0:
256,192,44156,1,8,0:0:0:0:
256,192,44235,1,8,0:0:0:0:
256,192,44314,1,8,0:0:0:0:
256,192,44394,1,0,0:0:0:0:
256,192,44474,5,0,0:0:0:0:
256,192,44552,1,8,0:0:0:0:
256,192,44632,1,8,0:0:0:0:
256,192,44711,1,0,0:0:0:0:
256,192,44791,1,8,0:0:0:0:
256,192,44870,1,8,0:0:0:0:
256,192,44949,1,0,0:0:0:0:
256,192,45029,1,8,0:0:0:0:
256,192,45108,1,8,0:0:0:0:
256,192,45187,1,0,0:0:0:0:
256,192,45267,1,8,0:0:0:0:
256,192,45346,1,8,0:0:0:0:
256,192,45425,1,0,0:0:0:0:
256,192,45505,1,0,0:0:0:0:
256,192,45584,1,0,0:0:0:0:
256,192,45664,1,8,0:0:0:0:
256,192,45743,5,8,0:0:0:0:
256,192,45822,1,0,0:0:0:0:
256,192,45902,1,0,0:0:0:0:
256,192,45981,1,0,0:0:0:0:
256,192,46060,1,0,0:0:0:0:
256,192,46140,1,0,0:0:0:0:
256,192,46219,1,8,0:0:0:0:
256,192,46298,1,0,0:0:0:0:
256,192,46378,1,0,0:0:0:0:
256,192,46457,1,0,0:0:0:0:
256,192,46537,1,0,0:0:0:0:
256,192,46616,1,0,0:0:0:0:
256,192,46695,1,8,0:0:0:0:
256,192,46775,1,8,0:0:0:0:
256,192,46854,1,0,0:0:0:0:
256,192,46933,1,8,0:0:0:0:
256,192,47013,5,8,0:0:0:0:
256,192,47092,1,0,0:0:0:0:
256,192,47172,1,0,0:0:0:0:
256,192,47251,1,8,0:0:0:0:
256,192,47330,1,0,0:0:0:0:
256,192,47410,1,0,0:0:0:0:
256,192,47489,1,8,0:0:0:0:
256,192,47568,1,0,0:0:0:0:
256,192,47648,5,0,0:0:0:0:
256,192,47727,1,8,0:0:0:0:
256,192,47806,1,8,0:0:0:0:
256,192,47886,1,0,0:0:0:0:
256,192,47965,1,8,0:0:0:0:
256,192,48045,1,8,0:0:0:0:
256,192,48124,1,0,0:0:0:0:
256,192,48203,1,8,0:0:0:0:
256,192,48283,5,8,0:0:0:0:
256,192,48362,1,0,0:0:0:0:
256,192,48441,1,0,0:0:0:0:
256,192,48521,1,8,0:0:0:0:
256,192,48600,1,0,0:0:0:0:
256,192,48679,1,0,0:0:0:0:
256,192,48759,1,8,0:0:0:0:
256,192,48838,1,0,0:0:0:0:
256,192,48918,5,0,0:0:0:0:
256,192,48997,1,8,0:0:0:0:
256,192,49076,1,8,0:0:0:0:
256,192,49156,1,0,0:0:0:0:
256,192,49235,1,8,0:0:0:0:
256,192,49314,1,8,0:0:0:0:
256,192,49394,1,0,0:0:0:0:
256,192,49473,1,8,0:0:0:0:
256,192,49553,5,8,0:0:0:0:
256,192,49632,1,0,0:0:0:0:
256,192,49711,1,0,0:0:0:0:
256,192,49791,1,0,0:0:0:0:
256,192,49870,5,8,0:0:0:0:
256,192,49949,1,0,0:0:0:0:
256,192,50029,1,0,0:0:0:0:
256,192,50108,1,0,0:0:0:0:
256,192,50188,5,8,0:0:0:0:
256,192,50267,1,8,0:0:0:0:
256,192,50346,1,0,0:0:0:0:
256,192,50425,1,0,0:0:0:0:
256,192,50505,5,8,0:0:0:0:
256,192,50584,1,8,0:0:0:0:
256,192,50664,1,0,0:0:0:0:
256,192,50743,1,0,0:0:0:0:
256,192,50822,1,8,0:0:0:0:
256,192,50902,1,8,0:0:0:0:
256,192,50981,1,8,0:0:0:0:
256,192,51060,1,0,0:0:0:0:
256,192,51140,1,8,0:0:0:0:
256,192,51219,1,8,0:0:0:0:
256,192,51298,1,0,0:0:0:0:
256,192,51378,1,0,0:0:0:0:
256,192,51457,1,8,0:0:0:0:
256,192,51537,1,0,0:0:0:0:
256,192,51616,1,8,0:0:0:0:
256,192,51669,1,8,0:0:0:0:
256,192,51722,1,8,0:0:0:0:
256,192,51775,1,0,0:0:0:0:
256,192,51854,1,0,0:0:0:0:
256,192,51933,1,0,0:0:0:0:
256,192,52013,1,0,0:0:0:0:
256,192,52092,5,4,0:0:0:0:
256,192,52410,1,8,0:0:0:0:
256,192,52727,1,0,0:0:0:0:
256,192,52886,1,8,0:0:0:0:
256,192,53045,1,8,0:0:0:0:
256,192,53124,1,8,0:0:0:0:
256,192,53203,1,8,0:0:0:0:
256,192,53283,1,8,0:0:0:0:
256,192,53362,1,0,0:0:0:0:
256,192,53521,1,0,0:0:0:0:
256,192,53600,1,0,0:0:0:0:
256,192,53679,1,8,0:0:0:0:
256,192,53838,1,8,0:0:0:0:
256,192,53918,1,8,0:0:0:0:
256,192,53997,1,8,0:0:0:0:
256,192,54076,1,8,0:0:0:0:
256,192,54156,1,0,0:0:0:0:
256,192,54235,1,0,0:0:0:0:
256,192,54314,1,8,0:0:0:0:
256,192,54473,1,8,0:0:0:0:
256,192,54552,1,8,0:0:0:0:
256,192,54632,5,0,0:0:0:0:
256,192,54711,1,0,0:0:0:0:
256,192,54791,1,0,0:0:0:0:
256,192,54870,1,0,0:0:0:0:
256,192,54949,1,8,0:0:0:0:
256,192,54989,1,8,0:0:0:0:
256,192,55029,1,8,0:0:0:0:
256,192,55108,1,0,0:0:0:0:
256,192,55187,1,0,0:0:0:0:
256,192,55267,1,8,0:0:0:0:
256,192,55346,1,0,0:0:0:0:
256,192,55425,1,0,0:0:0:0:
256,192,55584,1,0,0:0:0:0:
256,192,55743,1,8,0:0:0:0:
256,192,55902,1,8,0:0:0:0:
256,192,55981,1,8,0:0:0:0:
256,192,56060,1,0,0:0:0:0:
256,192,56140,1,0,0:0:0:0:
256,192,56219,1,8,0:0:0:0:
256,192,56378,1,8,0:0:0:0:
256,192,56457,1,8,0:0:0:0:
256,192,56537,1,0,0:0:0:0:
256,192,56616,1,0,0:0:0:0:
256,192,56695,1,8,0:0:0:0:
256,192,56854,1,0,0:0:0:0:
256,192,57013,1,8,0:0:0:0:
256,192,57490,5,12,0:0:0:0:
256,192,57648,5,8,0:0:0:0:
256,192,57727,1,0,0:0:0:0:
256,192,57806,1,0,0:0:0:0:
256,192,57886,1,0,0:0:0:0:
256,192,57965,1,8,0:0:0:0:
256,192,58124,1,0,0:0:0:0:
256,192,58283,1,0,0:0:0:0:
256,192,58758,5,12,0:0:0:0:
256,192,58918,5,8,0:0:0:0:
256,192,58997,1,0,0:0:0:0:
256,192,59076,1,0,0:0:0:0:
256,192,59156,1,0,0:0:0:0:
256,192,59235,1,8,0:0:0:0:
256,192,59394,1,0,0:0:0:0:
256,192,59552,1,8,0:0:0:0:
256,192,59711,5,8,0:0:0:0:
256,192,59791,1,0,0:0:0:0:
256,192,59870,1,0,0:0:0:0:
256,192,59949,1,0,0:0:0:0:
256,192,60029,1,8,0:0:0:0:
256,192,60068,1,8,0:0:0:0:
256,192,60108,1,8,0:0:0:0:
256,192,60346,1,12,0:0:0:0:
256,192,60558,1,0,0:0:0:0:
256,192,60769,1,0,0:0:0:0:
256,192,60981,1,4,0:0:0:0:
256,192,61140,1,0,0:0:0:0:
256,192,61219,1,0,0:0:0:0:
256,192,61298,1,8,0:0:0:0:
256,192,61378,1,0,0:0:0:0:
256,192,61457,1,0,0:0:0:0:
256,192,61537,1,0,0:0:0:0:
256,192,61616,1,0,0:0:0:0:
256,192,61695,1,8,0:0:0:0:
256,192,61775,1,0,0:0:0:0:
256,192,61854,1,0,0:0:0:0:
256,192,61933,1,8,0:0:0:0:
256,192,62012,1,8,0:0:0:0:
256,192,62091,1,8,0:0:0:0:
256,192,62171,1,8,0:0:0:0:
256,192,62250,5,0,0:0:0:0:
256,192,62568,1,8,0:0:0:0:
256,192,62727,1,0,0:0:0:0:
256,192,62886,1,0,0:0:0:0:
256,192,63045,1,0,0:0:0:0:
256,192,63203,1,8,0:0:0:0:
256,192,63362,1,0,0:0:0:0:
256,192,63521,1,0,0:0:0:0:
256,192,63838,1,8,0:0:0:0:
256,192,63997,1,0,0:0:0:0:
256,192,64156,1,0,0:0:0:0:
256,192,64314,1,0,0:0:0:0:
256,192,64473,1,8,0:0:0:0:
256,192,64632,1,0,0:0:0:0:
256,192,64791,5,0,0:0:0:0:
256,192,65108,1,8,0:0:0:0:
256,192,65267,1,0,0:0:0:0:
256,192,65425,1,0,0:0:0:0:
256,192,65584,1,0,0:0:0:0:
256,192,65743,1,8,0:0:0:0:
256,192,65902,1,0,0:0:0:0:
256,192,66060,1,0,0:0:0:0:
256,192,66140,1,8,0:0:0:0:
256,192,66219,1,0,0:0:0:0:
256,192,66378,1,8,0:0:0:0:
256,192,66537,1,0,0:0:0:0:
256,192,66854,1,0,0:0:0:0:
256,192,67013,1,0,0:0:0:0:
256,192,67172,1,8,0:0:0:0:
256,192,67330,1,0,0:0:0:0:
256,192,67410,1,0,0:0:0:0:
256,192,67489,1,0,0:0:0:0:
256,192,67568,1,0,0:0:0:0:
256,192,67649,5,12,0:0:0:0:
256,192,67965,5,8,0:0:0:0:
256,192,68124,1,0,0:0:0:0:
256,192,68283,1,0,0:0:0:0:
256,192,68441,1,8,0:0:0:0:
256,192,68600,1,0,0:0:0:0:
256,192,68679,1,0,0:0:0:0:
256,192,68759,1,0,0:0:0:0:
256,192,68838,1,0,0:0:0:0:
256,192,68918,5,12,0:0:0:0:
256,192,69235,5,8,0:0:0:0:
256,192,69394,1,0,0:0:0:0:
256,192,69552,1,0,0:0:0:0:
256,192,69711,1,8,0:0:0:0:
256,192,69870,1,8,0:0:0:0:
256,192,70029,1,0,0:0:0:0:
256,192,70187,1,0,0:0:0:0:
256,192,70346,1,0,0:0:0:0:
256,192,70505,1,8,0:0:0:0:
256,192,70584,1,0,0:0:0:0:
256,192,70664,1,0,0:0:0:0:
256,192,70743,1,0,0:0:0:0:
256,192,70822,1,8,0:0:0:0:
256,192,70902,1,0,0:0:0:0:
256,192,70981,1,0,0:0:0:0:
256,192,71060,1,0,0:0:0:0:
256,192,71139,5,8,0:0:0:0:
256,192,71219,1,0,0:0:0:0:
256,192,71298,1,8,0:0:0:0:
256,192,71351,1,8,0:0:0:0:
256,192,71404,1,8,0:0:0:0:
256,192,71457,1,0,0:0:0:0:
256,192,71537,1,0,0:0:0:0:
256,192,71616,1,8,0:0:0:0:
256,192,71669,1,8,0:0:0:0:
256,192,71722,1,8,0:0:0:0:
256,192,71775,1,0,0:0:0:0:
256,192,71854,1,0,0:0:0:0:
256,192,71933,1,0,0:0:0:0:
256,192,72013,1,0,0:0:0:0:
256,192,72092,1,8,0:0:0:0:
256,192,72145,1,0,0:0:0:0:
256,192,72198,1,0,0:0:0:0:
256,192,72251,1,8,0:0:0:0:
256,192,72304,1,8,0:0:0:0:
256,192,72357,1,8,0:0:0:0:
256,192,72410,5,4,0:0:0:0:
256,192,72568,1,0,0:0:0:0:
256,192,72727,1,8,0:0:0:0:
256,192,72886,1,0,0:0:0:0:
256,192,72925,1,0,0:0:0:0:
256,192,72965,1,0,0:0:0:0:
256,192,73005,1,0,0:0:0:0:
256,192,73045,1,8,0:0:0:0:
256,192,73203,1,0,0:0:0:0:
256,192,73230,1,0,0:0:0:0:
256,192,73283,1,8,0:0:0:0:
256,192,73441,1,0,0:0:0:0:
256,192,73468,1,0,0:0:0:0:
256,192,73521,1,8,0:0:0:0:
256,192,73679,1,8,0:0:0:0:
256,192,73759,1,8,0:0:0:0:
256,192,73918,1,8,0:0:0:0:
256,192,73997,1,0,0:0:0:0:
256,192,74037,1,0,0:0:0:0:
256,192,74076,1,0,0:0:0:0:
256,192,74116,1,0,0:0:0:0:
256,192,74156,1,8,0:0:0:0:
256,192,74235,1,8,0:0:0:0:
256,192,74314,1,0,0:0:0:0:
256,192,74394,1,8,0:0:0:0:
256,192,74473,1,0,0:0:0:0:
256,192,74552,1,0,0:0:0:0:
256,192,74632,1,0,0:0:0:0:
256,192,74791,1,8,0:0:0:0:
256,192,74949,5,0,0:0:0:0:
256,192,75029,1,0,0:0:0:0:
256,192,75108,1,0,0:0:0:0:
256,192,75187,1,0,0:0:0:0:
256,192,75267,1,8,0:0:0:0:
256,192,75306,1,8,0:0:0:0:
256,192,75346,1,8,0:0:0:0:
256,192,75425,1,0,0:0:0:0:
256,192,75505,1,0,0:0:0:0:
256,192,75584,1,0,0:0:0:0:
256,192,75664,1,0,0:0:0:0:
256,192,75743,1,8,0:0:0:0:
256,192,75783,1,8,0:0:0:0:
256,192,75822,1,8,0:0:0:0:
256,192,75902,1,8,0:0:0:0:
256,192,75981,1,8,0:0:0:0:
256,192,76060,1,8,0:0:0:0:
256,192,76140,1,8,0:0:0:0:
256,192,76219,1,8,0:0:0:0:
256,192,76298,1,8,0:0:0:0:
256,192,76378,1,0,0:0:0:0:
256,192,76537,1,0,0:0:0:0:
256,192,76616,1,0,0:0:0:0:
256,192,76695,1,0,0:0:0:0:
256,192,76775,1,0,0:0:0:0:
256,192,76814,1,0,0:0:0:0:
256,192,76854,1,8,0:0:0:0:
256,192,77013,1,0,0:0:0:0:
256,192,77052,1,0,0:0:0:0:
256,192,77092,1,8,0:0:0:0:
256,192,77251,1,0,0:0:0:0:
256,192,77330,1,8,0:0:0:0:
256,192,77489,5,8,0:0:0:0:
256,192,77529,1,8,0:0:0:0:
256,192,77568,1,8,0:0:0:0:
256,192,77648,1,8,0:0:0:0:
256,192,77727,1,0,0:0:0:0:
256,192,77886,1,8,0:0:0:0:
256,192,77965,1,0,0:0:0:0:
256,192,78124,1,8,0:0:0:0:
256,192,78164,1,8,0:0:0:0:
256,192,78203,1,8,0:0:0:0:
256,192,78283,1,8,0:0:0:0:
256,192,78362,1,0,0:0:0:0:
256,192,78441,1,0,0:0:0:0:
256,192,78521,1,8,0:0:0:0:
256,192,78600,1,0,0:0:0:0:
256,192,78679,1,8,0:0:0:0:
256,192,78759,5,8,0:0:0:0:
256,192,78798,1,8,0:0:0:0:
256,192,78838,1,8,0:0:0:0:
256,192,78918,1,8,0:0:0:0:
256,192,78997,1,0,0:0:0:0:
256,192,79156,1,8,0:0:0:0:
256,192,79235,1,0,0:0:0:0:
256,192,79394,1,8,0:0:0:0:
256,192,79433,1,8,0:0:0:0:
256,192,79473,1,8,0:0:0:0:
256,192,79552,1,8,0:0:0:0:
256,192,79632,1,0,0:0:0:0:
256,192,79711,1,8,0:0:0:0:
256,192,79764,1,8,0:0:0:0:
256,192,79817,1,8,0:0:0:0:
256,192,79870,1,8,0:0:0:0:
256,192,79923,1,8,0:0:0:0:
256,192,79976,1,0,0:0:0:0:
256,192,80029,5,8,0:0:0:0:
256,192,80068,1,8,0:0:0:0:
256,192,80108,1,8,0:0:0:0:
256,192,80187,1,8,0:0:0:0:
256,192,80267,1,0,0:0:0:0:
256,192,80346,5,8,0:0:0:0:
256,192,80386,1,8,0:0:0:0:
256,192,80425,1,8,0:0:0:0:
256,192,80505,1,0,0:0:0:0:
256,192,80584,1,0,0:0:0:0:
256,192,80664,5,8,0:0:0:0:
256,192,80703,1,8,0:0:0:0:
256,192,80743,1,0,0:0:0:0:
256,192,80822,1,8,0:0:0:0:
256,192,80980,5,8,0:0:0:0:
256,192,81021,1,8,0:0:0:0:
256,192,81060,1,8,0:0:0:0:
256,192,81140,1,0,0:0:0:0:
256,192,81298,5,8,0:0:0:0:
256,192,81338,1,0,0:0:0:0:
256,192,81378,1,0,0:0:0:0:
256,192,81457,5,8,0:0:0:0:
256,192,81497,1,0,0:0:0:0:
256,192,81537,1,0,0:0:0:0:
256,192,81616,5,8,0:0:0:0:
256,192,81656,1,8,0:0:0:0:
256,192,81695,1,0,0:0:0:0:
256,192,81775,5,8,0:0:0:0:
256,192,81814,1,8,0:0:0:0:
256,192,81854,1,0,0:0:0:0:
256,192,81933,5,0,0:0:0:0:
256,192,82013,1,8,0:0:0:0:
256,192,82092,1,8,0:0:0:0:
256,192,82172,1,8,0:0:0:0:
256,192,82251,5,0,0:0:0:0:
256,192,82304,1,8,0:0:0:0:
256,192,82357,1,8,0:0:0:0:
256,192,82410,1,8,0:0:0:0:
256,192,82463,1,8,0:0:0:0:
256,192,82515,1,8,0:0:0:0:
256,192,82568,5,4,0:0:0:0:
256,192,82727,1,8,0:0:0:0:
256,192,83045,1,0,0:0:0:0:
256,192,83203,1,8,0:0:0:0:
256,192,83521,1,0,0:0:0:0:
256,192,83837,1,8,0:0:0:0:
256,192,83997,1,0,0:0:0:0:
256,192,84156,1,0,0:0:0:0:
256,192,84314,1,8,0:0:0:0:
256,192,84632,1,8,0:0:0:0:
256,192,84791,1,0,0:0:0:0:
256,192,85107,1,8,0:0:0:0:
256,192,85425,1,0,0:0:0:0:
256,192,85584,1,8,0:0:0:0:
256,192,85902,1,8,0:0:0:0:
256,192,86060,1,0,0:0:0:0:
256,192,86378,1,8,0:0:0:0:
256,192,86537,1,0,0:0:0:0:
256,192,86695,1,8,0:0:0:0:
256,192,87013,1,0,0:0:0:0:
256,192,87172,1,8,0:0:0:0:
256,192,87330,1,0,0:0:0:0:
256,192,87489,1,8,0:0:0:0:
256,192,87647,5,0,0:0:0:0:
256,192,87806,1,8,0:0:0:0:
256,192,88124,1,0,0:0:0:0:
256,192,88283,1,8,0:0:0:0:
256,192,88600,1,0,0:0:0:0:
256,192,88918,1,8,0:0:0:0:
256,192,89076,1,0,0:0:0:0:
256,192,89235,1,0,0:0:0:0:
256,192,89394,1,8,0:0:0:0:
256,192,89711,1,8,0:0:0:0:
256,192,89870,1,0,0:0:0:0:
256,192,90187,1,8,0:0:0:0:
256,192,90505,1,0,0:0:0:0:
256,192,90664,1,8,0:0:0:0:
256,192,90981,1,0,0:0:0:0:
256,192,91140,1,8,0:0:0:0:
256,192,91457,1,8,0:0:0:0:
256,192,91616,1,0,0:0:0:0:
256,192,91775,1,8,0:0:0:0:
256,192,92092,1,0,0:0:0:0:
256,192,92251,1,8,0:0:0:0:
256,192,92410,1,0,0:0:0:0:
256,192,92567,1,8,0:0:0:0:
256,192,92726,5,0,0:0:0:0:
256,192,92885,1,0,0:0:0:0:
256,192,93044,1,0,0:0:0:0:
256,192,93202,1,0,0:0:0:0:
256,192,93361,1,0,0:0:0:0:
256,192,93520,1,0,0:0:0:0:
256,192,93678,1,0,0:0:0:0:
256,192,93837,1,0,0:0:0:0:
256,192,93997,5,0,0:0:0:0:
256,192,94156,1,0,0:0:0:0:
256,192,94314,1,0,0:0:0:0:
256,192,94473,1,0,0:0:0:0:
256,192,94632,1,0,0:0:0:0:
256,192,94791,1,0,0:0:0:0:
256,192,94949,1,0,0:0:0:0:
256,192,95108,1,0,0:0:0:0:
256,192,95267,5,0,0:0:0:0:
256,192,95425,1,0,0:0:0:0:
256,192,95584,1,0,0:0:0:0:
256,192,95743,1,0,0:0:0:0:
256,192,95902,1,0,0:0:0:0:
256,192,96060,1,0,0:0:0:0:
256,192,96219,1,0,0:0:0:0:
256,192,96378,1,0,0:0:0:0:
256,192,96537,5,0,0:0:0:0:
256,192,96695,1,0,0:0:0:0:
256,192,96854,1,0,0:0:0:0:
256,192,97013,1,0,0:0:0:0:
256,192,97172,1,0,0:0:0:0:
256,192,97330,1,0,0:0:0:0:
256,192,97489,1,0,0:0:0:0:
256,192,97648,1,0,0:0:0:0:
256,192,97805,5,12,0:0:0:0:
256,192,97964,5,0,0:0:0:0:
256,192,98044,5,0,0:0:0:0:
256,192,98123,5,0,0:0:0:0:
256,192,98202,5,0,0:0:0:0:
256,192,98282,5,0,0:0:0:0:
256,192,98361,5,0,0:0:0:0:
256,192,98440,5,0,0:0:0:0:
256,192,98520,5,0,0:0:0:0:
256,192,98599,5,0,0:0:0:0:
256,192,98678,5,0,0:0:0:0:
256,192,98758,5,0,0:0:0:0:
256,192,98837,5,0,0:0:0:0:
256,192,98917,5,0,0:0:0:0:
256,192,98996,5,0,0:0:0:0:
256,192,99075,5,12,0:0:0:0:
256,192,99234,5,0,0:0:0:0:
256,192,99313,5,0,0:0:0:0:
256,192,99393,5,0,0:0:0:0:
256,192,99472,5,0,0:0:0:0:
256,192,99551,5,0,0:0:0:0:
256,192,99631,5,0,0:0:0:0:
256,192,99710,5,0,0:0:0:0:
256,192,99790,5,0,0:0:0:0:
256,192,99869,5,0,0:0:0:0:
256,192,99948,5,0,0:0:0:0:
256,192,100028,5,0,0:0:0:0:
256,192,100107,5,0,0:0:0:0:
256,192,100186,5,0,0:0:0:0:
256,192,100266,5,0,0:0:0:0:
256,192,100346,5,12,0:0:0:0:
256,192,100504,1,12,0:0:0:0:
256,192,100663,5,0,0:0:0:0:
256,192,100715,1,0,0:0:0:0:
256,192,100768,1,0,0:0:0:0:
256,192,100821,5,12,0:0:0:0:
256,192,100980,1,12,0:0:0:0:
256,192,101139,5,0,0:0:0:0:
256,192,101192,1,0,0:0:0:0:
256,192,101245,1,0,0:0:0:0:
256,192,101297,5,12,0:0:0:0:
256,192,101457,1,12,0:0:0:0:
256,192,101616,5,0,0:0:0:0:
256,192,101775,5,12,0:0:0:0:
256,192,101933,5,0,0:0:0:0:
256,192,102092,1,0,0:0:0:0:
256,192,102145,1,0,0:0:0:0:
256,192,102198,1,0,0:0:0:0:
256,192,102251,5,12,0:0:0:0:
256,192,102410,5,0,0:0:0:0:
256,192,102463,1,0,0:0:0:0:
256,192,102515,1,0,0:0:0:0:
256,192,102568,5,12,0:0:0:0:
256,192,102648,5,0,0:0:0:0:
256,192,102727,1,0,0:0:0:0:
256,192,102806,1,0,0:0:0:0:
256,192,102886,5,4,0:0:0:0:
256,192,103045,1,8,0:0:0:0:
256,192,103203,1,0,0:0:0:0:
256,192,103283,1,0,0:0:0:0:
256,192,103362,1,0,0:0:0:0:
256,192,103441,1,0,0:0:0:0:
256,192,103521,1,8,0:0:0:0:
256,192,103679,1,0,0:0:0:0:
256,192,103759,1,0,0:0:0:0:
256,192,103838,1,8,0:0:0:0:
256,192,103918,1,8,0:0:0:0:
256,192,103997,1,0,0:0:0:0:
256,192,104156,1,8,0:0:0:0:
256,192,104314,1,0,0:0:0:0:
256,192,104394,1,0,0:0:0:0:
256,192,104473,1,0,0:0:0:0:
256,192,104632,1,8,0:0:0:0:
256,192,104791,1,0,0:0:0:0:
256,192,104870,1,0,0:0:0:0:
256,192,104949,1,8,0:0:0:0:
256,192,105108,1,8,0:0:0:0:
256,192,105267,1,0,0:0:0:0:
256,192,105425,1,8,0:0:0:0:
256,192,105584,1,0,0:0:0:0:
256,192,105664,1,0,0:0:0:0:
256,192,105743,1,0,0:0:0:0:
256,192,105902,1,8,0:0:0:0:
256,192,106060,1,0,0:0:0:0:
256,192,106140,1,0,0:0:0:0:
256,192,106219,1,0,0:0:0:0:
256,192,106378,1,8,0:0:0:0:
256,192,106537,1,0,0:0:0:0:
256,192,106616,1,0,0:0:0:0:
256,192,106695,1,0,0:0:0:0:
256,192,106854,1,8,0:0:0:0:
256,192,107013,1,8,0:0:0:0:
256,192,107172,1,0,0:0:0:0:
256,192,107251,1,0,0:0:0:0:
256,192,107330,1,0,0:0:0:0:
256,192,107489,1,8,0:0:0:0:
256,192,107648,1,0,0:0:0:0:
256,192,107806,1,8,0:0:0:0:
256,192,107965,5,0,0:0:0:0:
256,192,108124,1,8,0:0:0:0:
256,192,108203,1,0,0:0:0:0:
256,192,108283,1,8,0:0:0:0:
256,192,108441,1,0,0:0:0:0:
256,192,108600,1,8,0:0:0:0:
256,192,108759,1,0,0:0:0:0:
256,192,108918,1,8,0:0:0:0:
256,192,109076,1,0,0:0:0:0:
256,192,109156,1,0,0:0:0:0:
256,192,109235,1,8,0:0:0:0:
256,192,109394,1,0,0:0:0:0:
256,192,109473,1,0,0:0:0:0:
256,192,109552,1,0,0:0:0:0:
256,192,109632,1,0,0:0:0:0:
256,192,109711,1,8,0:0:0:0:
256,192,109870,1,0,0:0:0:0:
256,192,109949,1,0,0:0:0:0:
256,192,110029,1,8,0:0:0:0:
256,192,110187,1,8,0:0:0:0:
256,192,110346,1,0,0:0:0:0:
256,192,110425,1,0,0:0:0:0:
256,192,110505,1,8,0:0:0:0:
256,192,110664,1,0,0:0:0:0:
256,192,110743,1,0,0:0:0:0:
256,192,110822,1,0,0:0:0:0:
256,192,110981,1,8,0:0:0:0:
256,192,111140,1,0,0:0:0:0:
256,192,111219,1,0,0:0:0:0:
256,192,111298,1,0,0:0:0:0:
256,192,111457,1,8,0:0:0:0:
256,192,111616,1,0,0:0:0:0:
256,192,111695,1,0,0:0:0:0:
256,192,111775,1,8,0:0:0:0:
256,192,111933,1,0,0:0:0:0:
256,192,112092,1,8,0:0:0:0:
256,192,112172,1,8,0:0:0:0:
256,192,112251,1,0,0:0:0:0:
256,192,112330,1,8,0:0:0:0:
256,192,112410,1,0,0:0:0:0:
256,192,112489,1,0,0:0:0:0:
256,192,112568,1,8,0:0:0:0:
256,192,112621,1,8,0:0:0:0:
256,192,112674,1,8,0:0:0:0:
256,192,112727,1,0,0:0:0:0:
256,192,112886,1,8,0:0:0:0:
256,192,113362,5,12,0:0:0:0:
256,192,113521,1,0,0:0:0:0:
256,192,113679,1,0,0:0:0:0:
256,192,113838,1,8,0:0:0:0:
256,192,113997,1,0,0:0:0:0:
256,192,114156,1,0,0:0:0:0:
256,192,114314,1,8,0:0:0:0:
256,192,114473,1,0,0:0:0:0:
256,192,114632,1,8,0:0:0:0:
256,192,114791,1,8,0:0:0:0:
256,192,114949,1,0,0:0:0:0:
256,192,115108,1,8,0:0:0:0:
256,192,115267,1,8,0:0:0:0:
256,192,115425,1,0,0:0:0:0:
256,192,115584,1,8,0:0:0:0:
256,192,115743,1,0,0:0:0:0:
256,192,115902,1,0,0:0:0:0:
256,192,116060,1,8,0:0:0:0:
256,192,116219,1,0,0:0:0:0:
256,192,116378,1,0,0:0:0:0:
256,192,116537,1,8,0:0:0:0:
256,192,116695,1,0,0:0:0:0:
256,192,116854,1,0,0:0:0:0:
256,192,116933,1,8,0:0:0:0:
256,192,117013,1,0,0:0:0:0:
256,192,117172,1,0,0:0:0:0:
256,192,117251,1,8,0:0:0:0:
256,192,117330,1,0,0:0:0:0:
256,192,117489,1,0,0:0:0:0:
256,192,117568,1,8,0:0:0:0:
256,192,117648,1,0,0:0:0:0:
256,192,117727,1,8,0:0:0:0:
256,192,117806,1,0,0:0:0:0:
256,192,117886,1,8,0:0:0:0:
256,192,117965,1,8,0:0:0:0:
256,192,118045,1,8,0:0:0:0:
256,192,118124,5,0,0:0:0:0:
256,192,118283,1,0,0:0:0:0:
256,192,118441,1,8,0:0:0:0:
256,192,118600,1,0,0:0:0:0:
256,192,118759,1,0,0:0:0:0:
256,192,118918,1,0,0:0:0:0:
256,192,119076,1,8,0:0:0:0:
256,192,119235,1,0,0:0:0:0:
256,192,119314,1,8,0:0:0:0:
256,192,119394,1,0,0:0:0:0:
256,192,119473,1,0,0:0:0:0:
256,192,119552,1,0,0:0:0:0:
256,192,119632,1,0,0:0:0:0:
256,192,119711,1,8,0:0:0:0:
256,192,119791,1,0,0:0:0:0:
256,192,119870,1,0,0:0:0:0:
256,192,119949,1,0,0:0:0:0:
256,192,120029,1,0,0:0:0:0:
256,192,120108,1,0,0:0:0:0:
256,192,120187,1,0,0:0:0:0:
256,192,120267,1,0,0:0:0:0:
256,192,120346,1,8,0:0:0:0:
256,192,120425,1,0,0:0:0:0:
256,192,120505,1,0,0:0:0:0:
256,192,120584,1,0,0:0:0:0:
256,192,120663,5,12,0:0:0:0:
256,192,120822,1,12,0:0:0:0:
256,192,120981,5,0,0:0:0:0:
256,192,121060,1,0,0:0:0:0:
256,192,121140,5,12,0:0:0:0:
256,192,121298,1,12,0:0:0:0:
256,192,121457,5,0,0:0:0:0:
256,192,121537,1,0,0:0:0:0:
256,192,121616,5,12,0:0:0:0:
256,192,121775,1,12,0:0:0:0:
256,192,121933,5,0,0:0:0:0:
256,192,122013,1,0,0:0:0:0:
256,192,122092,5,12,0:0:0:0:
256,192,122251,1,12,0:0:0:0:
256,192,122410,1,12,0:0:0:0:
256,192,122568,1,12,0:0:0:0:
256,192,122727,1,12,0:0:0:0:
256,192,122886,1,12,0:0:0:0:
256,192,123045,1,12,0:0:0:0:
256,192,123679,5,4,0:0:0:0:
