osu file format v14

[General]
AudioFilename: audio.mp3
AudioLeadIn: 0
PreviewTime: -1
Countdown: 1
SampleSet: None
StackLeniency: 0.7
Mode: 0
LetterboxInBreaks: 0
WidescreenStoryboard: 1

[Editor]
DistanceSpacing: 0.8
BeatDivisor: 4
GridSize: 4
TimelineZoom: 1

[Metadata]
Title:Radio Protector
TitleUnicode:Radio Protector
Artist:65daysofstatic
ArtistUnicode:65daysofstatic
Creator:TuTuRoXx
Version:Hard by Tuturox
Source:
Tags:
BeatmapID:1313608
BeatmapSetID:622962

[Difficulty]
HPDrainRate:4
CircleSize:4
OverallDifficulty:4
ApproachRate:4
SliderMultiplier:1.4
SliderTickRate:1

[Events]
//Background and Video events
//Break Periods
//Storyboard Layer 0 (Background)
//Storyboard Layer 1 (Fail)
//Storyboard Layer 2 (Pass)
//Storyboard Layer 3 (Foreground)
//Storyboard Sound Samples

[TimingPoints]
48708.5476878426,337.078651685393,4,2,0,100,1,0
86798,-100,4,2,0,100,0,1
94888,-100,4,2,0,100,0,0
102978,333.333333333333,4,2,0,100,1,0
102978,-133.333333333333,4,2,0,100,0,0
108311,-100,4,2,0,100,0,1
118978,-200,4,2,0,100,0,0
156977,340.909090909091,4,2,0,100,1,0
178795,340.909090909091,4,2,0,100,1,0
179136,340.909090909091,4,2,0,100,1,0
196032,335.195530726257,4,2,0,100,1,0
199719,338.983050847458,4,2,0,100,1,0
200054,342.857142857143,4,2,0,100,1,0

[HitObjects]
144,96,65225,5,0,0:0:0:0:
252,120,65562,1,0,0:0:0:0:
184,208,65899,1,0,0:0:0:0:
284,256,66236,2,0,P|360:236|368:168,1,140,0|4,0:0|0:0,0:0:0:0:
300,100,66910,5,0,0:0:0:0:
188,92,67247,1,0,0:0:0:0:
100,160,67584,2,0,P|84:216|96:244,2,70,0|0|4,0:0|0:0|0:0,0:0:0:0:
180,80,68259,5,0,0:0:0:0:
292,96,68596,1,0,0:0:0:0:
304,208,68933,1,0,0:0:0:0:
192,228,69270,2,0,P|128:204|128:196,2,70,0|0|4,0:0|0:0|0:0,0:0:0:0:
228,120,69944,1,4,0:0:0:0:
332,76,70281,1,0,0:0:0:0:
428,136,70618,2,0,L|428:236,1,70
372,216,70955,2,0,L|372:132,1,70,0|4,0:0|0:0,0:0:0:0:
316,136,71292,2,4,L|316:224,1,70
316,264,71629,1,0,0:0:0:0:
204,264,71966,5,0,0:0:0:0:
148,264,72135,2,0,P|108:240|112:216,1,70,0|4,0:0|0:0,0:0:0:0:
132,172,72472,2,4,P|176:156|184:168,2,70
104,220,72978,1,0,0:0:0:0:
216,220,73315,5,0,0:0:0:0:
252,176,73483,1,0,0:0:0:0:
276,164,73568,1,0,0:0:0:0:
304,168,73652,6,0,L|348:236,1,70,0|4,0:0|0:0,0:0:0:0:
368,276,73989,2,4,L|444:232,2,70
312,280,74495,1,0,0:0:0:0:
256,284,74663,1,0,0:0:0:0:
200,288,74832,1,0,0:0:0:0:
144,284,75000,2,4,L|60:284,2,70
200,288,75506,1,0,0:0:0:0:
256,292,75674,1,0,0:0:0:0:
260,180,76011,5,0,0:0:0:0:
360,132,76348,1,0,0:0:0:0:
248,144,76686,1,0,0:0:0:0:
344,88,77023,1,0,0:0:0:0:
416,176,77360,1,0,0:0:0:0:
368,204,77528,2,0,L|332:236,2,35
324,168,77865,2,0,L|288:200,2,35
280,132,78202,2,0,L|244:164,2,35
224,116,78540,1,0,0:0:0:0:
196,112,78624,1,0,0:0:0:0:
168,112,78708,2,0,L|128:196,1,70,0|4,0:0|0:0,0:0:0:0:
112,224,79045,5,0,0:0:0:0:
88,276,79214,1,0,0:0:0:0:
144,284,79382,1,0,0:0:0:0:
200,288,79551,1,0,0:0:0:0:
252,304,79719,2,0,L|272:240,2,35
308,312,80056,1,0,0:0:0:0:
364,312,80225,1,0,0:0:0:0:
392,264,80393,1,0,0:0:0:0:
360,220,80562,2,0,L|380:156,2,35
328,176,80899,1,0,0:0:0:0:
292,132,81068,1,4,0:0:0:0:
180,116,81405,6,0,L|144:148,2,35
216,160,81742,2,0,L|180:192,2,35
256,200,82079,2,0,L|220:232,2,35
292,244,82416,2,0,L|256:276,2,35
336,208,82753,1,0,0:0:0:0:
352,156,82922,1,0,0:0:0:0:
344,100,83090,1,0,0:0:0:0:
296,76,83259,1,0,0:0:0:0:
268,68,83343,1,0,0:0:0:0:
244,56,83427,2,0,L|192:128,2,70,0|4|4,0:0|0:0|0:0,0:0:0:0:
180,148,84101,6,0,L|136:208,1,70,0|4,0:0|0:0,0:0:0:0:
192,188,84438,2,0,L|152:248,1,70,0|4,0:0|0:0,0:0:0:0:
208,228,84775,2,0,L|164:292,1,70,0|4,0:0|0:0,0:0:0:0:
224,296,85113,1,0,0:0:0:0:
280,300,85281,1,0,0:0:0:0:
336,304,85450,1,0,0:0:0:0:
364,308,85534,1,0,0:0:0:0:
392,316,85618,2,0,L|424:244,1,70,0|4,0:0|0:0,0:0:0:0:
440,200,85955,1,0,0:0:0:0:
420,148,86124,2,0,L|344:112,2,70,0|4|4,0:0|0:0|0:0,0:0:0:0:
312,124,86798,6,0,L|276:156,2,35
264,96,87135,6,0,L|228:128,2,35
220,64,87472,6,0,L|184:96,2,35
172,32,87809,6,0,L|136:64,2,35
124,64,88146,2,0,L|112:120,4,35
164,104,88652,1,0,0:0:0:0:
208,140,88820,1,0,0:0:0:0:
248,180,88989,1,0,0:0:0:0:
268,200,89073,1,0,0:0:0:0:
288,220,89157,6,0,L|252:252,2,35
340,244,89495,6,0,L|304:276,2,35
388,268,89832,6,0,L|352:300,2,35
436,296,90169,6,0,L|400:328,2,35
432,240,90506,2,0,L|392:280,4,35
392,200,91011,1,0,0:0:0:0:
348,164,91180,1,0,0:0:0:0:
324,148,91264,1,0,0:0:0:0:
304,128,91348,2,0,L|240:180,1,70,0|4,0:0|0:0,0:0:0:0:
200,72,91854,6,0,L|164:104,2,35
240,108,92191,6,0,L|204:140,2,35
272,152,92528,6,0,L|236:184,2,35
308,196,92865,6,0,L|272:228,2,35
364,208,93202,1,0,0:0:0:0:
412,176,93371,1,0,0:0:0:0:
420,120,93540,1,0,0:0:0:0:
392,72,93708,1,0,0:0:0:0:
336,56,93877,1,0,0:0:0:0:
280,56,94045,1,0,0:0:0:0:
228,72,94214,1,0,0:0:0:0:
200,120,94382,1,0,0:0:0:0:
196,148,94466,1,0,0:0:0:0:
184,172,94551,2,0,L|180:248,2,70
184,60,95225,5,0,0:0:0:0:
296,56,95562,1,0,0:0:0:0:
304,168,95899,1,0,0:0:0:0:
192,164,96236,2,0,P|124:224|152:276,1,140
188,280,96742,2,0,L|264:284,1,70
368,300,97247,5,0,0:0:0:0:
296,212,97584,1,0,0:0:0:0:
196,264,97921,1,0,0:0:0:0:
284,256,98258,2,0,P|360:236|368:168,1,140,0|4,0:0|0:0,0:0:0:0:
144,96,98933,5,0,0:0:0:0:
252,120,99270,1,0,0:0:0:0:
184,208,99607,1,0,0:0:0:0:
232,236,99775,2,0,L|332:248,1,70,0|4,0:0|0:0,0:0:0:0:
320,192,100113,2,0,L|332:116,1,70,0|4,0:0|0:0,0:0:0:0:
220,108,100618,1,0,0:0:0:0:
108,108,100955,1,0,0:0:0:0:
100,220,101292,1,0,0:0:0:0:
156,228,101461,2,0,L|244:232,1,70,0|4,0:0|0:0,0:0:0:0:
280,236,101798,2,0,L|288:156,2,70,0|4|4,0:0|0:0|0:0,0:0:0:0:
272,292,102304,1,0,0:0:0:0:
216,288,102472,1,0,0:0:0:0:
160,284,102641,1,0,0:0:0:0:
156,200,102978,5,0,0:0:0:0:
232,164,103311,1,0,0:0:0:0:
160,120,103644,1,0,0:0:0:0:
240,96,103978,1,0,0:0:0:0:
324,84,104311,2,0,L|324:204,1,105.000004005432
320,272,104978,1,0,0:0:0:0:
236,272,105311,1,0,0:0:0:0:
152,268,105644,2,0,L|152:148,1,105.000004005432
156,80,106311,1,0,0:0:0:0:
240,88,106644,1,0,0:0:0:0:
324,88,106978,2,0,P|376:156|308:268,1,210.000008010865
312,124,108311,6,0,L|276:156,2,35
264,96,108648,6,0,L|228:128,2,35
220,64,108985,6,0,L|184:96,2,35
172,32,109322,6,0,L|136:64,2,35
124,64,109659,2,0,L|112:120,4,35
164,104,110165,1,0,0:0:0:0:
208,140,110333,1,0,0:0:0:0:
248,180,110502,1,0,0:0:0:0:
268,200,110586,1,0,0:0:0:0:
288,220,110670,6,0,L|252:252,2,35
340,244,111008,6,0,L|304:276,2,35
388,268,111345,6,0,L|352:300,2,35
436,296,111682,6,0,L|400:328,2,35
432,240,112019,2,0,L|392:280,4,35
392,200,112524,1,0,0:0:0:0:
348,164,112693,1,0,0:0:0:0:
324,148,112777,1,0,0:0:0:0:
304,128,112861,2,0,L|240:180,1,70,0|4,0:0|0:0,0:0:0:0:
200,72,113311,6,0,L|164:104,2,35
240,108,113648,6,0,L|204:140,2,35
272,152,113985,6,0,L|236:184,2,35
308,196,114322,6,0,L|272:228,2,35
364,208,114659,1,0,0:0:0:0:
412,176,114828,1,0,0:0:0:0:
420,120,114997,1,0,0:0:0:0:
392,72,115165,1,0,0:0:0:0:
336,56,115334,1,0,0:0:0:0:
280,56,115502,1,0,0:0:0:0:
228,72,115671,1,0,0:0:0:0:
200,120,115839,1,0,0:0:0:0:
196,148,115923,1,0,0:0:0:0:
184,172,116008,2,0,L|180:248,2,70
192,72,116644,1,0,0:0:0:0:
304,76,116978,1,0,0:0:0:0:
416,76,117311,1,0,0:0:0:0:
420,188,117644,2,0,P|320:288|56:64,1,560
