osu file format v14

[General]
AudioFilename: audio.mp3
AudioLeadIn: 0
PreviewTime: 26245
Countdown: 0
SampleSet: Soft
StackLeniency: 0.7
Mode: 0
LetterboxInBreaks: 0
WidescreenStoryboard: 1

[Editor]
Bookmarks: 13300,26451,39602,52752,59328,79054,92204,105355,118506,131656,138232,157958,171108
DistanceSpacing: 1.56
BeatDivisor: 4
GridSize: 32
TimelineZoom: 1.199999

[Metadata]
Title:this evil was warranted
TitleUnicode:this evil was warranted
Artist:633397
ArtistUnicode:633397
Creator:Hinsvar
Version:hard
Source:
Tags:Electronic Instrumental drum and bass DnB breakcore jungle life changer 2
BeatmapID:4484665
BeatmapSetID:2131700

[Difficulty]
HPDrainRate:4
CircleSize:4
OverallDifficulty:6
ApproachRate:7
SliderMultiplier:1.44
SliderTickRate:1

[Events]
//Background and Video events
0,0,"BG.jpg",0,0
//Break Periods
2,79254,91304
//Storyboard Layer 0 (Background)
//Storyboard Layer 1 (Fail)
//Storyboard Layer 2 (Pass)
//Storyboard Layer 3 (Foreground)
//Storyboard Layer 4 (Overlay)
//Storyboard Sound Samples

[TimingPoints]
150,410.958904109589,4,2,1,30,1,0
13300,-133.333333333333,4,2,1,30,0,0
26451,-100,4,2,2,60,0,1
26554,-100,4,2,2,60,0,0
52752,-133.333333333333,4,2,1,30,0,0
59328,-100,4,2,2,60,0,1
59430,-100,4,2,2,60,0,0
92204,-133.333333333333,4,2,1,30,0,0
105355,-100,4,2,2,60,0,1
105458,-100,4,2,2,60,0,0
131656,-133.333333333333,4,2,1,30,0,0
138232,-100,4,2,2,60,0,1
138334,-100,4,2,2,60,0,0
157958,-133.333333333333,4,2,1,30,0,0

[Colours]
Combo1 : 81,114,227
Combo2 : 45,139,244
Combo3 : 114,182,218
Combo4 : 126,146,201

[HitObjects]
57,263,13300,5,0,0:0:0:0:
62,347,13506,2,0,P|93:346|123:337,1,54.0000020599366,2|0,0:0|0:0,0:0:0:0:
199,335,13917,2,0,P|198:304|189:274,1,54.0000020599366,2|0,0:0|0:0,0:0:0:0:
187,198,14328,2,0,P|156:199|126:208,1,54.0000020599366,2|0,0:0|0:0,0:0:0:0:
127,120,14739,2,0,P|120:93|120:66,2,54.0000020599366,2|0|0,0:0|0:0|0:0,0:0:0:0:
127,120,16588,6,0,P|137:69|182:29,1,108.000004119873,2|0,0:0|0:0,0:0:0:0:
256,57,17204,1,0,0:0:0:0:
336,31,17410,2,0,P|361:36|381:58,1,54.0000020599366,2|0,0:0|0:0,0:0:0:0:
461,32,17821,2,0,P|475:53|473:83,1,54.0000020599366,2|0,0:0|0:0,0:0:0:0:
422,147,18232,6,0,P|394:141|363:141,1,54.0000020599366,2|0,0:0|0:0,0:0:0:0:
287,164,18643,2,0,P|281:192|281:223,1,54.0000020599366,2|0,0:0|0:0,0:0:0:0:
347,269,19054,2,0,P|375:275|406:275,1,54.0000020599366,2|0,0:0|0:0,0:0:0:0:
482,252,19465,2,0,P|488:224|488:193,1,54.0000020599366,2|0,0:0|0:0,0:0:0:0:
455,121,19876,5,0,0:0:0:0:
450,37,20082,2,0,P|419:38|389:47,1,54.0000020599366,2|0,0:0|0:0,0:0:0:0:
313,49,20493,2,0,P|314:80|323:110,1,54.0000020599366,2|0,0:0|0:0,0:0:0:0:
325,186,20904,2,0,P|356:185|386:176,1,54.0000020599366,2|0,0:0|0:0,0:0:0:0:
385,264,21315,2,0,P|391:290|391:317,2,54.0000020599366,2|0|0,0:0|0:0|0:0,0:0:0:0:
385,264,23163,6,0,P|375:315|330:355,1,108.000004119873,2|0,0:0|0:0,0:0:0:0:
256,327,23779,1,0,0:0:0:0:
176,353,23985,2,0,P|150:348|130:325,1,54.0000020599366,2|0,0:0|0:0,0:0:0:0:
51,352,24396,2,0,P|36:330|38:300,1,54.0000020599366,2|0,0:0|0:0,0:0:0:0:
90,237,24807,6,0,P|118:243|149:243,1,54.0000020599366,2|0,0:0|0:0,0:0:0:0:
225,220,25218,2,0,P|231:192|231:161,1,54.0000020599366,2|0,0:0|0:0,0:0:0:0:
165,115,25629,2,0,P|137:109|106:109,1,54.0000020599366,2|0,0:0|0:0,0:0:0:0:
30,132,26040,2,0,P|24:160|24:191,1,54.0000020599366,2|0,0:0|0:0,0:0:0:0:
15,276,26451,5,0,3:0:0:0:
88,328,26656,1,2,3:2:0:0:
169,290,26862,2,0,B|175:257|175:257|161:211,1,72,8|2,0:0|0:0,0:0:0:0:
144,141,27273,1,0,0:0:0:0:
144,141,27376,1,0,0:0:0:0:
144,141,27478,2,0,B|138:108|138:108|152:62,1,72,2|8,3:2|0:0,0:0:0:0:
232,30,27889,5,2,3:2:0:0:
232,30,27992,1,8,0:0:0:0:
232,30,28094,1,0,3:0:0:0:
280,106,28300,1,0,3:0:0:0:
369,102,28506,2,0,L|444:97,1,72,8|0,0:0|0:0,0:0:0:0:
459,194,28917,2,0,L|461:231,2,36,0|0|0,0:0|0:0|3:0,0:0:0:0:
368,197,29328,2,0,L|296:201,1,72,8|0,0:0|0:0,0:0:0:0:
217,244,29739,5,0,3:0:0:0:
286,300,29944,1,2,3:2:0:0:
207,344,30149,2,0,L|216:387,2,36,2|2|2,0:3|0:3|0:0,0:0:0:0:
138,288,30560,1,0,0:0:0:0:
138,288,30663,1,0,0:0:0:0:
138,288,30766,2,0,B|110:310|110:310|73:289,1,72,2|8,3:2|0:0,0:0:0:0:
20,236,31177,5,8,0:0:0:0:
20,236,31280,1,0,3:0:0:0:
20,236,31382,1,0,3:0:0:0:
48,150,31588,1,0,3:0:0:0:
138,149,31793,2,0,B|151:130|151:130|146:72,1,72,8|0,0:0|0:0,0:0:0:0:
233,55,32204,2,0,B|230:30|230:30|237:21,2,36,0|0|0,0:0|0:0|3:0,0:0:0:0:
240,144,32615,2,0,B|259:157|259:157|317:152,1,72,8|0,0:0|0:0,0:0:0:0:
397,144,33026,5,0,3:0:0:0:
378,232,33232,1,2,3:2:0:0:
288,240,33437,2,0,B|282:276|282:276|297:312,1,72,8|2,0:0|0:0,0:0:0:0:
391,334,33848,1,0,0:0:0:0:
391,334,33951,1,0,0:0:0:0:
391,334,34054,2,0,B|427:340|427:340|463:325,1,72,2|8,3:2|0:0,0:0:0:0:
503,251,34465,5,2,3:2:0:0:
503,251,34567,1,0,3:0:0:0:
503,251,34670,1,0,3:0:0:0:
478,163,34876,1,0,3:0:0:0:
499,79,35081,2,0,L|490:8,1,72,8|0,0:0|0:0,0:0:0:0:
406,42,35492,2,0,L|377:20,2,36,0|8|0,0:0|0:0|3:0,0:0:0:0:
390,130,35903,2,0,L|319:139,1,72,8|0,0:0|0:0,0:0:0:0:
279,57,36314,5,0,3:0:0:0:
194,27,36519,1,2,3:2:0:0:
112,65,36725,2,0,B|80:73|80:73|42:61,1,72,8|2,0:0|0:0,0:0:0:0:
4,142,37136,1,0,0:0:0:0:
72,199,37341,2,0,B|83:210|83:210|87:230,2,36,2|2|8,0:0|0:3|0:0,0:0:0:0:
150,151,37752,5,0,3:0:0:0:
150,151,37855,1,0,3:0:0:0:
150,151,37958,1,0,3:0:0:0:
204,79,38163,1,0,3:0:0:0:
293,89,38369,1,8,0:0:0:0:
328,171,38574,1,0,3:0:0:0:
416,181,38780,2,2,B|424:216|424:216|421:219|421:219|427:253,1,72,2|0,0:0|3:0,0:0:0:0:
450,346,39191,1,8,0:0:0:0:
450,346,39293,1,8,0:0:0:0:
450,346,39396,1,0,3:0:0:0:
354,370,39602,5,0,3:0:0:0:
282,315,39807,1,2,3:2:0:0:
198,349,40013,2,0,B|182:315|182:315|196:281,1,72,8|2,0:0|0:0,0:0:0:0:
264,225,40423,1,0,0:0:0:0:
264,225,40526,1,0,0:0:0:0:
264,225,40629,2,0,B|277:193|277:193|261:159,1,72,2|8,3:2|0:0,0:0:0:0:
227,86,41040,5,2,3:2:0:0:
227,86,41143,1,0,3:0:0:0:
227,86,41245,1,0,3:0:0:0:
139,71,41451,1,0,3:0:0:0:
76,135,41656,2,0,L|-1:147,1,72,8|0,0:0|0:0,0:0:0:0:
23,242,42067,2,0,L|29:280,2,36,0|0|0,0:0|0:0|3:0,0:0:0:0:
110,220,42478,2,0,L|187:208,1,72,8|0,0:0|0:0,0:0:0:0:
173,118,42889,5,0,3:0:0:0:
256,152,43095,1,2,3:2:0:0:
318,216,43300,2,0,B|351:229|351:229|387:221,1,72,8|2,0:0|0:0,0:0:0:0:
433,147,43711,1,0,0:0:0:0:
433,147,43814,1,0,0:0:0:0:
433,147,43917,2,0,B|446:114|446:114|438:78,1,72,2|8,3:2|0:0,0:0:0:0:
394,11,44328,5,0,3:0:0:0:
394,11,44430,1,0,3:0:0:0:
394,11,44533,1,0,3:0:0:0:
303,13,44739,1,0,3:0:0:0:
213,15,44944,2,0,L|139:9,1,72,8|0,0:0|0:0,0:0:0:0:
134,99,45355,2,0,L|131:136,2,36,0|0|0,0:0|0:0|3:0,0:0:0:0:
46,77,45766,2,0,L|40:151,1,72,8|0,0:0|0:0,0:0:0:0:
72,232,46177,5,0,3:0:0:0:
160,219,46382,1,2,3:2:0:0:
199,298,46588,2,0,B|203:335|203:335|170:370,1,72,8|2,0:0|0:0,0:0:0:0:
88,361,46999,1,0,0:0:0:0:
88,361,47102,1,0,0:0:0:0:
88,361,47204,2,0,B|51:353|51:353|28:311,1,72,2|8,3:2|0:0,0:0:0:0:
72,232,47615,5,2,3:2:0:0:
72,232,47718,1,0,3:0:0:0:
72,232,47821,1,0,3:0:0:0:
0,158,48026,1,0,3:0:0:0:
92,140,48232,2,0,L|80:69,1,72,8|0,0:0|0:0,0:0:0:0:
168,52,48643,2,0,L|171:16,2,36,0|0|0,0:0|0:0|3:0,0:0:0:0:
201,135,49054,2,0,L|175:202,1,72,8|0,0:0|0:0,0:0:0:0:
192,291,49465,5,0,3:0:0:0:
281,280,49670,1,2,3:2:0:0:
370,269,49876,2,0,B|404:279|404:279|424:310,1,72,8|2,0:0|0:0,0:0:0:0:
489,249,50286,1,0,0:0:0:0:
489,249,50389,1,0,0:0:0:0:
489,249,50492,2,0,B|481:213|481:213|497:181,1,72,2|8,3:2|0:0,0:0:0:0:
413,156,50903,5,0,3:0:0:0:
413,156,51006,1,0,3:0:0:0:
413,156,51108,1,0,3:0:0:0:
329,189,51314,1,0,3:0:0:0:
271,119,51519,1,8,0:0:0:0:
319,42,51725,1,0,0:0:0:0:
407,65,51930,2,2,B|443:60|443:60|440:58|440:58|476:54,1,72,2|0,0:0|3:0,0:0:0:0:
498,149,52341,1,8,0:0:0:0:
498,149,52444,1,0,0:0:0:0:
498,149,52547,1,0,0:0:0:0:
414,158,52752,5,0,0:0:0:0:
465,224,52958,2,0,P|475:254|457:285,1,54.0000020599366,2|0,0:0|0:0,0:0:0:0:
401,325,53369,2,0,P|371:335|340:317,1,54.0000020599366,2|0,0:0|0:0,0:0:0:0:
300,261,53780,2,0,P|290:231|308:200,1,54.0000020599366,2|0,0:0|0:0,0:0:0:0:
364,160,54191,2,0,P|394:150|425:168,2,54.0000020599366,2|0|0,0:0|0:0|0:0,0:0:0:0:
98,226,56040,5,0,0:0:0:0:
47,160,56246,2,0,P|37:130|55:99,1,54.0000020599366,2|0,0:0|0:0,0:0:0:0:
111,59,56657,2,0,P|141:49|172:67,1,54.0000020599366,2|0,0:0|0:0,0:0:0:0:
212,123,57068,2,0,P|222:153|204:184,1,54.0000020599366,2|0,0:0|0:0,0:0:0:0:
148,224,57479,2,0,P|118:234|87:216,2,54.0000020599366,2|0|0,0:0|0:0|0:0,0:0:0:0:
222,34,58917,6,0,L|277:39,1,54.0000020599366,8|0,0:0|0:0,0:0:0:0:
275,38,59225,1,0,0:0:0:0:
275,38,59328,5,0,3:0:0:0:
365,36,59533,1,2,3:2:0:0:
449,67,59739,2,0,B|473:94|473:94|479:130,1,72,8|2,0:0|0:0,0:0:0:0:
414,190,60149,1,0,0:0:0:0:
414,190,60252,1,0,0:0:0:0:
414,190,60355,2,0,B|390:163|390:163|384:127,1,72,2|8,3:2|0:0,0:0:0:0:
301,125,60766,5,2,3:2:0:0:
301,125,60869,1,0,3:0:0:0:
301,125,60971,1,0,3:0:0:0:
250,199,61177,1,0,3:0:0:0:
175,147,61382,2,0,B|183:114|183:114|167:76,1,72,8|0,0:0|0:0,0:0:0:0:
79,62,61793,2,0,L|73:20,2,36,0|0|0,0:0|0:0|3:0,0:0:0:0:
36,141,62204,2,0,B|28:174|28:174|44:212,1,72,8|0,0:0|0:0,0:0:0:0:
132,226,62615,5,0,3:0:0:0:
202,286,62821,1,2,3:2:0:0:
232,372,63026,2,0,L|312:358,1,72,8|2,0:0|0:0,0:0:0:0:
388,329,63437,1,0,0:0:0:0:
388,329,63540,1,0,0:0:0:0:
388,329,63642,2,0,L|374:249,1,72,2|8,3:2|0:0,0:0:0:0:
345,173,64054,5,0,3:0:0:0:
345,173,64156,1,0,3:0:0:0:
345,173,64259,1,0,3:0:0:0:
265,214,64465,1,0,3:0:0:0:
189,165,64670,1,8,0:0:0:0:
193,74,64876,1,0,0:0:0:0:
273,31,65081,2,2,B|307:27|307:27|310:30|310:30|344:25,1,72,2|0,0:0|3:0,0:0:0:0:
438,13,65492,1,8,0:0:0:0:
438,13,65595,1,0,0:0:0:0:
438,13,65697,1,0,0:0:0:0:
479,100,65903,5,0,3:0:0:0:
409,166,66108,1,2,3:2:0:0:
324,119,66314,2,0,B|307:150|307:150|314:194,1,72,8|2,0:0|0:0,0:0:0:0:
230,202,66725,1,0,0:0:0:0:
230,202,66828,1,0,0:0:0:0:
230,202,66930,2,0,B|239:235|239:235|275:262,1,72,2|8,3:2|0:0,0:0:0:0:
222,327,67341,5,2,3:2:0:0:
222,327,67444,1,0,3:0:0:0:
222,327,67547,1,0,3:0:0:0:
303,365,67752,1,0,3:0:0:0:
376,313,67958,2,0,L|448:306,1,72,8|0,0:0|0:0,0:0:0:0:
472,219,68369,2,0,L|508:222,2,36,0|0|0,0:0|0:0|3:0,0:0:0:0:
381,218,68780,2,0,L|388:146,1,72,8|0,0:0|0:0,0:0:0:0:
467,104,69191,5,0,3:0:0:0:
425,24,69396,1,2,3:2:0:0:
345,66,69602,2,0,L|273:59,1,72,8|2,0:0|0:0,0:0:0:0:
203,19,70013,1,0,0:0:0:0:
203,19,70115,1,0,0:0:0:0:
203,19,70218,2,0,L|131:26,1,72,2|8,3:2|0:0,0:0:0:0:
41,37,70629,5,0,3:0:0:0:
41,37,70732,1,0,3:0:0:0:
41,37,70834,1,0,3:0:0:0:
96,108,71040,1,0,3:0:0:0:
108,196,71245,2,0,B|141:179|141:179|170:198,1,72,8|0,0:0|0:0,0:0:0:0:
193,285,71656,2,0,B|201:301|201:301|192:316,2,36,0|0|0,0:0|0:0|3:0,0:0:0:0:
279,259,72067,2,0,B|262:226|262:226|281:197,1,72,8|0,0:0|0:0,0:0:0:0:
226,124,72478,5,0,3:0:0:0:
278,50,72684,1,2,3:2:0:0:
364,76,72889,2,0,L|439:70,1,72,8|2,0:0|0:0,0:0:0:0:
503,144,73300,1,0,0:0:0:0:
503,144,73403,1,0,0:0:0:0:
503,144,73506,2,0,L|509:219,1,72,2|8,3:2|0:0,0:0:0:0:
435,283,73917,5,2,3:2:0:0:
435,283,74019,1,0,3:0:0:0:
435,283,74122,1,0,3:0:0:0:
352,245,74328,1,0,3:0:0:0:
320,159,74533,2,0,B|337:125|337:125|310:94,1,72,8|0,0:0|0:0,0:0:0:0:
235,142,74944,2,0,B|222:153|222:153|205:144,2,36,0|0|0,0:0|0:0|3:0,0:0:0:0:
240,51,75355,2,0,B|206:34|206:34|180:56,1,72,8|0,0:0|0:0,0:0:0:0:
118,121,75766,5,0,3:0:0:0:
31,144,75971,1,2,3:2:0:0:
54,231,76177,2,0,L|128:248,1,72,8|2,0:0|0:0,0:0:0:0:
220,270,76588,1,0,0:0:0:0:
220,270,76691,1,0,0:0:0:0:
220,270,76793,2,0,L|294:253,1,72,2|8,3:2|0:0,0:0:0:0:
320,173,77204,5,0,3:0:0:0:
320,173,77307,1,0,3:0:0:0:
320,173,77410,1,0,3:0:0:0:
405,159,77615,1,0,3:0:0:0:
459,225,77821,1,8,0:0:0:0:
428,304,78026,1,0,0:0:0:0:
344,316,78232,2,2,B|321:341|321:341|321:347|321:347|297:374,1,72,2|0,0:0|3:0,0:0:0:0:
212,371,78643,1,8,0:0:0:0:
212,371,78745,1,0,0:0:0:0:
212,371,78848,1,0,0:0:0:0:
154,297,79054,5,0,0:0:0:0:
380,375,92204,5,0,0:0:0:0:
460,349,92410,2,0,P|487:334|497:307,1,54.0000020599366,2|0,0:0|0:0,0:0:0:0:
470,234,92821,2,0,P|443:217|415:221,1,54.0000020599366,2|0,0:0|0:0,0:0:0:0:
334,243,93232,2,0,P|306:257|296:284,1,54.0000020599366,2|0,0:0|0:0,0:0:0:0:
331,360,93643,2,0,P|357:376|385:372,2,54.0000020599366,2|0|0,0:0|0:0|0:0,0:0:0:0:
331,360,95492,6,0,P|373:334|376:276,1,108.000004119873,2|0,0:0|0:0,0:0:0:0:
460,263,96108,1,0,0:0:0:0:
510,194,96314,2,0,P|486:181|448:180,1,54.0000020599366,2|0,0:0|0:0,0:0:0:0:
440,96,96725,2,0,P|415:103|386:129,1,54.0000020599366,2|0,0:0|0:0,0:0:0:0:
375,203,97136,6,0,P|374:229|368:267,1,54.0000020599366,2|0,0:0|0:0,0:0:0:0:
290,285,97547,2,0,P|286:258|285:231,1,54.0000020599366,2|0,0:0|0:0,0:0:0:0:
302,148,97958,2,0,P|275:151|248:152,1,54.0000020599366,2|0,0:0|0:0,0:0:0:0:
254,68,98369,2,0,P|227:64|200:58,1,54.0000020599366,2|0,0:0|0:0,0:0:0:0:
132,9,98779,5,0,0:0:0:0:
52,35,98985,2,0,P|24:49|14:76,1,54.0000020599366,2|0,0:0|0:0,0:0:0:0:
42,150,99396,2,0,P|68:166|96:162,1,54.0000020599366,2|0,0:0|0:0,0:0:0:0:
178,141,99807,2,0,P|205:126|215:99,1,54.0000020599366,2|0,0:0|0:0,0:0:0:0:
181,24,100218,2,0,P|154:7|126:11,2,54.0000020599366,2|0|0,0:0|0:0|0:0,0:0:0:0:
181,24,102067,6,0,P|139:50|136:108,1,108.000004119873,2|0,0:0|0:0,0:0:0:0:
52,121,102683,1,0,0:0:0:0:
2,190,102889,2,0,P|25:202|63:203,1,54.0000020599366,2|0,0:0|0:0,0:0:0:0:
72,288,103300,2,0,P|96:280|125:254,1,54.0000020599366,2|0,0:0|0:0,0:0:0:0:
137,181,103711,6,0,P|138:155|144:117,1,54.0000020599366,2|0,0:0|0:0,0:0:0:0:
222,99,104122,2,0,P|225:125|226:152,1,54.0000020599366,2|0,0:0|0:0,0:0:0:0:
210,236,104533,2,0,P|236:232|263:231,1,54.0000020599366,2|0,0:0|0:0,0:0:0:0:
258,316,104944,2,0,P|284:319|311:325,1,54.0000020599366,2|0,0:0|0:0,0:0:0:0:
364,252,105355,5,0,3:0:0:0:
450,229,105560,1,2,3:2:0:0:
492,303,105766,2,0,B|498:337|498:337|464:372,1,72,8|2,0:0|0:0,0:0:0:0:
389,377,106177,1,0,0:0:0:0:
389,377,106280,1,0,0:0:0:0:
389,377,106382,2,0,B|354:372|354:372|332:329,1,72,2|8,3:2|0:0,0:0:0:0:
364,252,106793,5,2,3:2:0:0:
364,252,106896,1,8,0:0:0:0:
364,252,106999,1,0,3:0:0:0:
277,225,107204,1,0,3:0:0:0:
250,312,107410,2,0,L|175:327,1,72,8|0,0:0|0:0,0:0:0:0:
90,344,107821,2,0,L|78:378,2,36,0|0|0,0:0|0:0|3:0,0:0:0:0:
119,258,108232,2,0,L|72:204,1,72,8|0,0:0|0:0,0:0:0:0:
36,121,108643,5,0,3:0:0:0:
90,49,108848,1,2,3:2:0:0:
179,59,109054,2,0,L|177:11,2,36,2|2|2,0:3|0:3|0:0,0:0:0:0:
222,149,109465,1,0,0:0:0:0:
222,149,109567,1,0,0:0:0:0:
222,149,109670,2,0,L|303:97,1,72,2|8,3:2|0:0,0:0:0:0:
377,95,110081,5,8,0:0:0:0:
377,95,110184,1,0,3:0:0:0:
377,95,110286,1,0,3:0:0:0:
438,170,110492,1,0,3:0:0:0:
343,185,110697,2,0,B|330:219|330:219|345:255,1,72,8|0,0:0|0:0,0:0:0:0:
429,280,111108,2,0,L|467:275,2,36,0|0|0,0:0|0:0|3:0,0:0:0:0:
361,340,111519,2,0,B|327:353|327:353|291:338,1,72,8|0,0:0|0:0,0:0:0:0:
249,260,111930,5,0,3:0:0:0:
159,260,112136,1,2,3:2:0:0:
114,337,112341,2,0,L|36:346,1,72,8|2,0:0|0:0,0:0:0:0:
40,262,112752,1,0,0:0:0:0:
40,262,112855,1,0,0:0:0:0:
40,262,112958,2,0,L|31:184,1,72,2|8,3:2|0:0,0:0:0:0:
123,196,113369,5,2,3:2:0:0:
123,196,113471,1,0,3:0:0:0:
123,196,113574,1,0,3:0:0:0:
188,258,113780,1,0,3:0:0:0:
250,193,113985,2,0,B|255:157|255:157|272:121,1,72,8|0,0:0|0:0,0:0:0:0:
358,144,114396,2,0,B|375:142|375:142|392:135,2,36,0|8|0,0:0|0:0|3:0,0:0:0:0:
330,57,114807,2,0,B|310:28|310:28|282:6,1,72,8|0,0:0|0:0,0:0:0:0:
207,58,115218,5,0,3:0:0:0:
129,13,115423,1,2,3:2:0:0:
51,58,115629,2,0,L|27:128,1,72,8|2,0:0|0:0,0:0:0:0:
66,207,116040,1,0,0:0:0:0:
146,167,116245,2,0,L|157:132,2,36,2|2|8,0:0|0:3|0:0,0:0:0:0:
228,224,116656,5,0,3:0:0:0:
228,224,116759,1,0,3:0:0:0:
228,224,116862,1,0,3:0:0:0:
312,193,117067,1,0,3:0:0:0:
400,208,117273,1,8,0:0:0:0:
468,264,117478,1,0,3:0:0:0:
498,346,117684,2,2,B|464:351|464:351|464:353|464:353|426:356,1,72,2|0,0:0|3:0,0:0:0:0:
356,307,118095,1,8,0:0:0:0:
356,307,118197,1,8,0:0:0:0:
356,307,118300,1,0,3:0:0:0:
295,233,118506,5,0,3:0:0:0:
384,218,118711,1,2,3:2:0:0:
473,203,118917,2,0,B|490:175|490:175|482:131,1,72,8|2,0:0|0:0,0:0:0:0:
467,47,119328,1,0,0:0:0:0:
467,47,119430,1,0,0:0:0:0:
467,47,119534,2,0,B|439:30|439:30|395:38,1,72,2|8,3:2|0:0,0:0:0:0:
332,93,119944,5,2,3:2:0:0:
332,93,120047,1,0,3:0:0:0:
332,93,120149,1,0,0:0:0:0:
254,139,120355,1,0,3:0:0:0:
186,78,120560,2,0,L|176:6,1,72,8|0,0:0|0:0,0:0:0:0:
95,35,120971,2,0,L|59:40,2,36,0|0|0,0:0|0:0|3:0,0:0:0:0:
79,123,121382,2,0,L|89:195,1,72,8|0,0:0|0:0,0:0:0:0:
170,166,121793,5,0,3:0:0:0:
248,205,121999,1,2,3:2:0:0:
275,287,122204,2,0,B|249:310|249:310|228:347,1,72,8|2,0:0|0:0,0:0:0:0:
149,381,122615,1,0,0:0:0:0:
149,381,122718,1,0,0:0:0:0:
149,381,122821,2,0,B|142:346|142:346|120:310,1,72,2|8,3:2|0:0,0:0:0:0:
43,299,123232,5,0,3:0:0:0:
43,299,123334,1,0,3:0:0:0:
43,299,123437,1,0,3:0:0:0:
58,219,123643,1,0,3:0:0:0:
138,234,123848,2,0,B|173:242|173:242|210:227,1,72,8|0,0:0|0:0,0:0:0:0:
290,195,124259,2,0,B|306:188|306:188|324:192,2,36,0|0|0,0:0|0:0|3:0,0:0:0:0:
223,133,124670,2,0,B|231:98|231:98|216:61,1,72,8|0,0:0|0:0,0:0:0:0:
291,13,125081,5,0,3:0:0:0:
351,79,125286,1,2,3:2:0:0:
432,40,125492,2,0,L|507:48,1,72,8|2,0:0|0:0,0:0:0:0:
497,144,125903,1,0,0:0:0:0:
497,144,126006,1,0,0:0:0:0:
497,144,126108,2,0,L|422:136,1,72,2|8,3:2|0:0,0:0:0:0:
350,180,126519,5,2,3:2:0:0:
350,180,126622,1,0,3:0:0:0:
350,180,126725,1,0,3:0:0:0:
354,269,126930,1,0,3:0:0:0:
335,357,127136,2,0,B|298:363|298:363|261:331,1,72,8|0,0:0|0:0,0:0:0:0:
248,253,127547,2,0,B|254:235|254:235|277:227,2,36,0|0|0,0:0|0:0|3:0,0:0:0:0:
175,199,127958,2,0,B|189:164|189:164|236:150,1,72,8|0,0:0|0:0,0:0:0:0:
312,153,128369,5,0,3:0:0:0:
393,190,128574,1,2,3:2:0:0:
453,124,128780,2,0,L|451:50,1,72,8|2,0:0|0:0,0:0:0:0:
368,57,129191,1,0,0:0:0:0:
368,57,129293,1,0,0:0:0:0:
368,57,129396,2,0,L|294:59,1,72,2|8,3:2|0:0,0:0:0:0:
213,22,129807,5,0,3:0:0:0:
213,22,129910,1,0,3:0:0:0:
213,22,130013,1,0,3:0:0:0:
128,51,130218,1,0,3:0:0:0:
43,80,130423,1,8,0:0:0:0:
72,165,130629,1,0,0:0:0:0:
101,250,130834,2,2,B|101:280|101:280|97:286|97:286|98:321,1,72,2|0,0:0|3:0,0:0:0:0:
183,373,131245,1,8,0:0:0:0:
183,373,131348,1,0,0:0:0:0:
183,373,131451,1,0,0:0:0:0:
256,332,131656,5,0,0:0:0:0:
328,374,131862,2,0,P|355:382|372:361,1,54.0000020599366,2|0,0:0|0:0,0:0:0:0:
412,293,132273,2,0,P|420:266|399:249,1,54.0000020599366,2|0,0:0|0:0,0:0:0:0:
331,208,132684,2,0,P|304:200|287:221,1,54.0000020599366,2|0,0:0|0:0,0:0:0:0:
247,289,133095,2,0,P|239:316|260:333,2,54.0000020599366,2|0|0,0:0|0:0|0:0,0:0:0:0:
256,52,134944,5,0,0:0:0:0:
184,10,135150,2,0,P|157:2|140:23,1,54.0000020599366,2|0,0:0|0:0,0:0:0:0:
100,91,135561,2,0,P|92:118|113:135,1,54.0000020599366,2|0,0:0|0:0,0:0:0:0:
181,176,135972,2,0,P|208:184|225:163,1,54.0000020599366,2|0,0:0|0:0,0:0:0:0:
265,95,136383,2,0,P|273:68|252:51,2,54.0000020599366,2|0|0,0:0|0:0|0:0,0:0:0:0:
60,184,137821,6,0,L|5:196,1,54.0000020599366,8|0,0:0|0:0,0:0:0:0:
7,195,138129,1,0,0:0:0:0:
7,195,138232,5,0,3:0:0:0:
17,284,138437,1,2,3:2:0:0:
98,319,138643,2,0,B|132:310|132:310|172:326,1,72,8|2,0:0|0:0,0:0:0:0:
258,360,139054,1,0,0:0:0:0:
258,360,139156,1,0,0:0:0:0:
258,360,139259,2,0,B|292:369|292:369|332:353,1,72,2|8,3:2|0:0,0:0:0:0:
422,346,139670,5,2,3:2:0:0:
422,346,139773,1,0,3:0:0:0:
422,346,139876,1,0,3:0:0:0:
511,338,140081,1,0,3:0:0:0:
503,249,140286,2,0,L|431:253,1,72,8|0,0:0|0:0,0:0:0:0:
349,213,140697,2,0,L|347:177,2,36,0|0|0,0:0|0:0|3:0,0:0:0:0:
261,233,141108,2,0,L|257:161,1,72,8|0,0:0|0:0,0:0:0:0:
169,184,141519,5,0,3:0:0:0:
87,146,141725,1,2,3:2:0:0:
34,72,141930,2,0,B|42:36|42:36|71:15,1,72,8|2,0:0|0:0,0:0:0:0:
167,22,142341,1,0,0:0:0:0:
167,22,142444,1,0,0:0:0:0:
167,22,142547,2,0,B|175:58|175:58|204:79,1,72,2|8,3:2|0:0,0:0:0:0:
290,42,142958,5,0,3:0:0:0:
290,42,143060,1,0,3:0:0:0:
290,42,143163,1,0,3:0:0:0:
379,29,143369,1,0,3:0:0:0:
418,109,143574,1,8,0:0:0:0:
353,171,143780,1,0,0:0:0:0:
275,130,143985,2,2,B|266:161|266:161|261:164|261:164|251:198,1,72,2|0,0:0|3:0,0:0:0:0:
261,293,144396,1,8,0:0:0:0:
261,293,144499,1,0,0:0:0:0:
261,293,144602,1,0,0:0:0:0:
164,303,144807,5,0,3:0:0:0:
154,206,145013,1,2,3:2:0:0:
64,166,145218,2,0,B|29:173|29:173|7:210,1,72,8|2,0:0|0:0,0:0:0:0:
23,301,145629,1,0,0:0:0:0:
23,301,145732,1,0,0:0:0:0:
23,301,145834,2,0,B|58:308|58:308|80:345,1,72,2|8,3:2|0:0,0:0:0:0:
172,365,146245,5,2,3:2:0:0:
172,365,146348,1,0,3:0:0:0:
172,365,146451,1,0,3:0:0:0:
243,295,146656,1,0,3:0:0:0:
217,198,146862,2,0,B|202:165|202:165|213:127,1,72,8|0,0:0|0:0,0:0:0:0:
162,55,147273,2,0,B|145:62|145:62|126:57,2,36,0|0|0,0:0|0:0|3:0,0:0:0:0:
251,44,147684,2,0,B|284:29|284:29|322:40,1,72,8|0,0:0|0:0,0:0:0:0:
402,71,148095,5,0,3:0:0:0:
491,63,148300,1,2,3:2:0:0:
499,152,148506,2,0,L|443:196,1,72,8|2,0:0|0:0,0:0:0:0:
356,155,148917,1,0,0:0:0:0:
356,155,149019,1,0,0:0:0:0:
356,155,149122,2,0,L|347:225,1,72,2|8,3:2|0:0,0:0:0:0:
257,258,149533,5,0,3:0:0:0:
257,258,149636,1,0,3:0:0:0:
257,258,149739,1,0,3:0:0:0:
325,316,149944,1,0,3:0:0:0:
393,374,150150,2,0,L|466:371,1,72,8|0,0:0|0:0,0:0:0:0:
466,281,150560,2,0,L|502:279,2,36,0|0|0,0:0|0:0|3:0,0:0:0:0:
385,240,150971,2,0,L|382:167,1,72,8|0,0:0|0:0,0:0:0:0:
295,194,151382,5,0,3:0:0:0:
208,174,151588,1,2,3:2:0:0:
142,113,151793,2,0,B|107:127|107:127|66:117,1,72,8|2,0:0|0:0,0:0:0:0:
67,36,152204,1,0,0:0:0:0:
67,36,152307,1,0,0:0:0:0:
67,36,152410,2,0,B|102:22|102:22|143:32,1,72,2|8,3:2|0:0,0:0:0:0:
225,71,152821,5,2,3:2:0:0:
225,71,152923,1,0,3:0:0:0:
225,71,153026,1,0,3:0:0:0:
315,64,153232,1,0,3:0:0:0:
404,58,153437,2,0,L|480:72,1,72,8|0,0:0|0:0,0:0:0:0:
447,157,153848,2,0,L|468:188,2,36,0|0|0,0:0|0:0|3:0,0:0:0:0:
357,150,154259,2,0,L|342:226,1,72,8|0,0:0|0:0,0:0:0:0:
326,309,154670,5,0,3:0:0:0:
256,251,154876,1,2,3:2:0:0:
186,309,155081,2,0,B|156:329|156:329|110:323,1,72,0|2,0:0|0:0,0:0:0:0:
46,369,155492,1,0,0:0:0:0:
46,369,155595,1,0,0:0:0:0:
46,369,155697,2,0,B|25:339|25:339|31:293,1,72,2|8,3:2|0:0,0:0:0:0:
100,231,156108,5,0,3:0:0:0:
100,231,156211,1,0,3:0:0:0:
100,231,156314,1,0,3:0:0:0:
67,135,156519,1,0,3:0:0:0:
163,102,156725,1,8,0:0:0:0:
196,198,156931,1,0,0:0:0:0:
292,165,157136,2,2,B|293:134|293:134|297:131|297:131|298:90,1,72,2|0,0:0|3:0,0:0:0:0:
362,32,157547,1,8,0:0:0:0:
362,32,157650,1,0,0:0:0:0:
362,32,157752,1,0,0:0:0:0:
443,75,157958,5,0,0:0:0:0:
496,140,158163,2,0,P|504:166|501:198,1,54.0000020599366,2|0,0:0|0:0,0:0:0:0:
506,276,158574,2,0,P|480:284|448:281,1,54.0000020599366,2|0,0:0|0:0,0:0:0:0:
400,217,158985,2,0,P|392:191|395:159,1,54.0000020599366,2|0,0:0|0:0,0:0:0:0:
390,81,159396,2,0,P|416:73|448:76,2,54.0000020599366,2|0|0,0:0|0:0|0:0,0:0:0:0:
69,309,161245,5,0,0:0:0:0:
16,244,161450,2,0,P|8:218|11:186,1,54.0000020599366,2|0,0:0|0:0,0:0:0:0:
6,108,161861,2,0,P|32:100|64:103,1,54.0000020599366,2|0,0:0|0:0,0:0:0:0:
112,167,162272,2,0,P|120:193|117:225,1,54.0000020599366,2|0,0:0|0:0,0:0:0:0:
122,303,162683,2,0,P|96:311|64:308,2,54.0000020599366,2|0|0,0:0|0:0|0:0,0:0:0:0:
298,380,164533,5,0,0:0:0:0:
213,372,164739,2,0,P|198:348|202:310,1,54.0000020599366,2|0,0:0|0:0,0:0:0:0:
180,240,165150,2,0,P|204:225|242:229,1,54.0000020599366,2|0,0:0|0:0,0:0:0:0:
314,232,165560,2,0,P|329:256|325:294,1,54.0000020599366,2|0,0:0|0:0,0:0:0:0:
347,364,165971,2,0,P|323:379|285:375,2,54.0000020599366,2|0|0,0:0|0:0|0:0,0:0:0:0:
214,4,167821,5,0,0:0:0:0:
299,12,168027,2,0,P|314:36|310:74,1,54.0000020599366,2|0,0:0|0:0,0:0:0:0:
332,144,168438,2,0,P|308:159|270:155,1,54.0000020599366,2|0,0:0|0:0,0:0:0:0:
198,152,168848,2,0,P|183:128|187:90,1,54.0000020599366,2|0,0:0|0:0,0:0:0:0:
165,20,169259,2,0,P|189:5|227:9,2,54.0000020599366,2|0|0,0:0|0:0|0:0,0:0:0:0:
3,69,170081,1,0,0:0:0:0:
126,183,170492,1,0,0:0:0:0:
130,266,170697,2,0,P|130:294|108:325,2,54.0000020599366,2|0|0,0:0|0:0|0:0,0:0:0:0:
