osu file format v14

[General]
AudioFilename: audio.mp3
AudioLeadIn: 0
PreviewTime: 10202
Countdown: 0
SampleSet: Normal
StackLeniency: 0
Mode: 1
LetterboxInBreaks: 0
WidescreenStoryboard: 0

[Editor]
Bookmarks: 10524,31283,41661,62417,83175
DistanceSpacing: 1
BeatDivisor: 4
GridSize: 32
TimelineZoom: 1

[Metadata]
Title:run home
TitleUnicode:run home
Artist:633397
ArtistUnicode:633397
Creator:Alchyr
Version:muzukashii
Source:
Tags:electronic instrumental breakcore what're you so afraid of
BeatmapID:4501252
BeatmapSetID:2138818

[Difficulty]
HPDrainRate:7
CircleSize:2
OverallDifficulty:5
ApproachRate:10
SliderMultiplier:1.4
SliderTickRate:1

[Events]
//Background and Video events
0,0,"bg.jpg",0,0
//Break Periods
//Storyboard Layer 0 (Background)
//Storyboard Layer 1 (Fail)
//Storyboard Layer 2 (Pass)
//Storyboard Layer 3 (Foreground)
//Storyboard Layer 4 (Overlay)
//Storyboard Sound Samples

[TimingPoints]
148,324.324324324324,4,1,0,50,1,0
148,-120.481927710843,4,1,0,50,0,0
10405,-100,4,1,0,65,0,0
31262,-100,4,1,0,25,0,0
31418,-120.481927710843,4,1,0,25,0,0
41604,-100,4,1,0,65,0,0

[HitObjects]
256,192,148,5,8,0:0:0:0:
256,192,796,1,0,0:0:0:0:
256,192,1445,1,8,0:0:0:0:
256,192,2093,1,8,0:0:0:0:
256,192,2742,1,0,0:0:0:0:
256,192,3391,1,0,0:0:0:0:
256,192,4039,1,8,0:0:0:0:
256,192,4688,1,8,0:0:0:0:
256,192,5337,1,0,0:0:0:0:
256,192,5985,1,0,0:0:0:0:
256,192,6634,1,8,0:0:0:0:
256,192,7283,1,0,0:0:0:0:
256,192,7931,1,0,0:0:0:0:
256,192,8580,1,0,0:0:0:0:
256,192,9229,1,8,0:0:0:0:
256,192,9877,1,0,0:0:0:0:
256,192,10526,1,4,0:0:0:0:
256,192,10850,1,8,0:0:0:0:
256,192,11012,1,0,0:0:0:0:
256,192,11093,1,0,0:0:0:0:
256,192,11175,1,0,0:0:0:0:
256,192,11337,1,0,0:0:0:0:
256,192,11499,1,8,0:0:0:0:
256,192,11823,1,0,0:0:0:0:
256,192,12147,1,8,0:0:0:0:
256,192,12310,1,0,0:0:0:0:
256,192,12472,1,0,0:0:0:0:
256,192,12634,1,0,0:0:0:0:
256,192,12796,1,8,0:0:0:0:
256,192,13120,1,0,0:0:0:0:
256,192,13445,1,8,0:0:0:0:
256,192,13607,1,0,0:0:0:0:
256,192,13769,1,0,0:0:0:0:
256,192,13850,1,0,0:0:0:0:
256,192,13931,1,0,0:0:0:0:
256,192,14093,1,8,0:0:0:0:
256,192,14418,1,8,0:0:0:0:
256,192,14499,1,8,0:0:0:0:
256,192,14580,1,8,0:0:0:0:
256,192,14742,1,8,0:0:0:0:
256,192,14904,1,0,0:0:0:0:
256,192,15066,1,8,0:0:0:0:
256,192,15229,1,8,0:0:0:0:
256,192,15391,1,0,0:0:0:0:
256,192,15715,1,0,0:0:0:0:
256,192,16039,1,8,0:0:0:0:
256,192,16202,1,0,0:0:0:0:
256,192,16364,1,0,0:0:0:0:
256,192,16445,1,0,0:0:0:0:
256,192,16526,1,0,0:0:0:0:
256,192,16688,1,8,0:0:0:0:
256,192,17012,1,0,0:0:0:0:
256,192,17337,1,8,0:0:0:0:
256,192,17499,1,0,0:0:0:0:
256,192,17580,1,0,0:0:0:0:
256,192,17661,1,0,0:0:0:0:
256,192,17823,1,0,0:0:0:0:
256,192,17985,1,8,0:0:0:0:
256,192,18310,1,0,0:0:0:0:
256,192,18634,1,8,0:0:0:0:
256,192,18958,1,0,0:0:0:0:
256,192,19039,1,0,0:0:0:0:
256,192,19120,1,0,0:0:0:0:
256,192,19283,1,8,0:0:0:0:
256,192,19607,1,8,0:0:0:0:
256,192,19688,1,8,0:0:0:0:
256,192,19769,1,8,0:0:0:0:
256,192,19931,1,8,0:0:0:0:
256,192,20256,1,0,0:0:0:0:
256,192,20337,1,0,0:0:0:0:
256,192,20418,1,0,0:0:0:0:
256,192,20580,1,8,0:0:0:0:
256,192,20742,1,8,0:0:0:0:
256,192,20904,1,0,0:0:0:0:
256,192,21229,1,8,0:0:0:0:
256,192,21391,1,0,0:0:0:0:
256,192,21472,1,0,0:0:0:0:
256,192,21553,1,0,0:0:0:0:
256,192,21715,1,0,0:0:0:0:
256,192,21877,1,8,0:0:0:0:
256,192,22202,1,0,0:0:0:0:
256,192,22364,1,0,0:0:0:0:
256,192,22526,1,8,0:0:0:0:
256,192,22688,1,0,0:0:0:0:
256,192,22850,1,0,0:0:0:0:
256,192,23012,1,0,0:0:0:0:
256,192,23175,1,8,0:0:0:0:
256,192,23499,1,0,0:0:0:0:
256,192,23661,1,0,0:0:0:0:
256,192,23823,1,8,0:0:0:0:
256,192,23985,1,0,0:0:0:0:
256,192,24147,1,0,0:0:0:0:
256,192,24229,1,0,0:0:0:0:
256,192,24310,1,0,0:0:0:0:
256,192,24472,1,8,0:0:0:0:
256,192,24715,1,8,0:0:0:0:
256,192,24796,1,0,0:0:0:0:
256,192,25120,1,8,0:0:0:0:
256,192,25445,1,0,0:0:0:0:
256,192,25769,1,8,0:0:0:0:
256,192,25931,1,8,0:0:0:0:
256,192,26093,1,0,0:0:0:0:
256,192,26418,1,8,0:0:0:0:
256,192,26580,1,0,0:0:0:0:
256,192,26661,1,0,0:0:0:0:
256,192,26742,1,0,0:0:0:0:
256,192,26904,1,0,0:0:0:0:
256,192,27066,1,8,0:0:0:0:
256,192,27391,1,0,0:0:0:0:
256,192,27715,1,8,0:0:0:0:
256,192,27877,1,0,0:0:0:0:
256,192,28039,1,0,0:0:0:0:
256,192,28120,1,0,0:0:0:0:
256,192,28202,1,0,0:0:0:0:
256,192,28364,1,8,0:0:0:0:
256,192,28688,1,0,0:0:0:0:
256,192,29012,1,8,0:0:0:0:
256,192,29337,1,0,0:0:0:0:
256,192,29418,1,0,0:0:0:0:
256,192,29499,1,0,0:0:0:0:
256,192,29661,1,8,0:0:0:0:
256,192,29985,1,8,0:0:0:0:
256,192,30066,1,8,0:0:0:0:
256,192,30147,1,8,0:0:0:0:
256,192,30310,1,8,0:0:0:0:
256,192,30634,1,0,0:0:0:0:
256,192,30715,1,0,0:0:0:0:
256,192,30796,1,0,0:0:0:0:
256,192,30958,1,8,0:0:0:0:
256,192,31120,1,8,0:0:0:0:
256,192,31283,1,0,0:0:0:0:
256,192,31931,1,0,0:0:0:0:
256,192,32580,1,8,0:0:0:0:
256,192,33229,1,0,0:0:0:0:
256,192,33877,1,8,0:0:0:0:
256,192,34526,1,0,0:0:0:0:
256,192,35175,1,8,0:0:0:0:
256,192,35823,1,8,0:0:0:0:
256,192,36472,1,0,0:0:0:0:
256,192,37120,1,0,0:0:0:0:
256,192,37769,1,8,0:0:0:0:
256,192,38418,1,0,0:0:0:0:
256,192,39066,1,0,0:0:0:0:
256,192,39715,1,0,0:0:0:0:
256,192,40364,1,8,0:0:0:0:
256,192,41012,1,0,0:0:0:0:
256,192,41661,1,4,0:0:0:0:
256,192,41985,1,8,0:0:0:0:
256,192,42147,1,0,0:0:0:0:
256,192,42229,1,0,0:0:0:0:
256,192,42310,1,0,0:0:0:0:
256,192,42472,1,0,0:0:0:0:
256,192,42634,1,8,0:0:0:0:
256,192,42958,1,0,0:0:0:0:
256,192,43283,1,8,0:0:0:0:
256,192,43445,1,0,0:0:0:0:
256,192,43607,1,0,0:0:0:0:
256,192,43769,1,0,0:0:0:0:
256,192,43931,1,8,0:0:0:0:
256,192,44256,1,0,0:0:0:0:
256,192,44580,1,8,0:0:0:0:
256,192,44742,1,0,0:0:0:0:
256,192,44904,1,0,0:0:0:0:
256,192,44985,1,0,0:0:0:0:
256,192,45066,1,0,0:0:0:0:
256,192,45229,1,8,0:0:0:0:
256,192,45553,1,8,0:0:0:0:
256,192,45634,1,8,0:0:0:0:
256,192,45715,1,8,0:0:0:0:
256,192,45877,1,8,0:0:0:0:
256,192,46039,1,0,0:0:0:0:
256,192,46202,1,8,0:0:0:0:
256,192,46364,1,8,0:0:0:0:
256,192,46526,1,0,0:0:0:0:
256,192,46850,1,0,0:0:0:0:
256,192,47175,1,8,0:0:0:0:
256,192,47337,1,0,0:0:0:0:
256,192,47499,1,0,0:0:0:0:
256,192,47580,1,0,0:0:0:0:
256,192,47661,1,0,0:0:0:0:
256,192,47823,1,8,0:0:0:0:
256,192,48147,1,0,0:0:0:0:
256,192,48472,1,8,0:0:0:0:
256,192,48634,1,0,0:0:0:0:
256,192,48715,1,0,0:0:0:0:
256,192,48796,1,0,0:0:0:0:
256,192,48958,1,0,0:0:0:0:
256,192,49120,1,8,0:0:0:0:
256,192,49445,1,0,0:0:0:0:
256,192,49769,1,8,0:0:0:0:
256,192,50093,1,0,0:0:0:0:
256,192,50175,1,0,0:0:0:0:
256,192,50256,1,0,0:0:0:0:
256,192,50418,1,8,0:0:0:0:
256,192,50742,1,8,0:0:0:0:
256,192,50823,1,8,0:0:0:0:
256,192,50904,1,8,0:0:0:0:
256,192,51066,1,8,0:0:0:0:
256,192,51391,1,0,0:0:0:0:
256,192,51472,1,0,0:0:0:0:
256,192,51553,1,0,0:0:0:0:
256,192,51715,1,8,0:0:0:0:
256,192,51877,1,8,0:0:0:0:
256,192,52039,1,0,0:0:0:0:
256,192,52364,1,8,0:0:0:0:
256,192,52526,1,0,0:0:0:0:
256,192,52607,1,0,0:0:0:0:
256,192,52688,1,0,0:0:0:0:
256,192,52850,1,0,0:0:0:0:
256,192,53012,1,8,0:0:0:0:
256,192,53337,1,0,0:0:0:0:
256,192,53661,1,8,0:0:0:0:
256,192,53823,1,0,0:0:0:0:
256,192,53985,1,0,0:0:0:0:
256,192,54147,1,0,0:0:0:0:
256,192,54310,1,8,0:0:0:0:
256,192,54634,1,0,0:0:0:0:
256,192,54958,1,8,0:0:0:0:
256,192,55120,1,0,0:0:0:0:
256,192,55283,1,0,0:0:0:0:
256,192,55364,1,0,0:0:0:0:
256,192,55445,1,0,0:0:0:0:
256,192,55607,1,8,0:0:0:0:
256,192,55850,1,8,0:0:0:0:
256,192,55931,1,0,0:0:0:0:
256,192,56256,1,8,0:0:0:0:
256,192,56580,1,0,0:0:0:0:
256,192,56904,1,8,0:0:0:0:
256,192,57066,1,8,0:0:0:0:
256,192,57229,1,0,0:0:0:0:
256,192,57553,1,8,0:0:0:0:
256,192,57715,1,0,0:0:0:0:
256,192,57796,1,0,0:0:0:0:
256,192,57877,1,0,0:0:0:0:
256,192,58039,1,0,0:0:0:0:
256,192,58202,1,8,0:0:0:0:
256,192,58526,1,0,0:0:0:0:
256,192,58850,1,8,0:0:0:0:
256,192,59012,1,0,0:0:0:0:
256,192,59175,1,0,0:0:0:0:
256,192,59256,1,0,0:0:0:0:
256,192,59337,1,0,0:0:0:0:
256,192,59499,1,8,0:0:0:0:
256,192,59823,1,0,0:0:0:0:
256,192,60147,1,8,0:0:0:0:
256,192,60472,1,0,0:0:0:0:
256,192,60553,1,0,0:0:0:0:
256,192,60634,1,0,0:0:0:0:
256,192,60796,1,8,0:0:0:0:
256,192,61120,1,8,0:0:0:0:
256,192,61202,1,8,0:0:0:0:
256,192,61283,1,8,0:0:0:0:
256,192,61445,1,8,0:0:0:0:
256,192,61769,1,0,0:0:0:0:
256,192,61850,1,0,0:0:0:0:
256,192,61931,1,0,0:0:0:0:
256,192,62093,1,8,0:0:0:0:
256,192,62256,1,8,0:0:0:0:
256,192,62418,1,0,0:0:0:0:
256,192,62742,1,8,0:0:0:0:
256,192,62904,1,0,0:0:0:0:
256,192,62985,1,0,0:0:0:0:
256,192,63066,1,0,0:0:0:0:
256,192,63229,1,0,0:0:0:0:
256,192,63391,1,8,0:0:0:0:
256,192,63715,1,0,0:0:0:0:
256,192,63877,1,0,0:0:0:0:
256,192,64039,1,8,0:0:0:0:
256,192,64202,1,0,0:0:0:0:
256,192,64364,1,0,0:0:0:0:
256,192,64526,1,0,0:0:0:0:
256,192,64688,1,8,0:0:0:0:
256,192,65012,1,0,0:0:0:0:
256,192,65175,1,0,0:0:0:0:
256,192,65337,1,8,0:0:0:0:
256,192,65499,1,0,0:0:0:0:
256,192,65661,1,0,0:0:0:0:
256,192,65742,1,0,0:0:0:0:
256,192,65823,1,0,0:0:0:0:
256,192,65985,1,8,0:0:0:0:
256,192,66229,1,8,0:0:0:0:
256,192,66310,1,0,0:0:0:0:
256,192,66634,1,8,0:0:0:0:
256,192,66958,1,0,0:0:0:0:
256,192,67283,1,8,0:0:0:0:
256,192,67445,1,8,0:0:0:0:
256,192,67607,1,0,0:0:0:0:
256,192,67931,1,8,0:0:0:0:
256,192,68093,1,0,0:0:0:0:
256,192,68175,1,0,0:0:0:0:
256,192,68256,1,0,0:0:0:0:
256,192,68418,1,0,0:0:0:0:
256,192,68580,1,8,0:0:0:0:
256,192,68904,1,0,0:0:0:0:
256,192,69229,1,8,0:0:0:0:
256,192,69391,1,0,0:0:0:0:
256,192,69553,1,0,0:0:0:0:
256,192,69634,1,0,0:0:0:0:
256,192,69715,1,0,0:0:0:0:
256,192,69877,1,8,0:0:0:0:
256,192,70202,1,0,0:0:0:0:
256,192,70526,1,8,0:0:0:0:
256,192,70850,1,0,0:0:0:0:
256,192,70931,1,0,0:0:0:0:
256,192,71012,1,0,0:0:0:0:
256,192,71175,1,8,0:0:0:0:
256,192,71499,1,8,0:0:0:0:
256,192,71580,1,8,0:0:0:0:
256,192,71661,1,8,0:0:0:0:
256,192,71823,1,8,0:0:0:0:
256,192,72147,1,0,0:0:0:0:
256,192,72229,1,0,0:0:0:0:
256,192,72310,1,0,0:0:0:0:
256,192,72472,1,8,0:0:0:0:
256,192,72634,1,8,0:0:0:0:
256,192,72796,1,0,0:0:0:0:
256,192,73120,1,8,0:0:0:0:
256,192,73283,1,0,0:0:0:0:
256,192,73364,1,0,0:0:0:0:
256,192,73445,1,0,0:0:0:0:
256,192,73607,1,0,0:0:0:0:
256,192,73769,1,8,0:0:0:0:
256,192,74093,1,0,0:0:0:0:
256,192,74256,1,0,0:0:0:0:
256,192,74418,1,8,0:0:0:0:
256,192,74580,1,0,0:0:0:0:
256,192,74742,1,0,0:0:0:0:
256,192,74904,1,0,0:0:0:0:
256,192,75066,1,8,0:0:0:0:
256,192,75391,1,0,0:0:0:0:
256,192,75553,1,0,0:0:0:0:
256,192,75715,1,8,0:0:0:0:
256,192,75877,1,8,0:0:0:0:
256,192,76039,1,0,0:0:0:0:
256,192,76364,1,8,0:0:0:0:
256,192,76445,1,8,0:0:0:0:
256,192,76607,1,0,0:0:0:0:
256,192,76688,1,0,0:0:0:0:
256,192,76850,1,0,0:0:0:0:
256,192,77012,1,8,0:0:0:0:
256,192,77337,1,0,0:0:0:0:
256,192,77418,1,0,0:0:0:0:
256,192,77499,1,0,0:0:0:0:
256,192,77661,1,8,0:0:0:0:
256,192,77823,1,8,0:0:0:0:
256,192,77904,1,8,0:0:0:0:
256,192,77985,1,8,0:0:0:0:
256,192,78310,1,8,0:0:0:0:
256,192,78634,1,0,0:0:0:0:
256,192,78958,1,8,0:0:0:0:
256,192,79039,1,8,0:0:0:0:
256,192,79120,1,8,0:0:0:0:
256,192,79283,1,0,0:0:0:0:
256,192,79445,1,0,0:0:0:0:
256,192,79607,1,8,0:0:0:0:
256,192,79931,1,0,0:0:0:0:
256,192,80093,1,0,0:0:0:0:
256,192,80256,1,8,0:0:0:0:
256,192,80418,1,0,0:0:0:0:
256,192,80499,1,0,0:0:0:0:
256,192,80580,1,0,0:0:0:0:
256,192,80904,1,8,0:0:0:0:
256,192,81066,1,8,0:0:0:0:
256,192,81229,1,0,0:0:0:0:
256,192,81310,1,0,0:0:0:0:
256,192,81391,1,0,0:0:0:0:
256,192,81553,1,8,0:0:0:0:
256,192,81715,1,0,0:0:0:0:
256,192,81877,1,8,0:0:0:0:
256,192,81958,1,8,0:0:0:0:
256,192,82039,1,8,0:0:0:0:
256,192,82202,1,8,0:0:0:0:
256,192,82526,1,0,0:0:0:0:
256,192,82607,1,0,0:0:0:0:
256,192,82688,1,0,0:0:0:0:
256,192,82850,1,8,0:0:0:0:
256,192,83012,1,8,0:0:0:0:
256,192,83175,1,0,0:0:0:0:
