osu file format v14

[General]
AudioFilename: audio.mp3
AudioLeadIn: 0
PreviewTime: 87297
Countdown: 0
SampleSet: Normal
StackLeniency: 0
Mode: 1
LetterboxInBreaks: 0
WidescreenStoryboard: 1

[Editor]
Bookmarks: 87237
DistanceSpacing: 2.1
BeatDivisor: 4
GridSize: 32
TimelineZoom: 2.8

[Metadata]
Title:run
TitleUnicode:run
Artist:633397
ArtistUnicode:633397
Creator:The Law
Version:muzukashii
Source:
Tags:idealism ideal heaxys instrumental electronic breakcore piano just listen liku the_law
BeatmapID:3403967
BeatmapSetID:1625888

[Difficulty]
HPDrainRate:6
CircleSize:5
OverallDifficulty:5
ApproachRate:5
SliderMultiplier:1.4
SliderTickRate:1

[Events]
//Background and Video events
0,0,"bg.jpg",0,0
//Break Periods
2,75081,81195
//Storyboard Layer 0 (Background)
//Storyboard Layer 1 (Fail)
//Storyboard Layer 2 (Pass)
//Storyboard Layer 3 (Foreground)
//Storyboard Layer 4 (Overlay)
//Storyboard Sound Samples

[TimingPoints]
42666,508.474576271186,4,1,0,50,1,0
42666,-80,4,1,0,50,0,0
54810,508.474576271186,4,1,0,50,1,0
54810,-80,4,1,0,50,0,0
66886,508.474576271186,4,1,0,50,1,0
66886,-80,4,1,0,50,0,0
75081,526.315789473684,4,1,0,50,1,8
75081,-48.3050847457627,4,1,0,50,0,0
77126,508.474576271186,4,1,0,50,1,0
77126,-80,4,1,0,50,0,0
83224,-83.3333333333334,4,1,0,50,0,0
83987,-77.2928502213525,4,1,0,50,0,0
84241,-75.4716981132076,4,1,0,50,0,0
84495,-73.7343894437296,4,1,0,50,0,0
84750,-72.0688799914964,4,1,0,50,0,0
84877,-71.267146686288,4,1,0,50,0,0
85258,-68.9655172413794,4,1,0,50,0,0
85512,-67.5119490175253,4,1,0,50,0,0
85767,-66.1130162032147,4,1,0,50,0,0
86021,-64.7760385981116,4,1,0,50,0,0
86275,-63.4920634920636,4,1,0,50,0,0
86529,-62.2580003366952,4,1,0,50,0,0
86784,-61.0664104719587,4,1,0,50,0,0
86911,-60.489806843021,4,1,0,50,0,0
87038,-59.9239902188964,4,1,0,50,0,0
87165,-59.3686607025584,4,1,0,50,0,0
87295,254.237288135593,4,1,0,90,1,1
87295,-117.647058823529,4,1,0,90,0,1
136108,508.474576271186,4,1,0,5,1,0
136108,-58.8235294117647,4,1,0,5,0,0

[HitObjects]
80,131,42666,5,8,0:0:0:0:
12,146,42920,1,0,0:0:0:0:
117,63,43047,1,8,0:0:0:0:
12,146,43174,1,0,0:0:0:0:
44,131,43428,1,8,0:0:0:0:
54,140,43682,1,0,0:0:0:0:
116,56,43810,1,8,0:0:0:0:
52,144,43937,1,0,0:0:0:0:
116,56,44064,1,8,0:0:0:0:
50,147,44191,1,0,0:0:0:0:
62,127,44699,1,8,0:0:0:0:
63,119,44954,1,8,0:0:0:0:
171,130,45081,1,8,0:0:0:0:
161,157,45208,1,0,0:0:0:0:
63,167,45462,1,0,0:0:0:0:
63,167,45716,1,8,0:0:0:0:
17,128,45971,1,0,0:0:0:0:
4,155,46225,1,8,0:0:0:0:
4,155,46479,1,0,0:0:0:0:
112,56,46606,1,0,0:0:0:0:
4,155,46733,1,8,0:0:0:0:
226,123,47242,1,8,0:0:0:0:
173,110,47496,1,8,0:0:0:0:
173,110,47623,1,0,0:0:0:0:
173,110,47750,1,8,0:0:0:0:
131,101,48004,1,0,0:0:0:0:
72,131,48259,1,0,0:0:0:0:
134,129,48513,1,0,0:0:0:0:
134,129,48640,1,8,0:0:0:0:
134,129,48767,1,0,0:0:0:0:
134,129,49021,1,0,0:0:0:0:
136,160,49149,1,0,0:0:0:0:
134,129,49276,1,8,0:0:0:0:
131,94,49530,1,8,0:0:0:0:
66,81,49784,1,0,0:0:0:0:
66,81,49911,1,0,0:0:0:0:
169,75,50038,1,8,0:0:0:0:
169,75,50165,1,0,0:0:0:0:
169,75,50293,1,8,0:0:0:0:
115,53,50801,1,0,0:0:0:0:
169,62,51310,1,0,0:0:0:0:
132,67,51564,1,0,0:0:0:0:
132,67,51818,1,8,0:0:0:0:
322,79,51945,1,0,0:0:0:0:
313,83,52072,1,8,0:0:0:0:
68,54,52327,1,8,0:0:0:0:
205,101,52581,1,0,0:0:0:0:
205,101,52708,1,8,0:0:0:0:
205,101,52835,1,0,0:0:0:0:
79,53,53089,1,8,0:0:0:0:
79,55,53343,1,0,0:0:0:0:
79,55,53598,1,0,0:0:0:0:
197,55,53725,1,8,0:0:0:0:
178,48,53852,1,0,0:0:0:0:
194,50,53979,1,0,0:0:0:0:
182,50,54106,1,8,0:0:0:0:
178,50,54360,1,0,0:0:0:0:
62,110,54810,1,0,0:0:0:0:
133,151,55064,1,8,0:0:0:0:
133,151,55191,1,8,0:0:0:0:
133,151,55318,1,0,0:0:0:0:
142,149,55572,1,0,0:0:0:0:
122,158,55826,1,8,0:0:0:0:
125,157,56081,1,0,0:0:0:0:
165,147,56208,1,0,0:0:0:0:
165,147,56335,1,0,0:0:0:0:
123,98,56589,1,0,0:0:0:0:
119,79,56843,1,8,0:0:0:0:
206,94,56971,1,0,0:0:0:0:
206,94,57098,1,8,0:0:0:0:
194,92,57352,1,0,0:0:0:0:
172,114,57606,1,0,0:0:0:0:
181,142,57733,1,0,0:0:0:0:
194,158,57860,1,0,0:0:0:0:
192,158,58115,1,8,0:0:0:0:
192,158,58369,1,0,0:0:0:0:
194,158,58877,1,0,0:0:0:0:
192,158,59132,1,8,0:0:0:0:
192,158,59386,1,0,0:0:0:0:
249,109,59640,1,0,0:0:0:0:
249,109,59767,1,8,0:0:0:0:
256,107,59894,1,0,0:0:0:0:
257,105,60148,1,8,0:0:0:0:
252,95,60403,1,0,0:0:0:0:
129,89,60657,1,0,0:0:0:0:
116,106,60911,1,8,0:0:0:0:
116,106,61038,1,0,0:0:0:0:
116,106,61165,1,8,0:0:0:0:
109,108,61420,1,0,0:0:0:0:
246,95,61928,1,8,0:0:0:0:
246,95,62055,1,0,0:0:0:0:
242,99,62182,1,8,0:0:0:0:
243,87,62437,1,8,0:0:0:0:
203,67,62691,1,8,0:0:0:0:
279,94,62945,1,0,0:0:0:0:
159,94,63454,1,0,0:0:0:0:
159,94,63708,1,8,0:0:0:0:
159,94,63835,1,8,0:0:0:0:
147,121,63962,1,0,0:0:0:0:
149,96,64216,1,0,0:0:0:0:
151,97,64471,1,8,0:0:0:0:
138,112,64725,1,8,0:0:0:0:
132,112,64852,1,0,0:0:0:0:
137,112,64979,1,0,0:0:0:0:
264,98,65233,1,0,0:0:0:0:
246,100,65487,1,8,0:0:0:0:
152,89,65742,1,0,0:0:0:0:
152,89,65869,1,0,0:0:0:0:
152,89,65996,1,0,0:0:0:0:
230,64,66250,1,8,0:0:0:0:
213,64,66886,1,0,0:0:0:0:
190,158,67426,1,8,0:0:0:0:
326,220,67648,1,0,0:0:0:0:
289,206,67902,1,0,0:0:0:0:
289,206,68030,1,8,0:0:0:0:
289,206,68157,1,0,0:0:0:0:
262,185,68411,1,8,0:0:0:0:
262,185,68665,1,8,0:0:0:0:
245,194,68919,1,0,0:0:0:0:
236,194,69047,1,0,0:0:0:0:
235,194,69174,1,0,0:0:0:0:
210,189,69428,1,8,0:0:0:0:
210,189,69682,1,0,0:0:0:0:
210,189,69968,1,8,0:0:0:0:
168,185,70222,1,8,0:0:0:0:
151,182,70445,1,0,0:0:0:0:
151,182,70572,1,0,0:0:0:0:
109,169,70699,1,8,0:0:0:0:
109,169,70953,1,0,0:0:0:0:
178,153,71462,1,0,0:0:0:0:
157,153,71716,1,8,0:0:0:0:
148,165,71970,1,0,0:0:0:0:
145,165,72097,1,0,0:0:0:0:
145,165,72224,1,8,0:0:0:0:
39,94,72479,1,0,0:0:0:0:
137,174,72987,1,8,0:0:0:0:
54,142,73241,1,0,0:0:0:0:
54,142,73369,1,8,0:0:0:0:
54,142,73496,1,0,0:0:0:0:
54,142,73750,1,8,0:0:0:0:
54,142,74004,1,0,0:0:0:0:
54,142,74131,1,0,0:0:0:0:
54,142,74258,1,8,0:0:0:0:
54,142,74513,1,0,0:0:0:0:
174,198,83227,5,0,0:0:0:0:
196,190,83990,1,0,0:0:0:0:
166,219,84244,1,8,0:0:0:0:
98,196,84498,1,0,0:0:0:0:
174,186,84753,1,8,0:0:0:0:
174,186,84880,1,8,0:0:0:0:
96,201,85261,1,8,0:0:0:0:
301,272,85515,1,0,0:0:0:0:
92,132,85770,1,8,0:0:0:0:
96,135,86024,1,0,0:0:0:0:
96,136,86278,1,8,0:0:0:0:
155,142,86532,1,8,0:0:0:0:
155,142,86787,1,8,0:0:0:0:
167,133,86914,1,8,0:0:0:0:
155,142,87041,1,8,0:0:0:0:
143,145,87168,1,8,0:0:0:0:
142,147,87295,1,0,0:0:0:0:
106,146,87549,1,8,0:0:0:0:
152,130,87676,1,0,0:0:0:0:
108,172,87803,1,0,0:0:0:0:
108,172,87867,1,0,0:0:0:0:
103,160,88057,1,8,0:0:0:0:
161,178,88184,1,8,0:0:0:0:
153,168,88248,1,8,0:0:0:0:
118,163,88439,1,0,0:0:0:0:
118,164,88566,1,0,0:0:0:0:
118,164,88693,1,0,0:0:0:0:
118,164,88820,1,8,0:0:0:0:
118,164,88947,1,0,0:0:0:0:
117,164,89074,1,8,0:0:0:0:
105,160,89328,1,8,0:0:0:0:
109,158,89456,1,0,0:0:0:0:
109,158,89583,1,8,0:0:0:0:
109,158,89710,1,0,0:0:0:0:
111,158,89773,1,0,0:0:0:0:
109,158,89837,1,0,0:0:0:0:
185,140,89964,1,8,0:0:0:0:
138,129,90345,1,0,0:0:0:0:
109,158,90600,1,8,0:0:0:0:
109,158,90727,1,0,0:0:0:0:
109,158,90790,1,0,0:0:0:0:
109,158,90854,1,0,0:0:0:0:
98,149,90981,1,8,0:0:0:0:
98,149,91108,1,8,0:0:0:0:
98,149,91172,1,8,0:0:0:0:
96,149,91235,1,8,0:0:0:0:
95,151,91362,1,0,0:0:0:0:
102,144,91617,1,8,0:0:0:0:
152,137,91744,1,8,0:0:0:0:
125,128,91871,1,0,0:0:0:0:
166,142,91934,1,0,0:0:0:0:
123,130,92125,1,8,0:0:0:0:
123,129,92379,1,0,0:0:0:0:
125,154,92506,1,0,0:0:0:0:
118,144,92633,1,8,0:0:0:0:
152,235,92761,1,0,0:0:0:0:
152,235,92824,1,0,0:0:0:0:
121,146,92888,1,0,0:0:0:0:
74,133,93142,1,8,0:0:0:0:
131,123,93396,1,0,0:0:0:0:
131,123,93523,1,0,0:0:0:0:
130,123,93650,1,8,0:0:0:0:
130,124,93778,1,8,0:0:0:0:
126,125,93905,1,0,0:0:0:0:
121,128,94159,1,8,0:0:0:0:
120,129,94286,1,0,0:0:0:0:
119,129,94413,1,0,0:0:0:0:
117,131,94540,1,8,0:0:0:0:
117,132,94667,1,8,0:0:0:0:
110,135,94922,1,0,0:0:0:0:
151,152,95176,1,8,0:0:0:0:
124,158,95430,1,0,0:0:0:0:
127,144,95557,1,8,0:0:0:0:
124,158,95684,1,8,0:0:0:0:
124,158,95748,1,8,0:0:0:0:
124,158,95811,1,8,0:0:0:0:
80,101,96066,1,0,0:0:0:0:
75,137,96193,1,8,0:0:0:0:
97,132,96320,1,8,0:0:0:0:
97,110,96383,1,8,0:0:0:0:
149,157,96447,1,8,0:0:0:0:
189,103,96574,1,0,0:0:0:0:
132,103,96956,1,0,0:0:0:0:
132,103,97083,1,0,0:0:0:0:
132,103,97210,1,8,0:0:0:0:
132,103,97337,1,8,0:0:0:0:
132,103,97464,1,0,0:0:0:0:
131,85,97718,1,8,0:0:0:0:
175,106,97845,1,8,0:0:0:0:
167,112,97972,1,0,0:0:0:0:
173,107,98100,1,0,0:0:0:0:
169,111,98227,1,8,0:0:0:0:
175,106,98354,1,0,0:0:0:0:
166,113,98481,1,0,0:0:0:0:
164,113,98608,1,0,0:0:0:0:
162,114,98735,1,8,0:0:0:0:
159,117,98989,1,8,0:0:0:0:
154,118,99117,1,0,0:0:0:0:
154,118,99244,1,8,0:0:0:0:
330,283,99371,1,0,0:0:0:0:
330,283,99434,1,0,0:0:0:0:
330,283,99498,1,0,0:0:0:0:
116,151,99752,1,8,0:0:0:0:
126,151,99879,1,0,0:0:0:0:
127,153,99943,1,0,0:0:0:0:
125,152,100006,1,0,0:0:0:0:
125,153,100261,1,8,0:0:0:0:
83,52,100388,1,8,0:0:0:0:
125,153,100515,1,0,0:0:0:0:
143,129,100769,1,8,0:0:0:0:
144,149,101023,1,0,0:0:0:0:
144,149,101150,1,0,0:0:0:0:
144,150,101278,1,8,0:0:0:0:
139,173,101405,1,0,0:0:0:0:
139,173,101468,1,0,0:0:0:0:
144,175,101532,1,0,0:0:0:0:
127,203,101786,1,8,0:0:0:0:
174,151,101913,1,0,0:0:0:0:
167,152,101977,1,0,0:0:0:0:
201,150,102040,1,0,0:0:0:0:
58,121,102294,1,8,0:0:0:0:
58,121,102358,1,8,0:0:0:0:
58,121,102422,1,8,0:0:0:0:
58,123,102549,1,0,0:0:0:0:
60,120,102676,1,0,0:0:0:0:
32,128,102803,1,8,0:0:0:0:
52,157,102930,1,8,0:0:0:0:
100,128,103057,1,0,0:0:0:0:
91,147,103311,1,8,0:0:0:0:
96,142,103566,1,0,0:0:0:0:
133,134,103820,1,8,0:0:0:0:
133,134,103947,1,8,0:0:0:0:
133,134,104074,1,0,0:0:0:0:
137,129,104201,1,0,0:0:0:0:
132,134,104328,1,8,0:0:0:0:
169,118,104392,1,8,0:0:0:0:
169,118,104456,1,8,0:0:0:0:
121,170,104583,1,0,0:0:0:0:
121,170,104837,1,8,0:0:0:0:
121,170,104964,1,8,0:0:0:0:
169,118,105091,1,8,0:0:0:0:
140,137,105218,1,0,0:0:0:0:
140,141,105345,1,8,0:0:0:0:
138,142,105600,1,0,0:0:0:0:
123,137,105854,1,8,0:0:0:0:
120,154,105981,1,0,0:0:0:0:
120,154,106044,1,0,0:0:0:0:
120,154,106108,1,0,0:0:0:0:
120,154,106235,1,0,0:0:0:0:
119,155,106362,1,8,0:0:0:0:
169,85,106489,1,8,0:0:0:0:
131,153,106871,1,8,0:0:0:0:
131,153,106934,1,8,0:0:0:0:
126,157,106998,1,8,0:0:0:0:
131,154,107125,1,0,0:0:0:0:
171,149,107189,1,0,0:0:0:0:
64,182,107252,1,0,0:0:0:0:
64,182,107379,1,8,0:0:0:0:
64,182,107506,1,8,0:0:0:0:
64,182,107633,1,0,0:0:0:0:
163,131,107888,1,0,0:0:0:0:
163,131,108015,1,8,0:0:0:0:
163,131,108078,1,8,0:0:0:0:
163,131,108142,1,8,0:0:0:0:
154,135,108269,1,0,0:0:0:0:
150,138,108396,1,8,0:0:0:0:
147,128,108523,1,8,0:0:0:0:
52,155,108905,1,0,0:0:0:0:
118,114,109032,1,0,0:0:0:0:
51,166,109095,1,0,0:0:0:0:
51,167,109159,1,0,0:0:0:0:
51,171,109286,1,0,0:0:0:0:
49,172,109413,1,8,0:0:0:0:
83,134,109540,1,8,0:0:0:0:
46,173,109667,1,0,0:0:0:0:
40,175,109922,1,8,0:0:0:0:
40,175,110176,1,0,0:0:0:0:
41,176,110239,1,0,0:0:0:0:
40,177,110303,1,0,0:0:0:0:
41,177,110430,1,8,0:0:0:0:
34,180,110557,1,8,0:0:0:0:
34,180,110684,1,0,0:0:0:0:
34,182,110939,1,8,0:0:0:0:
79,172,111066,1,8,0:0:0:0:
79,172,111193,1,0,0:0:0:0:
79,172,111320,1,0,0:0:0:0:
96,163,111447,1,8,0:0:0:0:
96,163,111574,1,0,0:0:0:0:
96,164,111638,1,0,0:0:0:0:
96,164,111701,1,0,0:0:0:0:
96,164,111956,1,8,0:0:0:0:
96,164,112083,1,8,0:0:0:0:
96,164,112146,1,8,0:0:0:0:
94,165,112210,1,8,0:0:0:0:
91,170,112337,1,0,0:0:0:0:
91,170,112464,1,8,0:0:0:0:
91,170,112591,1,0,0:0:0:0:
91,170,112718,1,0,0:0:0:0:
108,102,113100,1,0,0:0:0:0:
114,181,113227,1,0,0:0:0:0:
114,181,113290,1,0,0:0:0:0:
114,181,113354,1,0,0:0:0:0:
108,102,113481,1,8,0:0:0:0:
31,118,113735,1,0,0:0:0:0:
64,81,113862,1,0,0:0:0:0:
64,81,113989,1,8,0:0:0:0:
156,163,114053,1,8,0:0:0:0:
156,163,114117,1,8,0:0:0:0:
64,81,114244,1,0,0:0:0:0:
55,67,114498,1,8,0:0:0:0:
88,114,114561,1,8,0:0:0:0:
142,109,114625,1,8,0:0:0:0:
110,43,114752,1,0,0:0:0:0:
92,79,115006,1,8,0:0:0:0:
82,85,115133,1,8,0:0:0:0:
81,85,115261,1,0,0:0:0:0:
80,86,115388,1,0,0:0:0:0:
72,90,115515,1,8,0:0:0:0:
72,91,115769,1,0,0:0:0:0:
62,91,115896,1,0,0:0:0:0:
63,91,116023,1,8,0:0:0:0:
77,55,116150,1,8,0:0:0:0:
206,109,116214,1,8,0:0:0:0:
206,109,116278,1,8,0:0:0:0:
146,135,116405,1,0,0:0:0:0:
39,87,116532,1,8,0:0:0:0:
109,178,116659,1,8,0:0:0:0:
39,87,116786,1,0,0:0:0:0:
151,82,117040,1,8,0:0:0:0:
151,82,117167,1,0,0:0:0:0:
151,83,117231,1,0,0:0:0:0:
151,83,117294,1,0,0:0:0:0:
151,83,117422,1,0,0:0:0:0:
140,89,117549,1,8,0:0:0:0:
140,89,117930,1,8,0:0:0:0:
139,89,118057,1,8,0:0:0:0:
139,89,118184,1,8,0:0:0:0:
139,90,118311,1,0,0:0:0:0:
58,100,118375,1,0,0:0:0:0:
58,100,118439,1,0,0:0:0:0:
61,108,118566,1,8,0:0:0:0:
96,96,118820,1,0,0:0:0:0:
111,91,119074,1,8,0:0:0:0:
111,95,119201,1,0,0:0:0:0:
110,95,119328,1,0,0:0:0:0:
144,138,119456,1,0,0:0:0:0:
110,134,119583,1,8,0:0:0:0:
97,134,119837,1,0,0:0:0:0:
97,135,119900,1,0,0:0:0:0:
97,135,119964,1,0,0:0:0:0:
110,134,120091,1,8,0:0:0:0:
110,134,120218,1,8,0:0:0:0:
110,134,120345,1,0,0:0:0:0:
110,134,120409,1,0,0:0:0:0:
40,18,120472,1,0,0:0:0:0:
34,25,120600,1,8,0:0:0:0:
27,27,120663,1,8,0:0:0:0:
24,33,120727,1,8,0:0:0:0:
20,42,120854,1,0,0:0:0:0:
74,85,121108,1,8,0:0:0:0:
68,89,121235,1,8,0:0:0:0:
144,137,121362,1,0,0:0:0:0:
153,135,121489,1,0,0:0:0:0:
144,137,121617,1,8,0:0:0:0:
144,137,121680,1,8,0:0:0:0:
144,137,121744,1,8,0:0:0:0:
144,137,121871,1,0,0:0:0:0:
148,129,122125,1,8,0:0:0:0:
145,130,122189,1,8,0:0:0:0:
64,100,122252,1,8,0:0:0:0:
64,100,122379,1,8,0:0:0:0:
64,100,122506,1,0,0:0:0:0:
82,141,122633,1,8,0:0:0:0:
82,141,122888,1,8,0:0:0:0:
77,131,123015,1,0,0:0:0:0:
80,135,123142,1,8,0:0:0:0:
68,109,123269,1,0,0:0:0:0:
69,111,123333,1,0,0:0:0:0:
70,111,123396,1,0,0:0:0:0:
83,149,123523,1,8,0:0:0:0:
63,151,123650,1,8,0:0:0:0:
50,144,123905,1,0,0:0:0:0:
249,170,124286,1,8,0:0:0:0:
85,169,124413,1,8,0:0:0:0:
85,169,124477,1,8,0:0:0:0:
177,67,124540,1,8,0:0:0:0:
177,79,124667,1,0,0:0:0:0:
183,82,124794,1,8,0:0:0:0:
183,82,124922,1,0,0:0:0:0:
172,134,125176,1,8,0:0:0:0:
177,135,125303,1,0,0:0:0:0:
157,147,125430,1,8,0:0:0:0:
157,183,125557,1,8,0:0:0:0:
151,178,125684,1,0,0:0:0:0:
150,177,125811,1,0,0:0:0:0:
152,175,125939,1,8,0:0:0:0:
142,177,126193,1,8,0:0:0:0:
142,176,126320,1,8,0:0:0:0:
139,172,126447,1,0,0:0:0:0:
169,124,126574,1,0,0:0:0:0:
194,100,126701,1,8,0:0:0:0:
194,100,126828,1,8,0:0:0:0:
157,144,126956,1,8,0:0:0:0:
155,145,127210,1,0,0:0:0:0:
134,111,127273,1,0,0:0:0:0:
134,111,127337,1,0,0:0:0:0:
152,134,127464,1,8,0:0:0:0:
100,116,127591,1,0,0:0:0:0:
143,157,127718,1,8,0:0:0:0:
102,159,127845,1,8,0:0:0:0:
110,214,127972,1,0,0:0:0:0:
80,150,128354,1,8,0:0:0:0:
51,163,128481,1,0,0:0:0:0:
51,163,128608,1,0,0:0:0:0:
45,163,128735,1,8,0:0:0:0:
182,111,128989,1,0,0:0:0:0:
172,97,129244,1,8,0:0:0:0:
26,103,129371,1,0,0:0:0:0:
22,106,129434,1,0,0:0:0:0:
22,107,129498,1,0,0:0:0:0:
21,107,129625,1,0,0:0:0:0:
21,107,129752,1,8,0:0:0:0:
21,108,129879,1,8,0:0:0:0:
80,189,130006,1,0,0:0:0:0:
14,180,130261,1,8,0:0:0:0:
25,194,130388,1,8,0:0:0:0:
25,197,130515,1,0,0:0:0:0:
25,198,130578,1,0,0:0:0:0:
24,199,130642,1,0,0:0:0:0:
24,201,130769,1,8,0:0:0:0:
24,203,130896,1,0,0:0:0:0:
25,204,131023,1,0,0:0:0:0:
69,135,131278,1,8,0:0:0:0:
63,145,131405,1,8,0:0:0:0:
64,125,131532,1,0,0:0:0:0:
65,125,131659,1,8,0:0:0:0:
64,126,131722,1,8,0:0:0:0:
87,148,131786,1,8,0:0:0:0:
88,157,132040,1,0,0:0:0:0:
159,79,132294,1,8,0:0:0:0:
159,79,132358,1,8,0:0:0:0:
117,150,132422,1,8,0:0:0:0:
117,150,132549,1,0,0:0:0:0:
116,151,132676,1,8,0:0:0:0:
112,157,132803,1,0,0:0:0:0:
111,158,132867,1,0,0:0:0:0:
109,170,132930,1,0,0:0:0:0:
105,171,133057,1,8,0:0:0:0:
137,144,133439,1,8,0:0:0:0:
143,155,133566,1,0,0:0:0:0:
143,157,133629,1,0,0:0:0:0:
148,158,133693,1,0,0:0:0:0:
142,162,133820,1,8,0:0:0:0:
141,162,133947,1,8,0:0:0:0:
139,163,134074,1,0,0:0:0:0:
137,163,134328,1,8,0:0:0:0:
136,163,134456,1,8,0:0:0:0:
185,198,134583,1,0,0:0:0:0:
180,119,134710,1,0,0:0:0:0:
121,134,134837,1,8,0:0:0:0:
132,71,134900,1,8,0:0:0:0:
122,76,134964,1,8,0:0:0:0:
121,76,135091,1,0,0:0:0:0:
94,66,135345,1,8,0:0:0:0:
89,72,135472,1,8,0:0:0:0:
88,72,135600,1,0,0:0:0:0:
143,118,135727,1,8,0:0:0:0:
141,119,135854,1,8,0:0:0:0:
256,192,136108,12,0,144243,0:0:0:0:
