osu file format v14

[General]
AudioFilename: audio.mp3
AudioLeadIn: 0
PreviewTime: 87297
Countdown: 0
SampleSet: Normal
StackLeniency: 0
Mode: 1
LetterboxInBreaks: 0
WidescreenStoryboard: 1

[Editor]
Bookmarks: 87237
DistanceSpacing: 2.8
BeatDivisor: 4
GridSize: 32
TimelineZoom: 3.1

[Metadata]
Title:run
TitleUnicode:run
Artist:633397
ArtistUnicode:633397
Creator:The Law
Version:kantan
Source:
Tags:idealism ideal heaxys instrumental electronic breakcore piano just listen liku the_law
BeatmapID:4507003
BeatmapSetID:1625888

[Difficulty]
HPDrainRate:8.5
CircleSize:5
OverallDifficulty:3
ApproachRate:5
SliderMultiplier:1.3
SliderTickRate:1

[Events]
//Background and Video events
0,0,"bg.jpg",0,0
//Break Periods
2,75081,81195
//Storyboard Layer 0 (Background)
//Storyboard Layer 1 (Fail)
//Storyboard Layer 2 (Pass)
//Storyboard Layer 3 (Foreground)
//Storyboard Layer 4 (Overlay)
//Storyboard Sound Samples

[TimingPoints]
42666,508.474576271186,4,1,0,50,1,0
42666,-80,4,1,0,50,0,0
54810,508.474576271186,4,1,0,50,1,0
54810,-80,4,1,0,50,0,0
66886,508.474576271186,4,1,0,50,1,0
66886,-80,4,1,0,50,0,0
75081,526.315789473684,4,1,0,50,1,8
75081,-48.3050847457627,4,1,0,50,0,0
77126,508.474576271186,4,1,0,50,1,0
77126,-80,4,1,0,50,0,0
87295,254.237288135593,4,1,0,90,1,1
87295,-134.228187919463,4,1,0,90,0,1
136108,508.474576271186,4,1,0,5,1,0
136108,-66.6666666666667,4,1,0,5,0,0

[HitObjects]
80,131,42666,5,8,0:0:0:0:
12,146,43428,1,8,0:0:0:0:
50,147,44191,1,0,0:0:0:0:
62,127,44699,1,0,0:0:0:0:
63,167,45716,1,8,0:0:0:0:
73,158,46733,1,0,0:0:0:0:
226,123,47242,1,8,0:0:0:0:
173,110,47750,1,8,0:0:0:0:
134,129,48767,1,0,0:0:0:0:
134,129,49276,1,8,0:0:0:0:
66,81,49784,1,0,0:0:0:0:
115,53,50801,1,0,0:0:0:0:
169,62,51310,1,0,0:0:0:0:
132,67,51818,1,0,0:0:0:0:
68,54,52327,1,8,0:0:0:0:
205,101,52835,1,0,0:0:0:0:
178,48,53852,1,8,0:0:0:0:
62,110,54810,1,0,0:0:0:0:
142,149,55318,1,8,0:0:0:0:
165,147,56335,1,8,0:0:0:0:
119,79,56843,1,0,0:0:0:0:
194,92,57352,1,0,0:0:0:0:
194,158,57860,1,8,0:0:0:0:
194,158,58877,1,0,0:0:0:0:
192,158,59386,1,8,0:0:0:0:
256,107,59894,1,0,0:0:0:0:
252,95,60403,1,8,0:0:0:0:
210,128,60911,1,0,0:0:0:0:
68,153,61928,1,8,0:0:0:0:
128,195,62945,1,0,0:0:0:0:
159,94,63454,1,8,0:0:0:0:
147,121,63962,1,0,0:0:0:0:
151,97,64471,1,8,0:0:0:0:
137,112,64979,1,0,0:0:0:0:
152,89,65996,1,8,0:0:0:0:
213,64,66886,1,0,0:0:0:0:
262,185,68411,1,8,0:0:0:0:
245,194,68919,1,0,0:0:0:0:
210,189,69428,1,8,0:0:0:0:
109,169,70953,1,8,0:0:0:0:
178,153,71716,1,8,0:0:0:0:
148,165,72479,1,0,0:0:0:0:
137,174,72987,1,8,0:0:0:0:
146,158,73750,1,8,0:0:0:0:
178,178,74513,1,0,0:0:0:0:
174,198,83227,5,0,0:0:0:0:
166,219,84244,1,8,0:0:0:0:
96,201,85261,1,8,0:0:0:0:
92,132,85770,1,8,0:0:0:0:
96,136,86278,1,8,0:0:0:0:
155,142,86787,1,8,0:0:0:0:
142,147,87295,1,0,0:0:0:0:
191,170,87803,1,0,0:0:0:0:
103,160,88057,1,8,0:0:0:0:
118,164,88566,1,0,0:0:0:0:
164,162,88820,1,0,0:0:0:0:
117,164,89074,1,8,0:0:0:0:
105,160,89328,1,0,0:0:0:0:
109,158,89964,1,8,0:0:0:0:
138,129,90345,1,0,0:0:0:0:
109,158,90854,1,0,0:0:0:0:
98,149,91108,1,8,0:0:0:0:
95,151,91362,1,0,0:0:0:0:
125,128,91871,1,0,0:0:0:0:
123,130,92125,1,0,0:0:0:0:
184,134,92379,1,8,0:0:0:0:
121,146,92888,1,8,0:0:0:0:
131,123,93396,1,8,0:0:0:0:
130,123,93650,1,0,0:0:0:0:
126,125,93905,1,8,0:0:0:0:
121,128,94159,1,8,0:0:0:0:
119,129,94413,1,0,0:0:0:0:
124,158,95430,1,8,0:0:0:0:
80,101,95939,1,8,0:0:0:0:
75,137,96193,1,0,0:0:0:0:
149,157,96447,1,8,0:0:0:0:
132,103,96956,1,0,0:0:0:0:
132,103,97210,1,8,0:0:0:0:
132,103,97464,1,0,0:0:0:0:
167,112,97972,1,0,0:0:0:0:
169,111,98227,1,0,0:0:0:0:
166,113,98481,1,8,0:0:0:0:
159,117,98989,1,8,0:0:0:0:
154,118,99244,1,8,0:0:0:0:
119,110,99498,1,0,0:0:0:0:
125,153,100515,1,0,0:0:0:0:
143,129,100769,1,8,0:0:0:0:
139,173,101278,1,8,0:0:0:0:
144,175,101532,1,0,0:0:0:0:
201,150,102040,1,0,0:0:0:0:
58,123,102549,1,0,0:0:0:0:
32,128,102803,1,0,0:0:0:0:
100,128,103057,1,8,0:0:0:0:
91,147,103311,1,8,0:0:0:0:
96,142,103566,1,0,0:0:0:0:
133,134,104074,1,0,0:0:0:0:
132,134,104328,1,0,0:0:0:0:
121,170,104583,1,8,0:0:0:0:
169,118,105091,1,8,0:0:0:0:
138,142,105600,1,0,0:0:0:0:
123,137,105854,1,0,0:0:0:0:
120,154,106108,1,8,0:0:0:0:
119,155,106362,1,0,0:0:0:0:
131,152,106617,1,8,0:0:0:0:
64,182,107633,1,8,0:0:0:0:
163,131,108142,1,8,0:0:0:0:
150,138,108396,1,8,0:0:0:0:
147,128,108650,1,0,0:0:0:0:
51,167,109159,1,0,0:0:0:0:
49,172,109413,1,0,0:0:0:0:
46,173,109667,1,8,0:0:0:0:
40,175,110176,1,8,0:0:0:0:
41,177,110430,1,0,0:0:0:0:
34,180,110684,1,8,0:0:0:0:
79,172,111193,1,0,0:0:0:0:
96,163,111447,1,8,0:0:0:0:
96,164,111701,1,0,0:0:0:0:
91,170,112718,1,0,0:0:0:0:
91,171,112972,1,8,0:0:0:0:
108,102,113481,1,8,0:0:0:0:
31,118,113735,1,0,0:0:0:0:
64,81,114244,1,0,0:0:0:0:
55,67,114498,1,8,0:0:0:0:
110,43,114752,1,0,0:0:0:0:
81,85,115261,1,8,0:0:0:0:
72,91,115769,1,0,0:0:0:0:
174,72,116278,1,8,0:0:0:0:
39,87,116532,1,8,0:0:0:0:
39,87,116786,1,0,0:0:0:0:
151,82,117040,1,8,0:0:0:0:
151,83,117294,1,0,0:0:0:0:
140,89,117803,1,0,0:0:0:0:
139,90,118311,1,0,0:0:0:0:
61,108,118566,1,8,0:0:0:0:
96,96,118820,1,0,0:0:0:0:
97,134,119837,1,0,0:0:0:0:
132,132,120091,1,0,0:0:0:0:
110,134,120345,1,0,0:0:0:0:
34,25,120600,1,0,0:0:0:0:
20,42,120854,1,8,0:0:0:0:
144,137,121362,1,0,0:0:0:0:
144,137,121617,1,8,0:0:0:0:
144,137,121871,1,0,0:0:0:0:
64,100,122379,1,8,0:0:0:0:
82,141,122633,1,8,0:0:0:0:
82,141,122888,1,0,0:0:0:0:
80,135,123142,1,0,0:0:0:0:
70,111,123396,1,8,0:0:0:0:
63,151,123650,1,8,0:0:0:0:
50,144,123905,1,0,0:0:0:0:
183,82,124922,1,0,0:0:0:0:
172,134,125176,1,8,0:0:0:0:
157,147,125430,1,8,0:0:0:0:
152,175,125939,1,0,0:0:0:0:
139,172,126447,1,0,0:0:0:0:
194,100,126701,1,8,0:0:0:0:
157,144,126956,1,8,0:0:0:0:
155,145,127210,1,0,0:0:0:0:
143,157,127464,1,8,0:0:0:0:
110,214,127972,1,0,0:0:0:0:
51,163,128481,1,8,0:0:0:0:
45,163,128735,1,8,0:0:0:0:
182,111,128989,1,0,0:0:0:0:
22,107,129498,1,0,0:0:0:0:
80,189,130006,1,0,0:0:0:0:
14,180,130261,1,8,0:0:0:0:
25,197,130515,1,0,0:0:0:0:
24,201,130769,1,8,0:0:0:0:
69,135,131023,1,0,0:0:0:0:
88,157,132040,1,0,0:0:0:0:
117,150,132549,1,0,0:0:0:0:
112,157,132803,1,0,0:0:0:0:
105,171,133057,1,8,0:0:0:0:
143,155,133566,1,8,0:0:0:0:
141,162,133820,1,8,0:0:0:0:
139,163,134074,1,0,0:0:0:0:
185,198,134583,1,8,0:0:0:0:
121,134,134837,1,0,0:0:0:0:
121,76,135091,1,8,0:0:0:0:
88,72,135600,1,0,0:0:0:0:
256,192,136108,12,0,144243,0:0:0:0:
