osu file format v14

[General]
AudioFilename: audio.mp3
AudioLeadIn: 0
PreviewTime: 9750
Countdown: 0
SampleSet: Normal
StackLeniency: 0.7
Mode: 1
LetterboxInBreaks: 0
WidescreenStoryboard: 1

[Editor]
DistanceSpacing: 1
BeatDivisor: 6
GridSize: 32
TimelineZoom: 2.799999

[Metadata]
Title:nothing can hurt you now. it's okay, don't worry
TitleUnicode:nothing can hurt you now. it's okay, don't worry
Artist:633397
ArtistUnicode:633397
Creator:ikin5050
Version:oni
Source:
Tags:electronic instrumental breakcore rest its dont
BeatmapID:4500347
BeatmapSetID:2138377

[Difficulty]
HPDrainRate:6.5
CircleSize:5
OverallDifficulty:6
ApproachRate:5
SliderMultiplier:1.4
SliderTickRate:1

[Events]
//Background and Video events
0,0,"restbg.jpg",0,0
//Break Periods
//Storyboard Layer 0 (Background)
//Storyboard Layer 1 (Fail)
//Storyboard Layer 2 (Pass)
//Storyboard Layer 3 (Foreground)
//Storyboard Layer 4 (Overlay)
//Storyboard Sound Samples

[TimingPoints]
150,300,4,1,0,70,1,0
150,-125,4,1,0,70,0,0
9750,-100,4,1,0,85,0,0
19350,-111.111111111111,4,1,0,70,0,0
28950,-100,4,1,0,85,0,0
47250,-100,4,1,0,85,0,0
47400,-101.683057975612,4,1,0,85,0,0
47475,-102.546012395762,4,1,0,85,0,0
47625,-104.316512991057,4,1,0,85,0,0
47700,-105.224944625373,4,1,0,85,0,0
47850,-107.090115261091,4,1,0,85,0,0
47925,-108.047718194263,4,1,0,85,0,0
48000,-109.022601475512,4,1,0,85,0,0
48150,-111.111111111111,4,1,0,70,0,0
52350,-111.111111111111,4,1,0,70,0,0
52500,-114.252026259686,4,1,0,70,0,0
52650,-117.575821708024,4,1,0,70,0,0
52800,-121.098655441629,4,1,0,70,0,0
52875,-122.940440274305,4,1,0,70,0,0
52950,-124.839113592358,4,1,0,70,0,0
56550,-100,4,1,0,85,0,0

[HitObjects]
253,192,150,5,0,0:0:0:0:
253,192,300,1,8,0:0:0:0:
253,192,450,1,0,0:0:0:0:
253,192,750,1,8,0:0:0:0:
253,192,1050,1,8,0:0:0:0:
253,192,1350,1,0,0:0:0:0:
253,192,1650,1,0,0:0:0:0:
253,192,1950,1,8,0:0:0:0:
253,192,2250,1,0,0:0:0:0:
253,192,2550,1,8,0:0:0:0:
253,192,2700,1,0,0:0:0:0:
253,192,2850,1,0,0:0:0:0:
253,192,3150,1,8,0:0:0:0:
253,192,3450,1,0,0:0:0:0:
253,192,3750,1,0,0:0:0:0:
253,192,4050,1,8,0:0:0:0:
253,192,4350,1,0,0:0:0:0:
253,192,4650,1,8,0:0:0:0:
253,192,4950,1,0,0:0:0:0:
255,199,5100,1,0,0:0:0:0:
255,199,5250,1,8,0:0:0:0:
255,199,5550,1,8,0:0:0:0:
255,199,5850,1,8,0:0:0:0:
255,199,6150,1,0,0:0:0:0:
255,199,6450,1,0,0:0:0:0:
255,199,6750,1,8,0:0:0:0:
255,199,7050,1,0,0:0:0:0:
255,199,7350,1,0,0:0:0:0:
255,199,7500,1,8,0:0:0:0:
255,199,7650,1,8,0:0:0:0:
255,199,7950,1,0,0:0:0:0:
255,199,8250,1,0,0:0:0:0:
255,199,8550,1,8,0:0:0:0:
255,199,8850,1,0,0:0:0:0:
255,199,9150,1,8,0:0:0:0:
255,199,9450,1,8,0:0:0:0:
246,210,9750,1,4,0:0:0:0:
253,210,9900,1,8,0:0:0:0:
253,210,9975,1,0,0:0:0:0:
253,210,10050,1,8,0:0:0:0:
253,210,10200,1,8,0:0:0:0:
253,210,10350,1,0,0:0:0:0:
253,210,10425,1,0,0:0:0:0:
253,210,10500,1,8,0:0:0:0:
253,210,10650,1,0,0:0:0:0:
253,210,10800,1,8,0:0:0:0:
253,210,10950,1,8,0:0:0:0:
253,210,11100,1,0,0:0:0:0:
253,210,11175,1,0,0:0:0:0:
253,210,11250,1,8,0:0:0:0:
253,210,11400,1,8,0:0:0:0:
253,210,11550,1,8,0:0:0:0:
253,210,11625,1,8,0:0:0:0:
253,210,11700,1,0,0:0:0:0:
234,170,11775,1,0,0:0:0:0:
253,210,11850,1,8,0:0:0:0:
253,210,12150,1,8,0:0:0:0:
253,210,12300,1,0,0:0:0:0:
253,210,12450,1,0,0:0:0:0:
253,210,12525,1,0,0:0:0:0:
253,210,12600,1,8,0:0:0:0:
253,210,12750,1,0,0:0:0:0:
253,210,12900,1,8,0:0:0:0:
253,210,12975,1,8,0:0:0:0:
253,210,13050,1,0,0:0:0:0:
253,210,13200,1,8,0:0:0:0:
253,210,13350,1,0,0:0:0:0:
253,210,13500,1,0,0:0:0:0:
253,210,13650,1,8,0:0:0:0:
253,210,13800,1,0,0:0:0:0:
253,210,13950,1,0,0:0:0:0:
253,210,14025,1,0,0:0:0:0:
253,210,14100,1,8,0:0:0:0:
241,179,14175,1,8,0:0:0:0:
253,210,14250,1,0,0:0:0:0:
253,210,14550,1,0,0:0:0:0:
253,210,14700,1,0,0:0:0:0:
253,210,14775,1,0,0:0:0:0:
253,210,14850,1,8,0:0:0:0:
253,210,15000,1,0,0:0:0:0:
253,210,15150,1,8,0:0:0:0:
253,210,15225,1,8,0:0:0:0:
253,210,15300,1,8,0:0:0:0:
278,219,15450,1,0,0:0:0:0:
278,219,15600,1,8,0:0:0:0:
278,219,15750,1,8,0:0:0:0:
264,216,15900,1,0,0:0:0:0:
264,216,15975,1,0,0:0:0:0:
264,216,16050,1,8,0:0:0:0:
264,216,16200,1,8,0:0:0:0:
264,216,16275,1,8,0:0:0:0:
264,216,16350,1,0,0:0:0:0:
264,216,16425,1,0,0:0:0:0:
264,216,16500,1,0,0:0:0:0:
264,216,16650,1,8,0:0:0:0:
264,216,16950,1,8,0:0:0:0:
264,216,17100,1,0,0:0:0:0:
264,216,17250,1,8,0:0:0:0:
264,216,17400,1,0,0:0:0:0:
264,216,17475,1,8,0:0:0:0:
264,216,17550,1,8,0:0:0:0:
260,219,17625,1,8,0:0:0:0:
264,216,17700,1,0,0:0:0:0:
260,211,17850,1,8,0:0:0:0:
264,216,18000,1,0,0:0:0:0:
264,216,18075,1,0,0:0:0:0:
264,216,18150,1,8,0:0:0:0:
260,221,18300,1,0,0:0:0:0:
260,221,18450,1,0,0:0:0:0:
260,221,18600,1,8,0:0:0:0:
260,221,18750,1,0,0:0:0:0:
260,221,18825,1,0,0:0:0:0:
260,221,18900,1,8,0:0:0:0:
260,221,19050,1,0,0:0:0:0:
260,221,19350,1,0,0:0:0:0:
260,221,19500,1,0,0:0:0:0:
260,221,19650,1,0,0:0:0:0:
260,221,19950,1,8,0:0:0:0:
260,221,20250,1,0,0:0:0:0:
260,221,20550,1,8,0:0:0:0:
260,221,20850,1,0,0:0:0:0:
260,221,21150,1,8,0:0:0:0:
257,227,21450,1,0,0:0:0:0:
257,227,21750,1,8,0:0:0:0:
257,227,21900,1,8,0:0:0:0:
257,227,22050,1,0,0:0:0:0:
241,216,22350,1,8,0:0:0:0:
241,216,22650,1,0,0:0:0:0:
241,216,22950,1,0,0:0:0:0:
241,216,23250,1,0,0:0:0:0:
241,216,23550,1,8,0:0:0:0:
241,216,23700,1,8,0:0:0:0:
244,205,23850,1,0,0:0:0:0:
241,216,24150,1,8,0:0:0:0:
241,216,24300,1,0,0:0:0:0:
241,216,24450,1,8,0:0:0:0:
241,216,24750,1,0,0:0:0:0:
241,216,25050,1,8,0:0:0:0:
241,216,25350,1,0,0:0:0:0:
241,216,25650,1,8,0:0:0:0:
241,216,25950,1,8,0:0:0:0:
241,216,26250,1,8,0:0:0:0:
241,216,26550,1,0,0:0:0:0:
241,216,26700,1,0,0:0:0:0:
241,216,26850,1,8,0:0:0:0:
233,209,27150,1,0,0:0:0:0:
233,209,27450,1,8,0:0:0:0:
233,209,27750,1,0,0:0:0:0:
233,209,28050,1,8,0:0:0:0:
233,209,28200,1,0,0:0:0:0:
233,209,28350,1,0,0:0:0:0:
233,209,28500,1,0,0:0:0:0:
233,209,28800,1,0,0:0:0:0:
233,209,28950,1,12,0:0:0:0:
249,196,29100,1,0,0:0:0:0:
249,196,29175,1,0,0:0:0:0:
249,196,29250,1,8,0:0:0:0:
249,196,29400,1,0,0:0:0:0:
249,196,29550,1,8,0:0:0:0:
249,196,29625,1,8,0:0:0:0:
249,196,29700,1,0,0:0:0:0:
249,196,29850,1,0,0:0:0:0:
249,196,30000,1,0,0:0:0:0:
249,196,30150,1,8,0:0:0:0:
246,200,30300,1,0,0:0:0:0:
246,200,30450,1,0,0:0:0:0:
246,200,30525,1,0,0:0:0:0:
246,200,30600,1,8,0:0:0:0:
246,200,30675,1,8,0:0:0:0:
246,200,30750,1,0,0:0:0:0:
246,200,30900,1,8,0:0:0:0:
246,200,31050,1,8,0:0:0:0:
246,200,31275,1,8,0:0:0:0:
246,200,31350,1,0,0:0:0:0:
246,200,31500,1,0,0:0:0:0:
246,200,31650,1,8,0:0:0:0:
246,200,31800,1,0,0:0:0:0:
246,200,31950,1,8,0:0:0:0:
246,200,32025,1,8,0:0:0:0:
246,200,32100,1,0,0:0:0:0:
246,200,32250,1,8,0:0:0:0:
246,200,32400,1,8,0:0:0:0:
246,200,32550,1,0,0:0:0:0:
246,200,32625,1,0,0:0:0:0:
246,200,32700,1,8,0:0:0:0:
246,200,32850,1,8,0:0:0:0:
246,200,33000,1,0,0:0:0:0:
246,200,33075,1,8,0:0:0:0:
246,200,33225,1,8,0:0:0:0:
246,200,33300,1,0,0:0:0:0:
246,200,33450,1,8,0:0:0:0:
246,200,33750,1,8,0:0:0:0:
254,190,33900,1,0,0:0:0:0:
254,190,33975,1,0,0:0:0:0:
254,190,34050,1,8,0:0:0:0:
263,185,34200,1,8,0:0:0:0:
263,185,34350,1,0,0:0:0:0:
263,185,34425,1,8,0:0:0:0:
263,185,34500,1,8,0:0:0:0:
263,185,34650,1,0,0:0:0:0:
263,185,34950,1,8,0:0:0:0:
263,185,35100,1,0,0:0:0:0:
263,185,35250,1,8,0:0:0:0:
263,185,35400,1,0,0:0:0:0:
263,185,35475,1,0,0:0:0:0:
263,185,35550,1,8,0:0:0:0:
263,185,35700,1,8,0:0:0:0:
263,185,35850,1,0,0:0:0:0:
256,160,35925,1,8,0:0:0:0:
256,160,36000,1,8,0:0:0:0:
263,185,36150,1,0,0:0:0:0:
263,185,36300,1,8,0:0:0:0:
263,185,36375,1,8,0:0:0:0:
263,185,36450,1,8,0:0:0:0:
256,187,36600,1,0,0:0:0:0:
256,187,36750,1,8,0:0:0:0:
256,187,36825,1,8,0:0:0:0:
252,187,36900,1,0,0:0:0:0:
255,189,37050,1,8,0:0:0:0:
251,183,37350,1,8,0:0:0:0:
251,183,37500,1,0,0:0:0:0:
249,183,37650,1,8,0:0:0:0:
249,183,37800,1,0,0:0:0:0:
252,187,37875,1,8,0:0:0:0:
249,183,38025,1,0,0:0:0:0:
251,183,38100,1,0,0:0:0:0:
251,183,38250,1,0,0:0:0:0:
245,183,38325,1,8,0:0:0:0:
244,182,38400,1,8,0:0:0:0:
244,182,38550,1,4,0:0:0:0:
267,187,38700,1,0,0:0:0:0:
267,187,38775,1,0,0:0:0:0:
266,187,38850,1,8,0:0:0:0:
262,183,39000,1,0,0:0:0:0:
266,187,39075,1,8,0:0:0:0:
262,183,39225,1,0,0:0:0:0:
266,187,39300,1,0,0:0:0:0:
266,187,39450,1,8,0:0:0:0:
267,187,39675,1,8,0:0:0:0:
267,187,39750,1,0,0:0:0:0:
266,187,39900,1,0,0:0:0:0:
278,179,40050,1,8,0:0:0:0:
278,179,40125,1,8,0:0:0:0:
278,179,40200,1,8,0:0:0:0:
270,182,40275,1,8,0:0:0:0:
266,187,40350,1,0,0:0:0:0:
266,187,40425,1,0,0:0:0:0:
266,187,40500,1,0,0:0:0:0:
275,194,40650,1,8,0:0:0:0:
271,186,40950,1,0,0:0:0:0:
262,175,41100,1,0,0:0:0:0:
268,175,41250,1,8,0:0:0:0:
268,175,41325,1,0,0:0:0:0:
268,175,41475,1,8,0:0:0:0:
268,175,41550,1,0,0:0:0:0:
268,175,41775,1,0,0:0:0:0:
268,175,41850,1,8,0:0:0:0:
268,175,42000,1,8,0:0:0:0:
255,173,42150,1,0,0:0:0:0:
256,172,42300,1,8,0:0:0:0:
257,171,42450,1,0,0:0:0:0:
257,171,42525,1,0,0:0:0:0:
257,171,42675,1,8,0:0:0:0:
257,171,42750,1,0,0:0:0:0:
257,171,42825,1,8,0:0:0:0:
257,171,42900,1,0,0:0:0:0:
255,173,43050,1,0,0:0:0:0:
255,173,43200,1,8,0:0:0:0:
256,172,43275,1,8,0:0:0:0:
257,171,43350,1,0,0:0:0:0:
257,171,43650,1,8,0:0:0:0:
242,161,43800,1,0,0:0:0:0:
242,161,43875,1,0,0:0:0:0:
242,161,43950,1,0,0:0:0:0:
242,161,44100,1,0,0:0:0:0:
256,172,44250,1,8,0:0:0:0:
257,171,44325,1,8,0:0:0:0:
256,172,44400,1,8,0:0:0:0:
256,172,44475,1,8,0:0:0:0:
256,172,44550,1,0,0:0:0:0:
242,161,44850,1,8,0:0:0:0:
240,154,45000,1,0,0:0:0:0:
240,154,45075,1,8,0:0:0:0:
240,154,45225,1,0,0:0:0:0:
240,154,45300,1,8,0:0:0:0:
240,154,45450,1,0,0:0:0:0:
240,154,45525,1,8,0:0:0:0:
240,154,45600,1,8,0:0:0:0:
240,154,45750,1,0,0:0:0:0:
240,154,45900,1,0,0:0:0:0:
240,154,45975,1,0,0:0:0:0:
240,154,46050,1,8,0:0:0:0:
240,154,46200,1,0,0:0:0:0:
240,154,46275,1,8,0:0:0:0:
240,154,46500,1,0,0:0:0:0:
240,154,46650,1,8,0:0:0:0:
240,154,46875,1,8,0:0:0:0:
240,154,46950,1,0,0:0:0:0:
264,128,47250,1,0,0:0:0:0:
241,148,47400,1,0,0:0:0:0:
241,148,47475,1,8,0:0:0:0:
241,148,47625,1,0,0:0:0:0:
240,148,47700,1,8,0:0:0:0:
240,148,47850,1,0,0:0:0:0:
240,148,47925,1,8,0:0:0:0:
240,148,48000,1,8,0:0:0:0:
251,189,48150,1,0,0:0:0:0:
236,192,48300,1,0,0:0:0:0:
236,192,48450,1,8,0:0:0:0:
236,192,48600,1,8,0:0:0:0:
236,192,48750,1,0,0:0:0:0:
236,192,48825,1,0,0:0:0:0:
236,192,48900,1,0,0:0:0:0:
236,192,49050,1,8,0:0:0:0:
236,192,49125,1,8,0:0:0:0:
236,192,49350,1,8,0:0:0:0:
236,192,49425,1,8,0:0:0:0:
227,168,49500,1,0,0:0:0:0:
227,169,49650,1,8,0:0:0:0:
224,176,49800,1,8,0:0:0:0:
224,177,49875,1,8,0:0:0:0:
224,177,49950,1,8,0:0:0:0:
224,177,50025,1,8,0:0:0:0:
224,177,50100,1,0,0:0:0:0:
224,177,50250,1,8,0:0:0:0:
224,177,50550,1,0,0:0:0:0:
224,176,50700,1,8,0:0:0:0:
224,176,50850,1,0,0:0:0:0:
224,177,51000,1,8,0:0:0:0:
224,177,51150,1,0,0:0:0:0:
224,177,51300,1,8,0:0:0:0:
224,177,51450,1,0,0:0:0:0:
224,176,51600,1,8,0:0:0:0:
224,176,51750,1,0,0:0:0:0:
224,176,51825,1,8,0:0:0:0:
224,176,51900,1,0,0:0:0:0:
224,177,52050,1,8,0:0:0:0:
224,177,52125,1,0,0:0:0:0:
224,177,52200,1,8,0:0:0:0:
224,177,52275,1,0,0:0:0:0:
224,177,52350,1,8,0:0:0:0:
224,176,52650,1,8,0:0:0:0:
224,176,52800,1,8,0:0:0:0:
224,176,52875,1,8,0:0:0:0:
213,185,52950,1,0,0:0:0:0:
213,185,53100,1,0,0:0:0:0:
213,185,53250,1,0,0:0:0:0:
236,160,53550,1,8,0:0:0:0:
236,160,53850,1,8,0:0:0:0:
236,160,54150,1,0,0:0:0:0:
236,160,54450,1,0,0:0:0:0:
236,160,54750,1,8,0:0:0:0:
236,160,55050,1,0,0:0:0:0:
212,184,55350,1,8,0:0:0:0:
212,184,55500,1,0,0:0:0:0:
212,184,55650,1,0,0:0:0:0:
220,132,55950,1,8,0:0:0:0:
220,132,56250,1,0,0:0:0:0:
212,184,56550,1,12,0:0:0:0:
226,196,56700,1,0,0:0:0:0:
226,196,56775,1,0,0:0:0:0:
224,194,56850,1,8,0:0:0:0:
224,194,57000,1,0,0:0:0:0:
224,194,57150,1,8,0:0:0:0:
224,194,57225,1,8,0:0:0:0:
224,194,57300,1,0,0:0:0:0:
230,188,57450,1,8,0:0:0:0:
230,188,57600,1,8,0:0:0:0:
230,188,57675,1,0,0:0:0:0:
