osu file format v14

[General]
AudioFilename: audio.mp3
AudioLeadIn: 0
PreviewTime: 183420
Countdown: 0
SampleSet: Soft
StackLeniency: 0.7
Mode: 0
LetterboxInBreaks: 0
WidescreenStoryboard: 0

[Editor]
DistanceSpacing: 1.5
BeatDivisor: 4
GridSize: 8
TimelineZoom: 2.1

[Metadata]
Title:Shirayuki
TitleUnicode:白ゆき
Artist:620
ArtistUnicode:620
Creator:hot anime girl
Version:White Snow
Source:
Tags:260 206 shriayuki shiraykui snow white hatsune miku utaite
BeatmapID:1615486
BeatmapSetID:768163

[Difficulty]
HPDrainRate:6
CircleSize:4
OverallDifficulty:9
ApproachRate:9.5
SliderMultiplier:1.55
SliderTickRate:1

[Events]
//Background and Video events
0,0,"Hakuyukibgg.png",0,0
//Break Periods
//Storyboard Layer 0 (Background)
//Storyboard Layer 1 (Fail)
//Storyboard Layer 2 (Pass)
//Storyboard Layer 3 (Foreground)
//Storyboard Sound Samples

[TimingPoints]
11411,285.714285714286,4,2,1,70,1,0
20410,-142.857142857143,4,2,1,70,0,0
20839,-111.111111111111,4,2,1,70,0,0
21553,-142.857142857143,4,2,1,70,0,0
21981,-111.111111111111,4,2,1,70,0,0
22410,-125,4,2,1,70,0,0
22625,-125,4,2,1,5,0,0
22696,-142.857142857143,4,2,1,70,0,0
23124,-111.111111111111,4,2,1,70,0,0
23839,-142.857142857143,4,2,1,70,0,0
24267,-111.111111111111,4,2,1,70,0,0
24981,-142.857142857143,4,2,1,70,0,0
25410,-111.111111111111,4,2,1,70,0,0
26124,-142.857142857143,4,2,1,70,0,0
26553,-111.111111111111,4,2,1,70,0,0
26981,-125,4,2,1,70,0,0
27196,-125,4,2,1,5,0,0
27267,-142.857142857143,4,2,1,70,0,0
27696,-111.111111111111,4,2,1,70,0,0
28410,-142.857142857143,4,2,1,70,0,0
28839,-111.111111111111,4,2,1,70,0,0
29267,-125,4,2,1,70,0,0
29482,-125,4,2,1,5,0,0
29553,-142.857142857143,4,2,1,70,0,0
29981,-111.111111111111,4,2,1,70,0,0
30696,-142.857142857143,4,2,1,70,0,0
31124,-111.111111111111,4,2,1,70,0,0
31553,-125,4,2,1,70,0,0
31768,-125,4,2,1,5,0,0
31839,-142.857142857143,4,2,1,70,0,0
32267,-111.111111111111,4,2,1,70,0,0
32981,-142.857142857143,4,2,1,70,0,0
33410,-111.111111111111,4,2,1,70,0,0
34124,-142.857142857143,4,2,1,70,0,0
34553,-111.111111111111,4,2,1,70,0,0
35267,-142.857142857143,4,2,1,70,0,0
35696,-111.111111111111,4,2,1,70,0,0
36124,-125,4,2,1,70,0,0
36339,-125,4,2,1,5,0,0
36410,-142.857142857143,4,2,1,70,0,0
36839,-111.111111111111,4,2,1,70,0,0
37553,-142.857142857143,4,2,1,70,0,0
37981,-111.111111111111,4,2,1,70,0,0
38696,-125,4,2,1,50,0,0
38910,-125,4,2,1,5,0,0
38982,-125,4,2,1,50,0,0
41196,-125,4,2,1,5,0,0
41268,-125,4,2,1,50,0,0
42124,-200,4,2,1,50,0,0
42553,-125,4,2,1,50,0,0
43482,-200,4,2,1,5,0,0
43553,-125,4,2,1,70,0,0
45553,-125,4,2,1,70,0,0
47839,-125,4,2,1,50,0,0
48053,-200,4,2,1,5,0,0
48125,-125,4,2,1,50,0,0
50339,-200,4,2,1,5,0,0
50410,-125,4,2,1,50,0,0
51267,-166.666666666667,4,2,1,50,0,0
51696,-125,4,2,1,50,0,0
52625,-200,4,2,1,5,0,0
52696,-125,4,2,1,50,0,0
57124,-166.666666666667,4,2,1,40,0,0
58839,-142.857142857143,4,2,1,40,0,0
63839,-166.666666666667,4,2,1,40,0,0
64981,-142.857142857143,4,2,1,40,0,0
73124,-166.666666666667,4,2,1,40,0,0
74339,-200,4,2,1,5,0,0
74410,-166.666666666667,4,2,1,40,0,0
74839,-166.666666666667,4,2,1,30,0,0
75410,-90.909090909091,4,2,1,80,0,0
75625,-200,4,2,1,5,0,0
75696,-90.909090909091,4,2,1,80,0,0
75910,-200,4,2,1,5,0,0
75982,-90.909090909091,4,2,1,80,0,0
76196,-200,4,2,1,5,0,0
76268,-90.909090909091,4,2,1,80,0,0
78267,-111.111111111111,4,2,1,80,0,0
78696,-90.9090909090908,4,2,1,80,0,0
78910,-200,4,2,1,5,0,0
78982,-90.9090909090908,4,2,1,80,0,0
79981,-111.111111111111,4,2,1,80,0,0
82696,-90.9090909090909,4,2,1,80,0,0
82910,-200,4,2,1,5,0,0
82982,-90.9090909090909,4,2,1,80,0,0
83267,-76.9230769230769,4,2,1,80,0,0
83696,-166.666666666667,4,2,1,60,0,0
84553,-90.909090909091,4,2,1,80,0,0
85124,-142.857142857143,4,2,1,80,0,0
85339,-200,4,2,1,5,0,0
85410,-142.857142857143,4,2,1,80,0,0
85696,-90.909090909091,4,2,1,80,0,0
87410,-111.111111111111,4,2,1,80,0,0
87839,-90.9090909090909,4,2,1,80,0,0
88053,-200,4,2,1,5,0,0
88125,-90.9090909090909,4,2,1,80,0,0
89124,-111.111111111111,4,2,1,80,0,0
91268,-111.111111111111,4,2,1,50,0,0
92124,-90.9090909090909,4,2,1,50,0,0
92410,-111.111111111111,4,2,1,50,0,0
93267,-76.9230769230769,4,2,1,60,0,0
93553,-76.9230769230769,4,2,1,80,0,0
102267,-100,4,2,1,80,0,0
102839,-200,4,2,1,60,0,0
104410,-90.9090909090909,4,2,1,60,0,0
104981,-125,4,2,1,50,0,0
107482,-200,4,2,1,5,0,0
107553,-125,4,2,1,50,0,0
108409,-200,4,2,1,50,0,0
108838,-125,4,2,1,50,0,0
109768,-200,4,2,1,5,0,0
109839,-125,4,2,1,50,0,0
111839,-125,4,2,1,70,0,0
114125,-125,4,2,1,50,0,0
114339,-200,4,2,1,5,0,0
114410,-125,4,2,1,50,0,0
116625,-200,4,2,1,5,0,0
116696,-125,4,2,1,50,0,0
117552,-166.666666666667,4,2,1,50,0,0
117981,-125,4,2,1,50,0,0
118910,-200,4,2,1,5,0,0
118982,-125,4,2,1,50,0,0
123267,-200,4,2,1,60,0,0
123410,-200,4,2,1,40,0,0
125696,-111.111111111111,4,2,1,60,0,0
126839,-76.9230769230769,4,2,1,60,0,0
127124,-142.857142857143,4,2,1,60,0,0
127696,-111.111111111111,4,2,1,60,0,0
127910,-200,4,2,1,5,0,0
127982,-166.666666666667,4,2,1,40,0,0
129697,-142.857142857143,4,2,1,40,0,0
134697,-166.666666666667,4,2,1,40,0,0
135839,-142.857142857143,4,2,1,40,0,0
140625,-200,4,2,1,5,0,0
140696,-142.857142857143,4,2,1,40,0,0
141625,-200,4,2,1,5,0,0
141696,-142.857142857143,4,2,1,40,0,0
143982,-166.666666666667,4,2,1,40,0,0
145196,-200,4,2,1,5,0,0
145268,-166.666666666667,4,2,1,40,0,0
145696,-166.666666666667,4,2,1,30,0,0
146268,-90.909090909091,4,2,1,80,0,0
146482,-200,4,2,1,5,0,0
146553,-90.909090909091,4,2,1,80,0,0
146768,-200,4,2,1,5,0,0
146839,-90.909090909091,4,2,1,80,0,0
147053,-200,4,2,1,5,0,0
147125,-90.909090909091,4,2,1,80,0,0
149125,-111.111111111111,4,2,1,80,0,0
149553,-90.9090909090909,4,2,1,80,0,0
149768,-200,4,2,1,5,0,0
149839,-90.9090909090909,4,2,1,80,0,0
150839,-111.111111111111,4,2,1,80,0,0
151910,-200,4,2,1,5,0,0
151982,-111.111111111111,4,2,1,80,0,0
152768,-200,4,2,1,5,0,0
152839,-111.111111111111,4,2,1,80,0,0
153768,-200,4,2,1,5,0,0
153839,-111.111111111111,4,2,1,80,0,0
154125,-76.9230769230769,4,2,1,80,0,0
154553,-166.666666666667,4,2,1,60,0,0
155410,-90.909090909091,4,2,1,80,0,0
156196,-200,4,2,1,5,0,0
156268,-90.909090909091,4,2,1,80,0,0
157768,-200,4,2,1,5,0,0
157839,-90.909090909091,4,2,1,80,0,0
158410,-76.9230769230769,4,2,1,80,0,0
158696,-90.9090909090909,4,2,1,80,0,0
158910,-200,4,2,1,5,0,0
158982,-90.9090909090909,4,2,1,80,0,0
159982,-111.111111111111,4,2,1,80,0,0
162125,-111.111111111111,4,2,1,50,0,0
164125,-142.857142857143,4,2,1,50,0,0
164339,-200,4,2,1,5,0,0
164410,-200,4,2,1,80,0,0
166553,-142.857142857143,4,2,1,80,0,0
166768,-200,4,2,1,5,0,0
166839,-200,4,2,1,80,0,0
171410,-90.9090909090909,4,2,1,80,0,0
173696,-76.9230769230769,4,2,1,80,0,0
173910,-200,4,2,1,5,0,0
173982,-76.9230769230769,4,2,1,80,0,0
175696,-111.111111111111,4,2,1,80,0,0
175910,-200,4,2,1,5,0,0
175982,-111.111111111111,4,2,1,80,0,0
176982,-142.857142857143,4,2,1,80,0,0
178125,-166.666666666667,4,2,1,50,0,0
185125,-111.111111111111,4,2,1,60,0,0
189125,-142.857142857143,4,2,1,60,0,0
189696,-111.111111111111,4,2,1,60,0,0
194268,-200,4,2,1,40,0,0
196553,-166.666666666667,4,2,1,40,0,0
198839,-166.666666666667,4,2,1,40,0,0
201125,-200,4,2,1,40,0,0
204268,-200,4,2,1,5,0,0
204553,-90.9090909090909,4,2,1,70,0,0
205553,-90.9090909090909,4,2,1,40,0,0
205982,-90.9090909090909,4,2,1,80,0,0
206696,-66.6666666666667,4,2,1,80,0,0
206910,-200,4,2,1,5,0,0
206982,-66.6666666666667,4,2,1,80,0,0
207982,-76.9230769230769,4,2,1,80,0,0
209410,-90.9090909090909,4,2,1,80,0,0
210696,-76.9230769230769,4,2,1,80,0,0
210910,-200,4,2,1,5,0,0
210982,-76.9230769230769,4,2,1,80,0,0
211696,-111.111111111111,4,2,1,60,0,0
212553,-66.6666666666667,4,2,1,80,0,0
213410,-90.9090909090909,4,2,1,80,0,0
213625,-200,4,2,1,5,0,0
213696,-76.9230769230769,4,2,1,80,0,0
215410,-111.111111111111,4,2,1,80,0,0
215839,-76.9230769230769,4,2,1,80,0,0
216053,-200,4,2,1,5,0,0
216125,-76.9230769230769,4,2,1,80,0,0
217125,-90.9090909090909,4,2,1,80,0,0
220410,-66.6666666666667,4,2,1,80,0,0
220625,-200,4,2,1,5,0,0
220696,-66.6666666666667,4,2,1,80,0,0
220839,-76.9230769230769,4,2,1,80,0,0
221696,-90.9090909090909,4,2,1,80,0,0
222410,-111.111111111111,4,2,1,80,0,0
222839,-90.9090909090909,4,2,1,80,0,0
223839,-90.9090909090909,4,2,1,50,0,0
225839,-111.111111111111,4,2,1,60,0,0
226053,-200,4,2,1,5,0,0
226125,-166.666666666666,4,2,1,80,0,0
228553,-66.6666666666667,4,2,1,80,0,0
229768,-200,4,2,1,5,0,0
229839,-66.6666666666667,4,2,1,80,0,0
230410,-90.9090909090909,4,2,1,80,0,0
230696,-111.111111111111,4,2,1,80,0,0
233268,-76.9230769230769,4,2,1,80,0,0
233839,-111.111111111111,4,2,1,80,0,0
234053,-200,4,2,1,5,0,0
234125,-76.9230769230769,4,2,1,60,0,0
234339,-200,4,2,1,5,0,0
234410,-76.9230769230769,4,2,1,60,0,0
234982,-90.9090909090909,4,2,1,70,0,0
235268,-111.111111111111,4,2,1,80,0,0
243268,-111.111111111111,4,2,1,60,0,0
244410,-142.857142857143,4,2,1,70,0,0
244839,-111.111111111111,4,2,1,70,0,0
246410,-142.857142857143,4,2,1,70,0,0
246625,-200,4,2,1,5,0,0
246696,-111.111111111111,4,2,1,70,0,0
249410,-90.9090909090908,4,2,1,70,0,0
249696,-111.111111111111,4,2,1,70,0,0
250339,-200,4,2,1,5,0,0
250410,-111.111111111111,4,2,1,70,0,0
251982,-50,4,2,1,70,0,0
252363,-55.5555555555556,4,2,1,70,0,0
253553,-142.857142857143,4,2,1,40,0,0
261125,-142.857142857143,4,2,1,50,0,0
261410,-142.857142857143,4,2,1,60,0,0
261696,-90.9090909090909,4,2,1,70,0,0
262696,-90.9090909090909,4,2,1,50,0,0
263125,-90.9090909090909,4,2,1,80,0,0
263839,-66.6666666666667,4,2,1,80,0,0
264053,-200,4,2,1,5,0,0
264125,-66.6666666666667,4,2,1,80,0,0
265125,-76.9230769230769,4,2,1,80,0,0
266553,-90.9090909090909,4,2,1,80,0,0
267839,-76.9230769230769,4,2,1,80,0,0
268053,-200,4,2,1,5,0,0
268125,-76.9230769230769,4,2,1,80,0,0
268839,-111.111111111111,4,2,1,60,0,0
269696,-66.6666666666667,4,2,1,80,0,0
270553,-90.9090909090909,4,2,1,80,0,0
270768,-200,4,2,1,5,0,0
270839,-76.9230769230769,4,2,1,80,0,0
272553,-111.111111111111,4,2,1,80,0,0
272982,-76.9230769230769,4,2,1,80,0,0
273196,-200,4,2,1,5,0,0
273268,-76.9230769230769,4,2,1,80,0,0
274268,-90.9090909090909,4,2,1,80,0,0
277553,-66.6666666666667,4,2,1,80,0,0
277768,-200,4,2,1,5,0,0
277839,-66.6666666666667,4,2,1,80,0,0
277982,-76.9230769230769,4,2,1,80,0,0
278839,-90.9090909090909,4,2,1,80,0,0
279553,-111.111111111111,4,2,1,80,0,0
279982,-90.9090909090909,4,2,1,80,0,0
280982,-90.9090909090909,4,2,1,50,0,0
282982,-111.111111111111,4,2,1,60,0,0
283196,-200,4,2,1,5,0,0
283268,-166.666666666666,4,2,1,80,0,0
285696,-66.6666666666667,4,2,1,80,0,0
286910,-200,4,2,1,5,0,0
286982,-66.6666666666667,4,2,1,80,0,0
287553,-90.9090909090909,4,2,1,80,0,0
287839,-111.111111111111,4,2,1,80,0,0
290411,-76.9230769230769,4,2,1,80,0,0
290982,-111.111111111111,4,2,1,80,0,0
291196,-200,4,2,1,5,0,0
291268,-76.9230769230769,4,2,1,60,0,0
291482,-200,4,2,1,5,0,0
291553,-76.9230769230769,4,2,1,60,0,0
292125,-90.9090909090909,4,2,1,70,0,0
292411,-111.111111111111,4,2,1,80,0,0
300410,-111.111111111111,4,2,1,60,0,0
301553,-142.857142857143,4,2,1,70,0,0
301982,-111.111111111111,4,2,1,70,0,0
303553,-142.857142857143,4,2,1,70,0,0
303768,-200,4,2,1,5,0,0
303839,-111.111111111111,4,2,1,70,0,0
306553,-90.9090909090908,4,2,1,70,0,0
306839,-111.111111111111,4,2,1,70,0,0
307482,-200,4,2,1,5,0,0
307553,-111.111111111111,4,2,1,70,0,0
309125,-50,4,2,1,70,0,0
309506,-55.5555555555556,4,2,1,70,0,0
310696,-142.857142857143,4,2,2,40,0,0
318268,-200,4,2,1,40,0,0
319125,-200,4,2,1,5,0,0

[Colours]
Combo1 : 255,197,168
Combo2 : 128,128,128
Combo3 : 255,168,168
Combo4 : 211,211,211

[HitObjects]
73,83,11411,5,0,1:2:0:0:
73,83,11982,1,0,1:2:0:0:
209,155,12553,21,0,1:2:0:0:
209,155,13125,1,0,1:2:0:0:
353,105,13696,21,0,1:2:0:0:
353,105,14268,1,0,1:2:0:0:
353,105,14839,1,0,1:2:0:0:
353,105,15411,1,0,1:2:0:0:
448,275,15982,21,0,1:2:0:0:
448,275,16553,1,0,1:2:0:0:
312,203,17125,21,0,1:2:0:0:
312,203,17696,1,0,1:2:0:0:
168,253,18268,21,0,1:2:0:0:
168,253,18839,1,0,1:2:0:0:
168,253,19411,1,0,1:2:0:0:
168,253,20411,38,0,P|221:237|295:247,1,108.499996688843,6|0,1:2|0:0,0:0:0:0:
398,116,20839,2,0,L|319:121,1,69.749997871399,10|0,0:0|0:0,0:0:0:0:
205,134,21125,1,2,1:2:0:0:
401,321,21268,2,0,P|403:270|424:212,1,69.749997871399,2|8,1:2|0:0,0:0:0:0:
192,384,21553,6,0,P|177:325|135:254,1,108.499996688843,6|0,1:2|0:0,0:0:0:0:
18,174,21982,2,0,P|58:180|110:177,1,69.749997871399,10|0,0:0|0:0,0:0:0:0:
188,104,22268,1,2,1:2:0:0:
279,279,22411,2,0,L|291:163,1,93,10|0,0:0|0:0,0:0:0:0:
275,157,22696,6,0,L|408:176,1,108.499996688843,6|0,1:2|0:0,0:0:0:0:
512,58,23125,2,0,L|433:61,1,69.749997871399,10|0,0:0|0:0,0:0:0:0:
316,70,23411,1,2,1:2:0:0:
510,191,23553,2,0,L|500:288,1,69.749997871399,2|8,1:2|0:0,0:0:0:0:
312,346,23839,6,0,P|303:292|280:231,1,108.499996688843,6|0,1:2|0:0,0:0:0:0:
179,193,24268,2,0,P|140:200|92:197,1,69.749997871399,10|0,0:0|0:0,0:0:0:0:
17,173,24553,1,10,0:0:0:0:
130,298,24696,1,0,1:2:0:0:
197,98,24839,1,10,0:0:0:0:
391,237,24982,6,0,P|337:230|268:249,1,108.499996688843,6|0,1:2|0:0,0:0:0:0:
105,216,25411,2,0,P|144:207|186:191,1,69.749997871399,10|0,0:0|0:0,0:0:0:0:
223,115,25696,1,2,0:0:0:0:
292,329,25839,2,0,P|294:288|305:246,1,69.749997871399,2|8,0:0|0:0,0:0:0:0:
474,144,26125,6,0,P|421:156|357:151,1,108.499996688843,6|0,1:2|0:0,0:0:0:0:
158,96,26553,2,0,L|245:86,1,69.749997871399,10|0,0:0|0:0,0:0:0:0:
322,72,26839,1,2,0:0:0:0:
190,245,26982,2,0,L|85:225,1,93,10|0,0:0|0:0,0:0:0:0:
79,202,27268,6,0,L|91:329,1,108.499996688843,6|0,1:2|0:0,0:0:0:0:
267,384,27696,2,0,L|277:309,1,69.749997871399,10|0,0:0|0:0,0:0:0:0:
294,211,27982,1,2,0:0:0:0:
457,332,28125,2,0,P|417:331|364:346,1,69.749997871399,2|8,0:0|0:0,0:0:0:0:
230,115,28411,6,0,P|284:121|357:112,1,108.499996688843,2|0,1:2|0:0,0:0:0:0:
463,43,28839,2,0,L|455:131,1,69.749997871399,10|0,0:0|0:0,0:0:0:0:
443,225,29125,1,2,0:0:0:0:
245,90,29268,2,0,L|260:197,1,93,10|0,0:0|0:0,0:0:0:0:
277,212,29553,6,0,P|221:202|159:211,1,108.499996688843,6|0,1:2|0:0,0:0:0:0:
25,60,29982,2,0,L|104:65,1,69.749997871399,10|0,0:0|0:0,0:0:0:0:
218,78,30268,1,2,0:0:0:0:
56,286,30411,2,0,P|54:235|33:177,1,69.749997871399,2|8,0:0|0:0,0:0:0:0:
254,384,30696,6,0,P|269:325|311:254,1,108.499996688843,6|0,1:2|0:0,0:0:0:0:
428,174,31125,2,0,P|388:180|336:177,1,69.749997871399,10|0,0:0|0:0,0:0:0:0:
258,104,31411,1,2,0:0:0:0:
167,279,31553,2,0,L|155:163,1,93,10|0,0:0|0:0,0:0:0:0:
172,160,31839,6,0,L|39:179,1,108.499996688843,6|0,1:2|0:0,0:0:0:0:
0,54,32268,2,0,L|79:57,1,69.749997871399,10|0,0:0|0:0,0:0:0:0:
174,60,32553,1,2,0:0:0:0:
44,198,32696,2,0,L|54:295,1,69.749997871399,2|8,0:0|0:0,0:0:0:0:
227,354,32982,6,0,P|236:300|259:239,1,108.499996688843,6|0,1:2|0:0,0:0:0:0:
350,204,33411,2,0,P|389:211|437:208,1,69.749997871399,10|0,0:0|0:0,0:0:0:0:
512,184,33696,1,10,0:0:0:0:
399,309,33839,1,0,1:2:0:0:
332,109,33982,1,10,0:0:0:0:
147,245,34125,6,0,P|201:238|270:257,1,108.499996688843,6|0,1:2|0:0,0:0:0:0:
429,229,34553,2,0,P|390:220|348:204,1,69.749997871399,10|0,0:0|0:0,0:0:0:0:
301,114,34839,1,2,0:0:0:0:
246,337,34982,2,0,P|244:296|233:254,1,69.749997871399,2|10,0:0|0:0,0:0:0:0:
36,157,35268,6,0,P|89:169|153:164,1,108.499996688843,6|0,1:2|0:0,0:0:0:0:
354,96,35696,2,0,L|267:86,1,69.749997871399,10|0,0:0|0:0,0:0:0:0:
190,77,35982,1,2,0:0:0:0:
264,249,36125,2,0,L|369:229,1,93,10|0,0:0|0:0,0:0:0:0:
385,214,36411,6,0,L|373:341,1,108.499996688843,6|0,1:2|0:0,0:0:0:0:
214,384,36839,2,0,L|204:309,1,69.749997871399,10|0,0:0|0:0,0:0:0:0:
187,197,37125,1,2,0:0:0:0:
31,334,37268,2,0,P|71:333|124:348,1,69.749997871399,2|8,0:0|0:0,0:0:0:0:
279,94,37553,6,0,P|225:100|152:91,1,108.499996688843,2|0,1:2|0:0,0:0:0:0:
62,25,37982,2,0,L|70:113,1,69.749997871399,10|0,0:0|0:0,0:0:0:0:
157,281,38268,2,0,P|159:234|171:188,2,69.749997871399,2|2|8,0:0|0:0|0:0,0:0:0:0:
384,142,38696,22,0,P|333:153|293:150,1,93,4|0,1:2|0:0,0:0:0:0:
266,132,38982,1,0,1:2:0:0:
181,0,39125,2,0,P|183:39|179:70,1,62,8|0,0:0|0:0,0:0:0:0:
52,185,39411,2,0,P|46:148|33:116,2,62,0|0|8,1:2|1:2|0:0,0:0:0:0:
0,341,39839,22,0,P|56:323|143:330,1,124,0|0,1:2|0:0,0:0:0:0:
208,367,40268,2,0,P|241:365|286:352,1,62,8|0,0:0|0:0,0:0:0:0:
345,270,40553,2,0,P|345:231|340:194,2,62,0|0|8,1:2|1:2|0:0,0:0:0:0:
452,362,40982,22,0,L|465:255,1,93,0|0,1:2|0:0,0:0:0:0:
482,249,41268,1,0,1:2:0:0:
312,107,41411,2,0,L|389:99,1,62,8|0,0:0|0:0,0:0:0:0:
168,247,41696,2,0,L|245:255,1,62,0|0,1:2|0:0,0:0:0:0:
244,248,41911,1,0,1:2:0:0:
258,243,41982,1,8,0:0:0:0:
201,57,42125,22,0,P|203:100|194:149,1,77.5,8|0,0:0|0:0,0:0:0:0:
100,173,42553,2,0,P|102:130|93:84,1,62,8|0,0:0|0:0,0:0:0:0:
258,243,42839,2,0,P|267:200|287:158,1,62,8|0,0:0|0:0,0:0:0:0:
149,275,43125,1,0,1:2:0:0:
425,105,43268,22,0,P|374:112|308:100,1,93,4|0,1:2|0:0,0:0:0:0:
309,87,43553,1,0,1:2:0:0:
186,197,43696,2,0,L|179:122,1,62,8|0,0:0|0:0,0:0:0:0:
41,61,43982,2,0,L|29:139,2,62,0|0|8,1:2|1:2|0:0,0:0:0:0:
0,273,44411,22,0,P|59:263|138:273,1,124,0|0,1:2|0:0,0:0:0:0:
283,150,44839,2,0,L|280:229,1,62,8|0,0:0|0:0,0:0:0:0:
266,125,45125,1,8,0:0:0:0:
331,295,45268,1,0,1:2:0:0:
331,295,45553,38,0,L|191:310,1,124,4|0,1:2|0:0,0:0:0:0:
403,227,45982,2,0,L|482:235,1,62,12|0,0:0|0:0,0:0:0:0:
268,190,46268,1,0,1:2:0:0:
462,109,46411,2,0,L|471:28,1,62,12|0,0:0|0:0,0:0:0:0:
324,0,46696,22,0,P|342:59|346:134,1,124,4|0,1:2|0:0,0:0:0:0:
251,215,47125,2,0,L|166:221,1,62,12|0,0:0|0:0,0:0:0:0:
374,276,47411,1,8,0:0:0:0:
255,365,47553,1,0,1:2:0:0:
251,343,47625,1,0,1:2:0:0:
253,321,47696,1,8,0:0:0:0:
49,336,47839,6,0,L|166:344,1,93,4|0,1:2|0:0,0:0:0:0:
165,363,48125,1,0,1:2:0:0:
83,177,48268,2,0,L|71:247,1,62,8|0,0:0|0:0,0:0:0:0:
203,107,48553,2,0,L|215:177,2,62,0|0|8,1:2|1:2|0:0,0:0:0:0:
315,257,48982,22,0,P|324:190|354:127,1,124,0|0,1:2|0:0,0:0:0:0:
291,23,49411,2,0,P|247:29|225:27,1,62,8|0,0:0|0:0,0:0:0:0:
124,85,49696,2,0,P|116:128|114:154,2,62,0|0|8,1:2|1:2|0:0,0:0:0:0:
40,240,50125,22,0,P|86:233|143:243,1,93,0|0,1:2|0:0,0:0:0:0:
156,261,50411,1,0,1:2:0:0:
322,167,50553,2,0,P|289:171|252:168,1,62,8|0,0:0|0:0,0:0:0:0:
162,146,50839,1,0,1:2:0:0:
272,349,50982,2,0,P|277:314|292:275,1,62,8|0,0:0|0:0,0:0:0:0:
483,238,51268,22,0,P|437:246|381:241,1,92.9999971618653,4|0,1:2|0:0,0:0:0:0:
342,146,51696,2,0,L|347:79,1,62,8|0,0:0|0:0,0:0:0:0:
200,217,51982,2,0,L|186:152,1,62,8|0,0:0|0:0,0:0:0:0:
289,272,52268,1,8,0:0:0:0:
155,42,52411,22,0,P|200:53|249:53,1,93,4|0,1:2|0:0,0:0:0:0:
272,35,52696,1,0,1:2:0:0:
340,180,52839,2,0,P|343:146|354:112,1,62,8|0,0:0|0:0,0:0:0:0:
471,58,53125,2,0,L|479:132,2,62,0|0|8,1:2|1:2|0:0,0:0:0:0:
512,259,53553,22,0,P|448:251|388:264,1,124,0|0,1:2|0:0,0:0:0:0:
276,315,53982,2,0,P|276:276|272:245,1,62,8|0,0:0|0:0,0:0:0:0:
159,153,54268,2,0,P|169:190|173:221,1,62,0|0,1:2|0:0,0:0:0:0:
132,304,54553,1,8,0:0:0:0:
281,102,54696,22,0,P|341:115|425:108,1,124,0|0,1:2|0:0,0:0:0:0:
493,258,55125,2,0,P|489:217|494:177,1,62,8|0,0:0|0:0,0:0:0:0:
390,341,55411,1,0,1:2:0:0:
303,208,55553,2,0,P|296:247|280:285,1,62,8|0,0:0|0:0,0:0:0:0:
252,112,55839,1,0,1:2:0:0:
199,350,55982,22,0,L|121:357,2,62,8|8|0,0:0|0:0|0:0,0:0:0:0:
32,155,56411,2,0,P|38:219|24:280,1,124,8|0,0:0|0:0,0:0:0:0:
161,88,56839,2,0,P|172:119|195:153,1,62,8|0,0:0|0:0,0:0:0:0:
168,282,57125,22,0,P|214:276|272:281,1,92.9999971618653,4|0,1:2|0:0,0:0:0:0:
396,312,57553,2,0,P|367:275|343:222,1,92.9999971618653,0|0,1:2|0:0,0:0:0:0:
311,106,57982,2,0,P|293:148|259:196,1,92.9999971618653,8|0,1:2|0:0,0:0:0:0:
189,245,58411,1,0,1:2:0:0:
43,134,58553,2,0,L|104:128,1,46.4999985809327,8|0,0:0|0:0,0:0:0:0:
202,0,58839,22,0,P|199:44|201:66,1,54.2499983444214,0|0,1:2|0:0,0:0:0:0:
277,204,59125,2,0,P|285:160|293:139,1,54.2499983444214,8|0,0:0|0:0,0:0:0:0:
418,30,59411,22,0,L|432:148,1,108.499996688843,4|0,1:2|0:0,0:0:0:0:
447,248,59839,1,0,1:2:0:0:
447,248,60125,1,0,1:2:0:0:
237,292,60268,22,0,P|290:281|368:287,1,108.499996688843,8|0,0:0|0:0,0:0:0:0:
422,341,60696,1,0,1:2:0:0:
303,128,60839,2,0,L|294:194,1,54.2499983444214,8|0,0:0|0:0,0:0:0:0:
121,274,61125,2,0,L|112:208,1,54.2499983444214,8|0,0:0|0:0,0:0:0:0:
247,320,61411,1,0,1:2:0:0:
167,85,61553,1,8,0:0:0:0:
39,295,61696,22,0,P|92:285|161:288,1,108.499996688843,4|0,1:2|0:0,0:0:0:0:
181,108,62125,2,0,P|179:142|183:179,1,54.2499983444214,0|0,1:2|0:0,0:0:0:0:
273,303,62411,2,0,P|279:269|293:234,1,54.2499983444214,0|0,1:2|1:2,0:0:0:0:
406,181,62696,2,0,P|443:183|492:195,1,54.2499983444214,8|0,0:0|0:0,0:0:0:0:
306,96,62982,2,0,P|341:84|385:60,1,54.2499983444214,0|0,1:2|0:0,0:0:0:0:
265,229,63268,1,0,1:2:0:0:
128,76,63411,2,0,L|139:219,1,108.499996688843,8|0,0:0|0:0,0:0:0:0:
275,342,63839,22,0,P|231:335|177:342,1,92.9999971618653,4|0,1:2|0:0,0:0:0:0:
184,340,64268,1,0,1:2:0:0:
346,262,64411,22,0,P|319:225|276:192,1,92.9999971618653,4|0,1:2|0:0,0:0:0:0:
283,196,64839,1,0,1:2:0:0:
347,86,64982,22,0,P|399:92|441:84,1,54.2499983444214,8|0,0:0|0:0,0:0:0:0:
512,248,65268,2,0,P|460:255|421:274,1,54.2499983444214,0|0,1:2|1:2,0:0:0:0:
267,223,65553,2,0,P|324:226|384:212,1,108.499996688843,8|0,0:0|0:0,0:0:0:0:
410,384,65982,2,0,L|413:326,1,54.2499983444214,8|0,0:0|0:0,0:0:0:0:
227,131,66268,22,0,L|237:259,1,108.499996688843,4|8,1:2|0:0,0:0:0:0:
138,326,66696,2,0,L|128:198,1,108.499996688843,0|0,1:2|0:0,0:0:0:0:
123,120,67125,21,8,0:0:0:0:
242,336,67268,2,0,P|293:325|369:332,1,108.499996688843,0|0,1:2|0:0,0:0:0:0:
427,167,67696,2,0,L|425:225,1,54.2499983444214,8|0,0:0|0:0,0:0:0:0:
264,357,67982,2,0,L|251:240,1,108.499996688843,0|8,1:2|0:0,0:0:0:0:
238,153,68411,1,0,1:2:0:0:
51,214,68553,22,0,P|105:211|161:223,1,108.499996688843,4|8,1:2|0:0,0:0:0:0:
237,278,68982,1,0,1:2:0:0:
480,127,69125,2,0,P|426:124|370:136,1,108.499996688843,0|8,1:2|0:0,0:0:0:0:
289,198,69553,2,0,L|280:96,1,81.3749975166321,0|0,1:2|0:0,0:0:0:0:
292,86,69839,1,0,1:2:0:0:
360,317,69982,2,0,P|363:280|375:246,1,54.2499983444214,8|0,0:0|0:0,0:0:0:0:
179,371,70268,2,0,P|166:336|146:306,1,54.2499983444214,8|0,0:0|0:0,0:0:0:0:
58,114,70553,2,0,L|52:205,1,81.3749975166321,0|0,1:2|0:0,0:0:0:0:
32,222,70839,22,0,P|81:215|156:229,1,108.499996688843,4|8,1:2|0:0,0:0:0:0:
223,256,71268,1,0,1:2:0:0:
362,100,71411,2,0,P|316:119|240:125,1,108.499996688843,0|8,1:2|0:0,0:0:0:0:
160,121,71839,1,0,1:2:0:0:
98,300,71982,2,0,L|87:177,1,108.499996688843,0|8,1:2|0:0,0:0:0:0:
208,344,72411,2,0,L|215:245,1,54.2499983444214,0|0,1:2|0:0,0:0:0:0:
329,306,72696,2,0,L|322:207,1,54.2499983444214,8|0,0:0|0:0,0:0:0:0:
313,155,72982,1,0,1:2:0:0:
419,93,73125,22,0,P|415:148|423:199,1,92.9999971618653,8|0,0:0|0:0,0:0:0:0:
461,288,73553,1,0,0:0:0:0:
302,234,73696,1,8,0:0:0:0:
477,313,73839,2,0,L|403:326,1,46.4999985809327
307,353,74125,2,0,L|219:344,1,69.749997871399,8|0,0:0|0:0,0:0:0:0:
208,361,74411,1,0,0:0:0:0:
171,230,74553,1,8,0:0:0:0:
159,258,74839,22,0,P|191:250|225:245,1,46.4999985809327,0|0,0:0|0:0,0:0:0:0:
269,172,75125,2,0,P|301:172|336:176,1,46.4999985809327,0|0,0:0|0:0,0:0:0:0:
436,321,75411,6,0,B|409:249|409:249|439:194,1,127.875003902435,4|0,1:2|0:0,0:0:0:0:
505,138,75696,2,0,B|516:88|516:88|472:25,1,127.875003902435,8|0,0:0|0:0,0:0:0:0:
367,44,75982,2,0,P|361:94|378:48,1,127.875003902435,0|0,1:2|0:0,0:0:0:0:
388,62,76268,1,8,0:0:0:0:
349,258,76411,1,0,1:2:0:0:
172,147,76553,22,0,L|285:138,1,85.2500026016236,0|0,1:2|1:2,0:0:0:0:
113,71,76839,1,8,0:0:0:0:
213,269,76982,2,0,L|100:260,1,85.2500026016236,0|0,1:2|0:0,0:0:0:0:
32,252,77268,1,8,0:0:0:0:
307,235,77411,2,0,B|374:221|392:256|392:259|426:291|497:258,1,170.500005203247,4|0,1:2|0:0,0:0:0:0:
467,268,77839,1,0,1:2:0:0:
417,59,77982,22,0,L|408:156,1,85.2500026016236,0|0,1:2|0:0,0:0:0:0:
294,324,78268,2,0,L|284:244,1,69.749997871399,8|0,0:0|0:0,0:0:0:0:
271,157,78553,1,0,1:2:0:0:
101,360,78696,22,0,B|105:312|105:312|123:281|123:281|129:217,1,127.875003902435,4|0,1:2|0:0,0:0:0:0:
98,160,78982,1,0,1:2:0:0:
203,342,79125,2,0,P|243:351|305:350,1,85.2500026016236,8|0,0:0|0:0,0:0:0:0:
117,135,79411,2,0,P|76:136|16:153,1,85.2500026016236,8|0,0:0|0:0,0:0:0:0:
236,243,79696,2,0,L|243:140,1,85.2500026016236,8|0,0:0|0:0,0:0:0:0:
492,204,79982,22,0,P|421:225|328:223,1,139.499995742798,4|8,1:2|0:0,0:0:0:0:
258,216,80411,1,0,1:2:0:0:
203,59,80553,2,0,L|208:138,1,69.749997871399,0|0,1:2|1:2,0:0:0:0:
177,270,80839,1,8,0:0:0:0:
41,280,80982,22,0,P|110:262|190:274,1,139.499995742798,0|0,1:2|0:0,0:0:0:0:
252,332,81411,2,0,P|295:336|332:333,1,69.749997871399,8|0,0:0|0:0,0:0:0:0:
464,152,81696,2,0,P|423:137|386:130,1,69.749997871399,0|0,1:2|1:2,0:0:0:0:
231,188,81982,1,8,0:0:0:0:
268,25,82125,1,0,1:2:0:0:
379,275,82268,22,0,B|331:279|331:279|300:297|300:297|236:303,1,139.499995742798,4|0,1:2|0:0,0:0:0:0:
0,221,82696,2,0,P|62:208|138:231,1,127.875003902435,4|0,1:2|0:0,0:0:0:0:
141,248,82982,1,0,1:2:0:0:
190,59,83125,1,8,0:0:0:0:
365,312,83268,2,0,B|322:238|371:178|371:178|425:197,1,201.499990776062,4|0,1:2|0:0,0:0:0:0:
512,57,83696,38,0,P|482:59|451:56,1,46.4999985809327,8|0,0:0|0:0,0:0:0:0:
336,8,83982,2,0,P|345:36|350:67,1,46.4999985809327,8|0,0:0|0:0,0:0:0:0:
267,192,84268,2,0,P|261:162|250:133,1,46.4999985809327,8|0,0:0|0:0,0:0:0:0:
123,11,84553,6,0,P|127:56|117:114,1,85.2500026016236,0|0,1:2|1:2,0:0:0:0:
273,347,84839,2,0,P|280:302|305:249,1,85.2500026016236,8|0,0:0|0:0,0:0:0:0:
488,192,85125,2,0,L|401:181,1,81.3749975166321,0|0,1:2|0:0,0:0:0:0:
389,158,85411,1,8,0:0:0:0:
397,363,85553,1,0,1:2:0:0:
176,160,85696,22,0,L|261:147,1,85.2500026016236,0|0,1:2|0:0,0:0:0:0:
168,280,85982,1,8,0:0:0:0:
326,53,86125,2,0,L|241:40,1,85.2500026016236,0|0,1:2|0:0,0:0:0:0:
132,23,86411,1,0,1:2:0:0:
355,141,86553,2,0,B|349:204|349:204|362:238|362:238|354:325,1,170.500005203247,4|0,1:2|0:0,0:0:0:0:
356,308,86982,1,0,1:2:0:0:
172,239,87125,22,0,P|216:231|268:232,1,85.2500026016236,0|0,1:2|0:0,0:0:0:0:
447,158,87411,2,0,P|406:138|358:127,1,69.749997871399,8|0,0:0|0:0,0:0:0:0:
278,124,87696,1,0,1:2:0:0:
492,44,87839,22,0,B|417:57|454:7|340:29,1,127.875003902435,4|0,1:2|0:0,0:0:0:0:
343,39,88125,1,0,1:2:0:0:
323,208,88268,2,0,P|336:258|356:295,1,85.2500026016236,8|0,0:0|0:0,0:0:0:0:
233,26,88553,2,0,P|183:12|141:11,1,85.2500026016236,8|0,0:0|0:0,0:0:0:0:
195,247,88839,2,0,P|161:278|115:298,1,85.2500026016236,8|0,0:0|0:0,0:0:0:0:
71,64,89125,22,0,P|80:134|65:202,1,139.499995742798,4|0,1:2|0:0,0:0:0:0:
65,200,89553,1,0,1:2:0:0:
283,235,89696,22,0,P|226:277|160:298,1,139.499995742798,4|0,1:2|0:0,0:0:0:0:
162,297,90125,1,0,1:2:0:0:
370,140,90268,22,0,L|387:238,1,69.749997871399,0|0,1:2|0:0,0:0:0:0:
205,79,90553,2,0,L|188:177,1,69.749997871399,8|0,0:0|0:0,0:0:0:0:
457,32,90839,2,0,L|465:131,1,69.749997871399,0|0,1:2|1:2,0:0:0:0:
287,217,91125,1,8,0:0:0:0:
455,360,91268,38,0,L|477:217,1,139.499995742798,4|0,1:2|0:0,0:0:0:0:
366,62,91696,2,0,L|363:152,1,69.749997871399,8|0,0:0|0:0,0:0:0:0:
264,237,91982,1,0,1:2:0:0:
185,27,92125,2,0,L|283:11,1,85.2500026016236,8|0,0:0|0:0,0:0:0:0:
80,366,92411,22,0,L|58:223,1,139.499995742798,0|0,1:2|0:0,0:0:0:0:
129,91,92839,2,0,L|154:170,1,69.749997871399,8|0,0:0|0:0,0:0:0:0:
190,273,93125,1,0,1:2:0:0:
341,57,93268,6,0,L|242:40,1,100.749995388031,8|0,0:0|0:0,0:0:0:0:
90,240,93553,21,0,1:2:0:0:
90,240,93839,21,0,1:2:0:0:
227,71,93982,1,8,0:0:0:0:
264,283,94125,1,0,0:0:0:0:
109,109,94268,21,8,0:0:0:0:
323,148,94411,1,0,1:2:0:0:
179,250,94553,1,0,1:2:0:0:
334,40,94696,21,0,1:2:0:0:
334,40,94982,21,0,1:2:0:0:
376,248,95125,1,8,0:0:0:0:
427,72,95268,21,0,0:0:0:0:
280,239,95411,1,8,0:0:0:0:
229,31,95553,21,0,0:0:0:0:
186,244,95696,1,8,0:0:0:0:
67,43,95839,21,0,1:2:0:0:
67,43,96125,21,0,1:2:0:0:
88,158,96268,1,8,0:0:0:0:
150,48,96411,1,0,0:0:0:0:
147,105,96553,1,8,0:0:0:0:
234,64,96696,1,0,1:2:0:0:
237,95,96839,1,0,1:2:0:0:
417,64,96982,21,0,1:2:0:0:
417,64,97268,21,0,1:2:0:0:
425,90,97411,1,8,0:0:0:0:
328,68,97553,1,0,0:0:0:0:
335,126,97696,1,8,0:0:0:0:
238,44,97839,1,0,1:2:0:0:
235,156,97982,1,0,1:2:0:0:
87,27,98125,21,0,1:2:0:0:
87,27,98411,21,0,1:2:0:0:
159,232,98553,1,8,0:0:0:0:
268,44,98696,1,0,0:0:0:0:
57,202,98839,21,8,0:0:0:0:
182,1,98982,1,0,0:0:0:0:
254,179,99125,1,0,1:2:0:0:
7,99,99268,21,0,1:2:0:0:
7,99,99553,21,0,1:2:0:0:
24,304,99696,1,8,0:0:0:0:
141,117,99839,21,0,0:0:0:0:
124,322,99982,1,8,0:0:0:0:
255,75,100125,21,0,0:0:0:0:
272,280,100268,1,8,0:0:0:0:
371,27,100411,21,0,1:2:0:0:
371,27,100696,21,0,1:2:0:0:
386,141,100839,1,8,0:0:0:0:
283,69,100982,1,0,0:0:0:0:
277,126,101125,1,8,0:0:0:0:
178,77,101268,1,0,1:2:0:0:
182,107,101411,1,0,1:2:0:0:
29,76,101553,21,0,1:2:0:0:
29,76,101839,21,0,1:2:0:0:
69,240,101982,1,8,0:0:0:0:
189,48,102125,1,8,0:0:0:0:
223,303,102268,2,0,L|383:323,1,155,8|0,0:0|0:0,0:0:0:0:
376,322,102839,6,0,P|397:264|386:203,1,116.25,0|0,1:2|0:0,0:0:0:0:
389,211,103411,1,0,1:2:0:0:
314,149,103839,37,8,0:0:0:0:
309,120,103911,1,8,0:0:0:0:
318,92,103982,1,8,0:0:0:0:
390,27,104268,1,0,1:2:0:0:
277,240,104411,2,0,L|178:245,1,85.2500026016236,8|0,0:0|0:0,0:0:0:0:
409,175,104696,2,0,L|508:180,1,85.2500026016236,8|0,0:0|0:0,0:0:0:0:
229,75,104982,5,4,1:2:0:0:
229,75,105268,1,0,1:2:0:0:
378,219,105411,2,0,L|388:136,1,62,8|0,0:0|0:0,0:0:0:0:
211,307,105696,2,0,L|201:224,2,62,0|0|8,1:2|1:2|0:0,0:0:0:0:
0,123,106125,22,0,P|56:141|143:134,1,124,0|0,1:2|0:0,0:0:0:0:
219,93,106553,2,0,P|252:95|297:108,1,62,8|0,0:0|0:0,0:0:0:0:
356,198,106839,2,0,P|356:237|351:274,2,62,0|0|8,1:2|1:2|0:0,0:0:0:0:
455,27,107268,22,0,L|468:134,1,93,0|0,1:2|0:0,0:0:0:0:
485,140,107553,1,0,1:2:0:0:
318,277,107696,2,0,L|395:285,1,62,8|0,0:0|0:0,0:0:0:0:
172,136,107982,2,0,L|249:128,1,62,0|0,1:2|0:0,0:0:0:0:
248,135,108196,1,0,1:2:0:0:
262,140,108268,1,8,0:0:0:0:
201,327,108411,22,0,P|203:284|194:235,1,77.5,8|0,0:0|0:0,0:0:0:0:
100,211,108839,2,0,P|102:254|93:300,1,62,8|0,0:0|0:0,0:0:0:0:
258,141,109125,2,0,P|267:184|287:226,1,62,8|0,0:0|0:0,0:0:0:0:
149,109,109411,1,0,1:2:0:0:
425,279,109553,22,0,P|374:272|308:284,1,93,4|0,1:2|0:0,0:0:0:0:
309,297,109839,1,0,1:2:0:0:
186,187,109982,2,0,L|179:262,1,62,8|0,0:0|0:0,0:0:0:0:
42,324,110268,2,0,L|30:246,2,62,0|0|8,1:2|1:2|0:0,0:0:0:0:
0,111,110696,22,0,P|59:121|138:111,1,124,0|0,1:2|0:0,0:0:0:0:
283,234,111125,2,0,L|280:155,1,62,8|0,0:0|0:0,0:0:0:0:
266,259,111411,1,8,0:0:0:0:
330,78,111553,1,0,1:2:0:0:
330,78,111839,6,0,L|190:63,1,124,4|0,1:2|0:0,0:0:0:0:
403,157,112268,2,0,L|482:149,1,62,12|0,0:0|0:0,0:0:0:0:
268,194,112553,1,0,1:2:0:0:
462,275,112696,2,0,L|471:356,1,62,12|0,0:0|0:0,0:0:0:0:
324,384,112982,22,0,P|342:325|346:250,1,124,4|0,1:2|0:0,0:0:0:0:
251,169,113411,2,0,L|166:163,1,62,12|0,0:0|0:0,0:0:0:0:
374,108,113696,1,8,0:0:0:0:
271,59,113839,1,0,1:2:0:0:
271,59,113911,1,0,1:2:0:0:
271,59,113982,1,8,0:0:0:0:
49,48,114125,6,0,L|166:40,1,93,4|0,1:2|0:0,0:0:0:0:
165,21,114411,1,0,1:2:0:0:
83,207,114553,2,0,L|71:137,1,62,8|0,0:0|0:0,0:0:0:0:
194,281,114839,2,0,L|206:211,2,62,0|0|8,1:2|1:2|0:0,0:0:0:0:
315,127,115268,22,0,P|324:194|354:257,1,124,0|0,1:2|0:0,0:0:0:0:
292,356,115696,2,0,P|248:350|226:352,1,62,8|0,0:0|0:0,0:0:0:0:
118,308,115982,2,0,P|110:264|108:238,2,62,0|0|8,1:2|1:2|0:0,0:0:0:0:
40,144,116411,22,0,P|86:151|143:141,1,93,0|0,1:2|0:0,0:0:0:0:
156,123,116696,1,0,1:2:0:0:
322,217,116839,2,0,P|289:213|252:216,1,62,8|0,0:0|0:0,0:0:0:0:
162,238,117125,1,0,1:2:0:0:
272,35,117268,2,0,P|277:70|292:109,1,62,8|0,0:0|0:0,0:0:0:0:
483,146,117553,22,0,P|437:138|381:143,1,92.9999971618653,4|0,1:2|0:0,0:0:0:0:
342,238,117982,2,0,L|347:305,1,62,8|0,0:0|0:0,0:0:0:0:
200,166,118268,2,0,L|189:235,1,62,8|0,0:0|0:0,0:0:0:0:
289,112,118553,1,8,0:0:0:0:
155,342,118696,22,0,P|200:331|249:331,1,93,4|0,1:2|0:0,0:0:0:0:
272,349,118982,1,0,1:2:0:0:
340,200,119125,2,0,P|343:234|354:268,1,62,8|0,0:0|0:0,0:0:0:0:
480,345,119411,2,0,L|488:271,2,62,0|0|8,1:2|1:2|0:0,0:0:0:0:
512,125,119839,22,0,P|448:133|388:120,1,124,0|0,1:2|0:0,0:0:0:0:
276,69,120268,2,0,P|276:108|272:139,1,62,8|0,0:0|0:0,0:0:0:0:
156,232,120553,2,0,P|166:195|170:164,1,62,0|0,1:2|0:0,0:0:0:0:
132,80,120839,1,8,0:0:0:0:
281,282,120982,22,0,P|341:269|425:276,1,124,0|0,1:2|0:0,0:0:0:0:
493,126,121411,2,0,P|489:167|494:207,1,62,8|0,0:0|0:0,0:0:0:0:
390,43,121696,1,0,1:2:0:0:
271,168,121839,2,0,P|285:130|290:90,1,62,8|0,0:0|0:0,0:0:0:0:
309,270,122125,1,0,1:2:0:0:
199,34,122268,2,0,L|121:27,2,62,8|8|0,0:0|0:0|0:0,0:0:0:0:
32,229,122696,2,0,P|38:165|24:104,1,124,8|0,0:0|0:0,0:0:0:0:
161,296,123125,1,8,0:0:0:0:
237,159,123268,1,0,0:0:0:0:
307,335,123411,22,0,P|344:324|399:321,1,77.5,0|0,1:2|0:0,0:0:0:0:
382,320,123982,1,0,0:0:0:0:
249,267,124553,22,0,P|294:250|358:199,1,116.25,0|0,0:0|0:0,0:0:0:0:
256,236,125411,1,0,0:0:0:0:
300,69,125696,22,0,L|305:144,1,69.749997871399,0|0,1:2|0:0,0:0:0:0:
175,306,125982,2,0,L|165:164,1,139.499995742798,8|0,0:0|0:0,0:0:0:0:
85,358,126411,2,0,L|74:215,1,139.499995742798,8|0,0:0|0:0,0:0:0:0:
0,94,126839,38,0,P|55:99|118:87,1,100.749995388031,4|0,1:2|0:0,0:0:0:0:
270,8,127125,6,0,L|283:182,1,162.749995033264,8|0,0:0|0:0,0:0:0:0:
236,339,127696,2,0,P|287:319|352:315,1,104.624996807098,8|0,0:0|0:0,0:0:0:0:
466,209,127982,22,0,P|420:215|362:210,1,92.9999971618653,4|0,1:2|0:0,0:0:0:0:
239,162,128411,2,0,P|268:199|292:252,1,92.9999971618653,0|0,1:2|0:0,0:0:0:0:
312,380,128839,2,0,P|330:338|364:290,1,92.9999971618653,8|0,1:2|0:0,0:0:0:0:
427,229,129268,1,0,1:2:0:0:
253,133,129411,2,0,L|314:127,1,46.4999985809327,8|0,0:0|0:0,0:0:0:0:
231,363,129696,22,0,P|234:326|231:295,1,46.4999985809327,0|0,1:2|0:0,0:0:0:0:
145,202,129982,2,0,P|137:246|129:267,1,54.2499983444214,8|0,0:0|0:0,0:0:0:0:
33,382,130268,22,0,L|19:264,1,108.499996688843,4|0,1:2|0:0,0:0:0:0:
2,161,130696,1,0,1:2:0:0:
2,161,130982,1,0,1:2:0:0:
240,112,131125,22,0,P|187:123|109:117,1,108.499996688843,8|0,0:0|0:0,0:0:0:0:
48,73,131553,1,0,1:2:0:0:
164,287,131696,2,0,L|173:221,1,54.2499983444214,8|0,0:0|0:0,0:0:0:0:
352,142,131982,2,0,L|361:208,1,54.2499983444214,8|0,0:0|0:0,0:0:0:0:
244,85,132268,1,0,1:2:0:0:
300,328,132411,1,8,0:0:0:0:
473,104,132553,22,0,P|420:114|351:111,1,108.499996688843,4|0,1:2|0:0,0:0:0:0:
365,113,132982,1,0,1:2:0:0:
241,256,133125,2,0,L|234:129,1,108.499996688843,0|0,0:0|1:2,0:0:0:0:
206,25,133553,2,0,P|171:37|148:40,1,54.2499983444214,8|0,0:0|0:0,0:0:0:0:
10,107,133839,2,0,P|40:127|62:136,1,54.2499983444214,0|0,1:2|0:0,0:0:0:0:
154,137,134125,1,0,1:2:0:0:
228,237,134268,22,0,P|272:204|345:195,1,108.499996688843,8|0,0:0|0:0,0:0:0:0:
450,0,134696,22,0,P|431:40|423:109,1,108.499996688843,4|0,1:2|0:0,0:0:0:0:
423,103,135125,1,0,1:2:0:0:
236,117,135268,22,0,P|263:154|306:187,1,92.9999971618653,4|0,1:2|0:0,0:0:0:0:
299,183,135696,1,0,1:2:0:0:
368,345,135839,22,0,P|372:306|384:279,1,54.2499983444214,8|0,0:0|0:0,0:0:0:0:
186,208,136125,2,0,P|192:246|187:275,1,54.2499983444214,0|0,1:2|1:2,0:0:0:0:
30,365,136411,2,0,P|41:310|85:262,1,108.499996688843,8|0,0:0|0:0,0:0:0:0:
115,65,136839,2,0,L|126:127,1,54.2499983444214,8|0,0:0|0:0,0:0:0:0:
285,253,137125,22,0,L|275:125,1,108.499996688843,4|8,1:2|0:0,0:0:0:0:
400,61,137553,2,0,L|410:189,1,108.499996688843,0|0,1:2|0:0,0:0:0:0:
415,267,137982,21,8,0:0:0:0:
270,48,138125,2,0,P|219:59|143:52,1,108.499996688843,0|0,1:2|0:0,0:0:0:0:
85,217,138553,2,0,L|87:159,1,54.2499983444214,8|0,0:0|0:0,0:0:0:0:
250,25,138839,2,0,L|263:142,1,108.499996688843,0|8,1:2|0:0,0:0:0:0:
276,229,139268,1,0,1:2:0:0:
464,176,139411,22,0,P|410:179|354:167,1,108.499996688843,4|8,1:2|0:0,0:0:0:0:
278,112,139839,1,0,1:2:0:0:
46,267,139982,2,0,P|100:270|156:258,1,108.499996688843,0|8,1:2|0:0,0:0:0:0:
237,196,140411,2,0,L|246:298,1,81.3749975166321,0|0,1:2|0:0,0:0:0:0:
234,308,140696,1,0,1:2:0:0:
147,98,140839,2,0,P|144:135|132:169,1,54.2499983444214,8|0,0:0|0:0,0:0:0:0:
298,25,141125,2,0,P|311:60|331:90,1,54.2499983444214,8|0,0:0|0:0,0:0:0:0:
423,282,141411,2,0,L|429:191,1,81.3749975166321,0|0,1:2|0:0,0:0:0:0:
451,175,141696,22,0,P|402:182|327:168,1,108.499996688843,4|8,1:2|0:0,0:0:0:0:
239,125,142125,1,0,1:2:0:0:
156,250,142268,2,0,P|186:238|222:235,2,54.2499983444214,0|0|8,1:2|0:0|0:0,0:0:0:0:
94,325,142696,1,0,1:2:0:0:
0,183,142839,2,0,L|7:117,2,54.2499983444214,0|0|8,1:2|0:0|0:0,0:0:0:0:
112,349,143268,2,0,L|211:356,1,54.2499983444214,0|0,1:2|0:0,0:0:0:0:
203,165,143553,2,0,L|302:158,1,54.2499983444214,8|0,0:0|0:0,0:0:0:0:
319,239,143839,1,0,1:2:0:0:
411,111,143982,22,0,P|407:166|415:217,1,92.9999971618653,8|0,0:0|0:0,0:0:0:0:
453,306,144411,1,0,0:0:0:0:
294,252,144553,1,8,0:0:0:0:
469,331,144696,2,0,L|395:344,1,46.4999985809327,0|0,0:0|0:0,0:0:0:0:
299,371,144982,2,0,L|211:362,1,69.749997871399,8|0,0:0|0:0,0:0:0:0:
200,379,145268,1,0,0:0:0:0:
163,248,145411,1,8,0:0:0:0:
144,274,145696,22,0,P|176:266|210:261,1,46.4999985809327,0|0,0:0|0:0,0:0:0:0:
254,188,145982,2,0,P|286:188|321:192,1,46.4999985809327,0|0,0:0|0:0,0:0:0:0:
425,69,146268,38,0,B|357:45|357:45|306:78,1,127.875003902435,4|0,1:2|0:0,0:0:0:0:
242,146,146553,2,0,B|188:163|188:163|129:122,1,127.875003902435,8|0,0:0|0:0,0:0:0:0:
55,56,146839,2,0,P|12:38|57:38,1,127.875003902435,0|0,1:2|0:0,0:0:0:0:
56,37,147125,1,8,0:0:0:0:
17,230,147268,1,0,1:2:0:0:
252,44,147411,22,0,L|258:146,1,85.2500026016236,0|0,1:2|1:2,0:0:0:0:
154,35,147696,1,8,0:0:0:0:
378,194,147839,2,0,L|384:92,1,85.2500026016236,0|0,1:2|0:0,0:0:0:0:
390,10,148125,1,8,0:0:0:0:
275,235,148268,2,0,B|212:217|193:248|193:253|154:278|94:250,1,170.500005203247,4|0,1:2|0:0,0:0:0:0:
112,256,148696,1,0,1:2:0:0:
46,82,148839,22,0,P|52:126|41:173,1,85.2500026016236,0|0,1:2|0:0,0:0:0:0:
232,379,149125,2,0,P|237:334|257:294,1,69.749997871399,8|0,0:0|0:0,0:0:0:0:
296,226,149411,1,0,1:2:0:0:
2,324,149553,22,0,B|49:328|49:328|80:346|80:346|136:351,1,127.875003902435,4|0,1:2|0:0,0:0:0:0:
155,340,149839,1,0,1:2:0:0:
229,147,149982,2,0,P|223:103|206:61,1,85.2500026016236,8|0,0:0|0:0,0:0:0:0:
279,346,150268,2,0,P|320:362|364:369,1,85.2500026016236,8|0,0:0|0:0,0:0:0:0:
159,233,150553,2,0,L|60:244,1,85.2500026016236,8|0,0:0|0:0,0:0:0:0:
424,303,150839,22,0,P|432:230|415:160,1,139.499995742798,4|8,1:2|0:0,0:0:0:0:
370,79,151268,1,0,1:2:0:0:
224,169,151411,2,0,L|305:177,1,69.749997871399,0|0,1:2|1:2,0:0:0:0:
404,50,151696,22,0,P|346:58|298:52,1,104.624996807098,8|0,0:0|0:0,0:0:0:0:
274,69,151982,2,0,L|266:-11,1,69.749997871399,0|0,1:2|0:0,0:0:0:0:
446,155,152268,2,0,L|438:235,1,69.749997871399,8|0,0:0|0:0,0:0:0:0:
140,274,152553,2,0,P|192:264|245:274,1,104.624996807098,0|0,1:2|0:0,0:0:0:0:
270,294,152839,1,8,0:0:0:0:
248,103,152982,1,0,1:2:0:0:
35,344,153125,22,0,B|39:288|39:288|58:257|58:257|64:193,1,139.499995742798,4|0,1:2|0:0,0:0:0:0:
136,36,153553,2,0,P|135:89|152:147,1,104.624996807098,4|0,1:2|0:0,0:0:0:0:
169,164,153839,1,0,1:2:0:0:
298,33,153982,1,8,0:0:0:0:
450,272,154125,2,0,B|431:204|448:141|448:141|421:171|383:183,1,201.499990776062,4|0,1:2|0:0,0:0:0:0:
347,274,154553,6,0,L|294:265,1,46.4999985809327,8|0,0:0|0:0,0:0:0:0:
218,177,154839,2,0,L|165:186,1,46.4999985809327,8|0,0:0|0:0,0:0:0:0:
100,314,155125,2,0,L|47:305,1,46.4999985809327,8|0,0:0|0:0,0:0:0:0:
0,96,155411,38,0,B|40:83|66:46|66:46|86:87|125:107,1,170.500005203247,4|8,1:2|0:0,0:0:0:0:
124,106,155839,1,0,0:0:0:0:
262,287,155982,2,0,P|251:222|270:152,1,127.875003902435,0|0,1:2|0:0,0:0:0:0:
286,137,156268,1,8,0:0:0:0:
429,179,156411,1,0,1:2:0:0:
244,260,156553,22,0,B|186:244|162:272|162:279|130:306|61:285,1,170.500005203247,0|8,1:2|0:0,0:0:0:0:
81,289,156982,1,0,1:2:0:0:
29,72,157125,2,0,P|37:116|34:163,1,85.2500026016236,0|0,0:0|1:2,0:0:0:0:
0,248,157411,1,0,1:2:0:0:
200,101,157553,22,0,B|247:105|247:105|278:123|278:123|334:128,1,127.875003902435,4|0,1:2|0:0,0:0:0:0:
351,113,157839,1,0,1:2:0:0:
259,265,157982,2,0,L|170:268,1,85.2500026016236,8|0,0:0|0:0,0:0:0:0:
369,231,158268,1,0,1:2:0:0:
180,126,158411,2,0,P|163:62|174:11,1,100.749995388031,8|0,0:0|1:2,0:0:0:0:
180,126,158696,22,0,P|113:117|71:155,1,127.875003902435,4|0,1:2|0:0,0:0:0:0:
67,187,158982,1,0,1:2:0:0:
291,84,159125,2,0,P|295:35|289:-6,1,85.2500026016236,8|0,0:0|0:0,0:0:0:0:
184,245,159411,2,0,P|192:293|209:331,1,85.2500026016236,8|0,0:0|0:0,0:0:0:0:
444,125,159696,2,0,P|458:84|465:31,1,85.2500026016236,8|0,0:0|0:0,0:0:0:0:
377,279,159982,22,0,P|316:254|267:183,1,139.499995742798,4|0,1:2|0:0,0:0:0:0:
271,197,160411,1,0,1:2:0:0:
39,344,160553,22,0,P|104:335|170:279,1,139.499995742798,4|0,1:2|0:0,0:0:0:0:
161,292,160982,1,0,1:2:0:0:
75,158,161125,22,0,L|-1:164,1,69.749997871399,0|0,1:2|0:0,0:0:0:0:
209,54,161411,2,0,L|285:60,1,69.749997871399,8|0,0:0|0:0,0:0:0:0:
77,254,161696,2,0,L|71:330,1,69.749997871399,0|0,1:2|1:2,0:0:0:0:
232,156,161982,1,8,0:0:0:0:
178,325,162125,6,0,P|246:314|327:341,1,139.499995742798,4|0,1:2|0:0,0:0:0:0:
435,373,162553,2,0,P|422:327|421:293,1,69.749997871399,8|0,0:0|0:0,0:0:0:0:
408,163,162839,1,0,1:2:0:0:
199,240,162982,2,0,L|108:221,1,69.749997871399,8|0,0:0|0:0,0:0:0:0:
286,5,163268,22,0,P|300:72|280:152,1,139.499995742798,0|0,1:2|0:0,0:0:0:0:
113,238,163696,2,0,P|104:197|106:151,1,69.749997871399,8|0,0:0|0:0,0:0:0:0:
129,67,163982,1,0,1:2:0:0:
249,279,164125,2,0,P|290:284|346:279,1,81.3749975166321,8|0,0:0|0:0,0:0:0:0:
356,301,164411,38,0,P|352:257|361:217,1,77.5,4|0,1:2|0:0,0:0:0:0:
397,150,164839,21,8,0:0:0:0:
331,382,164982,1,0,0:0:0:0:
209,121,165125,21,8,0:0:0:0:
233,360,165268,1,0,0:0:0:0:
304,126,165411,21,8,0:0:0:0:
149,341,165553,1,0,0:0:0:0:
28,140,165696,21,8,0:0:0:0:
72,375,165839,1,0,0:0:0:0:
126,55,165982,21,8,0:0:0:0:
82,290,166125,1,0,0:0:0:0:
266,50,166268,21,8,0:0:0:0:
162,265,166411,1,0,0:0:0:0:
389,30,166553,6,0,L|404:116,1,81.3749975166321,8|0,0:0|0:0,0:0:0:0:
422,137,166839,6,0,P|382:132|341:143,1,77.5,4|8,1:2|0:0,0:0:0:0:
274,182,167268,1,0,0:0:0:0:
293,57,167411,21,0,1:2:0:0:
296,306,167553,1,0,1:2:0:0:
102,173,167696,1,8,0:0:0:0:
360,254,167839,22,0,P|323:262|280:258,1,77.5,4|0,1:2|0:0,0:0:0:0:
274,246,168196,1,0,1:2:0:0:
270,230,168268,1,8,0:0:0:0:
186,341,168411,1,0,1:2:0:0:
154,70,168553,21,0,1:2:0:0:
106,138,168696,1,0,1:2:0:0:
90,142,168768,1,0,1:2:0:0:
73,140,168839,1,8,0:0:0:0:
13,82,168982,1,0,1:2:0:0:
0,296,169125,22,0,P|23:287|89:288,1,77.5,4|8,1:2|0:0,0:0:0:0:
153,316,169553,1,0,0:0:0:0:
82,34,169696,21,8,0:0:0:0:
59,257,169839,1,0,0:0:0:0:
195,10,169982,21,8,0:0:0:0:
218,233,170125,1,0,0:0:0:0:
291,52,170268,21,8,0:0:0:0:
144,274,170411,1,0,0:0:0:0:
386,29,170553,21,8,0:0:0:0:
408,251,170696,1,0,0:0:0:0:
447,111,170839,21,8,0:0:0:0:
301,318,170982,1,0,0:0:0:0:
209,99,171125,21,8,0:0:0:0:
197,363,171268,1,0,0:0:0:0:
42,154,171411,22,0,L|32:247,2,85.2500026016236,0|0|8,1:2|1:2|0:0,0:0:0:0:
31,55,171839,1,0,1:2:0:0:
140,278,171982,2,0,P|185:261|235:262,1,85.2500026016236,0|0,1:2|0:0,0:0:0:0:
339,293,172268,1,8,0:0:0:0:
416,100,172411,2,0,L|411:201,1,85.2500026016236,0|0,1:2|0:0,0:0:0:0:
201,283,172696,2,0,L|196:182,1,85.2500026016236,8|0,0:0|0:0,0:0:0:0:
321,47,172982,21,0,1:2:0:0:
305,53,173053,1,0,1:2:0:0:
288,54,173125,1,8,0:0:0:0:
211,21,173268,1,0,1:2:0:0:
113,154,173411,1,8,0:0:0:0:
124,62,173553,1,0,1:2:0:0:
221,259,173696,22,0,B|326:246|273:286|387:267,1,151.124993082047,4|0,1:2|0:0,0:0:0:0:
411,253,173982,21,8,0:0:0:0:
401,21,174125,1,0,0:0:0:0:
299,295,174268,21,8,0:0:0:0:
309,63,174411,1,0,0:0:0:0:
206,346,174553,21,8,0:0:0:0:
196,114,174696,1,0,0:0:0:0:
72,323,174839,21,8,0:0:0:0:
82,91,174982,1,0,0:0:0:0:
226,334,175125,21,8,0:0:0:0:
215,78,175268,1,0,0:0:0:0:
52,346,175411,21,8,0:0:0:0:
64,64,175553,1,0,0:0:0:0:
237,364,175696,6,0,P|264:318|321:291,1,104.624996807098,8|0,0:0|0:0,0:0:0:0:
391,283,175982,37,4,1:2:0:0:
172,277,176125,1,0,1:2:0:0:
347,141,176268,1,8,0:0:0:0:
212,382,176411,21,0,1:2:0:0:
262,152,176553,1,0,1:2:0:0:
380,313,176696,1,0,1:2:0:0:
131,152,176839,21,8,0:0:0:0:
47,317,176982,22,0,P|95:298|168:306,1,108.499996688843,4|0,1:2|0:0,0:0:0:0:
165,310,177339,1,0,1:2:0:0:
176,322,177411,1,8,0:0:0:0:
239,173,177553,1,0,1:2:0:0:
323,384,177696,21,0,1:2:0:0:
377,319,177839,1,0,1:2:0:0:
393,315,177911,1,0,1:2:0:0:
409,317,177982,1,8,0:0:0:0:
456,197,178125,6,0,P|408:199|352:185,1,92.9999971618653,0|0,1:2|0:0,0:0:0:0:
301,135,178553,21,8,0:0:0:0:
287,267,178696,1,0,0:0:0:0:
175,161,178839,21,8,0:0:0:0:
189,293,178982,1,0,0:0:0:0:
222,78,179125,21,8,0:0:0:0:
106,235,179268,1,0,0:0:0:0:
128,49,179411,21,8,0:0:0:0:
232,220,179553,1,0,0:0:0:0:
42,101,179696,21,8,0:0:0:0:
19,293,179839,1,0,0:0:0:0:
163,159,179982,21,8,0:0:0:0:
179,296,180125,1,0,0:0:0:0:
321,199,180268,21,8,0:0:0:0:
302,297,180411,1,0,0:0:0:0:
459,281,184982,21,0,0:0:0:0:
459,281,185053,1,0,0:0:0:0:
459,281,185125,2,0,P|442:210|454:143,1,139.499995742798,0|0,1:2|0:0,0:0:0:0:
359,340,185696,2,0,P|308:287|285:222,1,139.499995742798,0|0,1:2|0:0,0:0:0:0:
268,129,186125,1,0,0:0:0:0:
63,277,186268,22,0,P|128:259|210:274,1,139.499995742798,0|0,1:2|0:0,0:0:0:0:
0,200,186839,1,0,1:2:0:0:
109,88,187125,1,0,0:0:0:0:
173,384,187411,22,0,L|192:225,1,139.499995742798,0|0,1:2|0:0,0:0:0:0:
299,351,187982,2,0,L|292:277,2,69.749997871399,0|0|0,1:2|0:0|0:0,0:0:0:0:
346,190,188411,1,4,0:0:0:0:
512,281,188553,22,0,P|445:264|362:286,1,139.499995742798,0|0,1:2|0:0,0:0:0:0:
480,146,189125,2,0,L|417:134,2,54.2499983444214,0|0|0,1:2|0:0|0:0,0:0:0:0:
235,251,189696,22,0,P|248:182|231:110,1,139.499995742798,0|0,1:2|0:0,0:0:0:0:
235,251,190268,1,0,1:2:0:0:
108,306,190839,22,0,P|84:239|34:185,1,139.499995742798,0|0,1:2|0:0,0:0:0:0:
108,306,191411,1,0,1:2:0:0:
349,320,191982,22,0,P|382:262|393:179,1,139.499995742798,0|0,1:2|0:0,0:0:0:0:
235,251,192553,2,0,P|234:184|202:106,1,139.499995742798,0|0,1:2|0:0,0:0:0:0:
108,306,193125,2,0,P|74:248|7:197,1,139.499995742798,0|0,1:2|0:0,0:0:0:0:
108,306,193696,21,0,1:2:0:0:
191,316,193982,1,0,0:0:0:0:
302,234,194268,22,0,L|310:143,2,77.5,0|0|0,0:0|0:0|0:0,0:0:0:0:
426,347,195411,22,0,L|417:227,2,116.25,0|0|0,0:0|0:0|0:0,0:0:0:0:
166,198,196553,22,0,L|157:102,2,92.9999971618653,0|0|0,0:0|0:0|0:0,0:0:0:0:
282,308,197696,22,0,L|293:157,2,139.499995742798
82,359,198839,22,0,P|68:332|61:263,1,92.9999971618653,0|0,0:0|0:0,0:0:0:0:
77,189,199411,1,0,0:0:0:0:
180,262,199982,22,0,P|194:235|201:166,1,92.9999971618653,0|0,0:0|0:0,0:0:0:0:
185,92,200553,1,0,0:0:0:0:
260,242,201196,22,0,P|289:236|331:239,1,58.125
365,145,201696,2,0,P|432:169|518:151,1,155
256,192,203411,12,0,204268,0:0:0:0:
123,132,204553,38,0,P|167:132|218:152,1,85.2500026016236,8|0,1:2|0:0,0:0:0:0:
308,247,204839,2,0,P|351:250|404:235,1,85.2500026016236,8|0,0:0|0:0,0:0:0:0:
391,241,205553,6,0,L|306:230,2,85.2500026016236,0|8|0,0:0|0:0|0:0,0:0:0:0:
502,161,205982,6,0,L|513:76,1,85.2500026016236,0|0,1:2|0:0,0:0:0:0:
495,274,206268,21,0,1:2:0:0:
358,92,206411,1,8,0:0:0:0:
307,335,206553,1,0,1:2:0:0:
68,149,206696,22,0,B|105:151|142:142|142:142|163:168|163:168|199:162|248:169,1,174.375006651879,4|0,1:2|0:0,0:0:0:0:
255,148,206982,1,0,1:2:0:0:
420,348,207125,2,0,P|364:363|296:365,1,116.250004434586
502,161,207411,2,0,P|504:108|491:35,1,116.250004434586
235,281,207696,2,0,P|175:264|126:223,1,116.250004434586
357,44,207982,22,0,B|350:115|350:115|371:157|371:157|360:277,1,201.499990776062,4|8,1:2|0:0,0:0:0:0:
354,339,208411,1,0,1:2:0:0:
74,203,208553,2,0,P|125:204|179:193,1,100.749995388031,0|0,1:2|0:0,0:0:0:0:
263,154,208839,1,8,0:0:0:0:
215,344,208982,22,0,B|206:229|283:259|261:141,1,201.499990776062,0|0,1:2|0:0,0:0:0:0:
342,44,209411,2,0,P|349:88|372:130,1,85.2500026016236,8|0,0:0|0:0,0:0:0:0:
154,217,209696,2,0,P|131:177|95:145,1,85.2500026016236,0|0,1:2|1:2,0:0:0:0:
30,62,209982,1,8,0:0:0:0:
44,275,210125,1,0,0:0:0:0:
203,81,210268,22,0,P|215:153|292:217,1,170.500005203247,4|0,1:2|0:0,0:0:0:0:
505,34,210696,2,0,P|488:88|397:118,1,151.124993082047,4|0,1:2|0:0,0:0:0:0:
382,98,210982,1,0,1:2:0:0:
346,341,211125,1,8,0:0:0:0:
123,142,211268,2,0,B|157:217|116:280|116:280|91:266|81:231,1,201.499990776062,4|0,1:2|0:0,0:0:0:0:
2,129,211696,6,0,P|17:98|50:77,1,69.749997871399,8|0,0:0|0:0,0:0:0:0:
250,250,211982,2,0,P|230:221|228:182,1,69.749997871399,8|0,0:0|0:0,0:0:0:0:
405,56,212268,2,0,P|416:88|407:126,1,69.749997871399,8|0,0:0|0:0,0:0:0:0:
508,262,212553,6,0,B|442:243|442:243|372:296,1,116.250004434586,4|0,1:2|0:0,0:0:0:0:
305,349,212839,2,0,B|269:380|269:380|199:366,1,116.250004434586,8|0,0:0|0:0,0:0:0:0:
7,282,213125,2,0,B|67:247|67:247|114:260,1,116.250004434586,0|0,1:2|0:0,0:0:0:0:
236,167,213411,2,0,P|295:192|380:167,1,127.875003902435,8|0,0:0|0:0,0:0:0:0:
385,196,213696,22,0,L|390:87,1,100.749995388031,0|0,1:2|0:0,0:0:0:0:
465,252,213982,1,8,0:0:0:0:
254,140,214125,2,0,L|259:249,1,100.749995388031,0|0,1:2|0:0,0:0:0:0:
262,340,214411,1,8,0:0:0:0:
38,191,214553,2,0,B|108:172|135:201|135:206|164:246|249:212,1,201.499990776062,4|0,1:2|0:0,0:0:0:0:
229,218,214982,1,0,1:2:0:0:
360,39,215125,22,0,P|339:82|335:137,1,100.749995388031,8|0,0:0|0:0,0:0:0:0:
170,361,215411,2,0,P|166:326|148:286,2,69.749997871399,0|8|0,1:2|0:0|1:2,0:0:0:0:
9,107,215839,22,0,B|72:112|72:112|103:131|103:131|198:139,1,151.124993082047,4|0,1:2|0:0,0:0:0:0:
181,119,216125,1,0,1:2:0:0:
282,282,216268,2,0,P|280:337|266:383,1,100.749995388031,8|0,0:0|0:0,0:0:0:0:
261,91,216553,2,0,P|277:38|302:-2,1,100.749995388031,8|0,0:0|0:0,0:0:0:0:
406,343,216839,2,0,P|462:353|518:350,1,100.749995388031,8|0,0:0|0:0,0:0:0:0:
508,86,217125,22,0,P|493:170|529:281,1,170.500005203247,4|0,1:2|0:0,0:0:0:0:
512,251,217553,1,0,1:2:0:0:
287,175,217696,22,0,P|316:255|402:333,1,170.500005203247,4|0,1:2|0:0,0:0:0:0:
373,316,218125,1,0,1:2:0:0:
206,272,218268,22,0,L|107:294,1,85.2500026016236,0|0,1:2|0:0,0:0:0:0:
301,147,218553,2,0,L|400:169,1,85.2500026016236,8|0,0:0|0:0,0:0:0:0:
147,87,218839,2,0,L|44:102,1,85.2500026016236,0|0,1:2|1:2,0:0:0:0:
225,6,219125,1,8,0:0:0:0:
306,270,219268,22,0,P|325:193|409:142,1,170.500005203247,4|0,1:2|0:0,0:0:0:0:
192,177,219696,22,0,P|148:172|98:147,1,85.2500026016236,8|0,0:0|0:0,0:0:0:0:
49,78,219982,1,0,1:2:0:0:
69,328,220125,2,0,P|74:278|94:236,1,85.2500026016236,8|0,0:0|0:0,0:0:0:0:
432,127,220411,22,0,B|395:124|364:139|364:139|336:125|336:125|303:146|262:135,1,174.375006651879,4|0,1:2|0:0,0:0:0:0:
241,118,220696,1,0,1:2:0:0:
141,324,220839,2,0,P|88:341|29:344,1,100.749995388031,8|0,0:0|0:0,0:0:0:0:
302,237,221125,2,0,P|353:259|401:303,1,100.749995388031,8|0,0:0|0:0,0:0:0:0:
149,101,221411,2,0,P|137:44|138:-3,1,100.749995388031,8|0,0:0|0:0,0:0:0:0:
39,211,221696,22,0,P|123:207|218:265,1,170.500005203247,4|8,1:2|0:0,0:0:0:0:
316,384,222125,2,0,P|322:340|345:292,1,85.2500026016236,0|0,1:2|0:0,0:0:0:0:
512,165,222411,2,0,P|447:180|367:166,1,139.499995742798,0|8,1:2|0:0,0:0:0:0:
230,156,222839,22,0,L|221:57,1,85.2500026016236,0|0,1:2|0:0,0:0:0:0:
30,228,223125,2,0,L|39:129,1,85.2500026016236,8|0,0:0|0:0,0:0:0:0:
291,301,223411,2,0,L|300:202,1,85.2500026016236,0|0,1:2|1:2,0:0:0:0:
188,347,223696,1,8,0:0:0:0:
512,115,223839,6,0,P|448:154|351:142,1,170.500005203247,4|0,1:2|0:0,0:0:0:0:
227,27,224268,2,0,P|228:78|239:120,1,85.2500026016236,8|0,0:0|0:0,0:0:0:0:
271,209,224553,1,0,1:2:0:0:
432,34,224696,2,0,L|333:22,1,85.2500026016236,8|0,0:0|0:0,0:0:0:0:
75,57,224982,22,0,L|90:235,1,170.500005203247,0|0,1:2|0:0,0:0:0:0:
67,374,225411,2,0,L|153:360,1,85.2500026016236,8|0,0:0|0:0,0:0:0:0:
290,382,225696,1,0,1:2:0:0:
199,140,225839,38,0,P|213:190|259:233,1,104.624996807098,8|0,0:0|0:0,0:0:0:0:
246,259,226125,22,0,L|337:233,1,92.9999971618653,4|0,1:2|0:0,0:0:0:0:
381,166,226553,21,8,0:0:0:0:
87,120,226696,1,0,0:0:0:0:
350,85,226839,21,8,0:0:0:0:
88,226,226982,1,0,0:0:0:0:
412,262,227125,21,8,0:0:0:0:
159,171,227268,1,0,0:0:0:0:
456,130,227411,21,8,0:0:0:0:
319,336,227553,1,0,0:0:0:0:
231,64,227696,21,8,0:0:0:0:
182,323,227839,1,0,0:0:0:0:
24,138,227982,21,8,0:0:0:0:
57,376,228125,1,0,0:0:0:0:
106,39,228268,21,8,0:0:0:0:
18,268,228411,1,0,0:0:0:0:
336,83,228553,22,0,L|212:67,2,116.250004434586,0|0|8,1:2|1:2|0:0,0:0:0:0:
139,188,228982,1,8,0:0:0:0:
415,314,229125,2,0,P|421:242|452:182,1,116.250004434586,0|8,1:2|0:0,0:0:0:0:
221,345,229411,1,0,0:0:0:0:
323,53,229553,22,0,B|316:115|316:115|329:148|329:148|322:228,1,174.375006651879,4|0,1:2|0:0,0:0:0:0:
311,308,229839,1,0,1:2:0:0:
213,173,229982,1,8,0:0:0:0:
120,353,230125,1,0,1:2:0:0:
36,143,230268,1,8,0:0:0:0:
141,376,230411,22,0,L|149:287,1,85.2500026016236,0|0,1:2|0:0,0:0:0:0:
310,82,230696,22,0,P|356:113|443:101,1,139.499995742798,4|0,1:2|0:0,0:0:0:0:
501,30,231125,21,8,0:0:0:0:
413,299,231268,1,0,0:0:0:0:
292,56,231411,21,8,0:0:0:0:
322,345,231553,1,0,0:0:0:0:
149,58,231696,21,8,0:0:0:0:
129,302,231839,1,0,0:0:0:0:
316,77,231982,21,8,0:0:0:0:
52,151,232125,1,0,0:0:0:0:
404,203,232268,21,8,0:0:0:0:
172,187,232411,1,0,0:0:0:0:
433,93,232553,21,8,0:0:0:0:
353,335,232696,1,0,0:0:0:0:
190,65,232839,21,8,0:0:0:0:
212,327,232982,1,0,0:0:0:0:
316,38,233125,21,8,0:0:0:0:
100,272,233268,2,0,L|82:147,2,100.749995388031,0|0|8,1:2|1:2|0:0,0:0:0:0:
171,40,233696,1,0,1:2:0:0:
230,354,233839,2,0,P|239:299|272:250,1,104.624996807098,8|0,0:0|0:0,0:0:0:0:
260,225,234125,6,0,P|332:242|424:217,1,151.124993082047,0|0,1:2|0:0,0:0:0:0:
468,168,234411,1,0,1:2:0:0:
355,326,234553,1,8,0:0:0:0:
258,120,234696,1,0,1:2:0:0:
165,272,234839,1,8,0:0:0:0:
11,45,234982,38,0,L|106:32,1,85.2500026016236,0|0,1:2|0:0,0:0:0:0:
250,324,235268,22,0,P|261:249|311:189,1,139.499995742798,4|0,1:2|0:0,0:0:0:0:
385,152,235696,21,8,0:0:0:0:
185,205,235839,1,0,0:0:0:0:
400,308,235982,1,0,1:2:0:0:
195,97,236125,21,0,1:2:0:0:
266,356,236268,1,8,0:0:0:0:
512,82,236411,22,0,L|364:59,1,139.499995742798,4|0,1:2|0:0,0:0:0:0:
214,215,236839,21,8,0:0:0:0:
278,18,236982,1,0,1:2:0:0:
388,213,237125,21,8,0:0:0:0:
165,83,237268,1,0,0:0:0:0:
161,328,237411,1,0,1:2:0:0:
295,103,237553,22,0,P|246:152|156:164,1,139.499995742798,4|0,1:2|0:0,0:0:0:0:
85,142,237982,21,8,0:0:0:0:
256,263,238125,1,0,0:0:0:0:
246,21,238268,1,0,1:2:0:0:
141,304,238411,21,0,1:2:0:0:
160,71,238553,1,8,0:0:0:0:
375,313,238696,22,0,L|397:158,1,139.499995742798,4|0,1:2|0:0,0:0:0:0:
452,94,239125,21,8,0:0:0:0:
112,217,239268,1,0,1:2:0:0:
311,55,239411,21,8,0:0:0:0:
227,320,239553,1,0,0:0:0:0:
35,90,239696,1,0,1:2:0:0:
187,384,239839,22,0,P|203:311|183:228,1,139.499995742798,4|0,1:2|0:0,0:0:0:0:
114,174,240268,21,8,0:0:0:0:
363,210,240411,1,0,0:0:0:0:
112,317,240553,21,0,1:2:0:0:
253,108,240696,1,0,1:2:0:0:
332,349,240839,1,8,0:0:0:0:
124,58,240982,22,0,L|138:226,1,139.499995742798,4|0,1:2|0:0,0:0:0:0:
124,291,241411,21,8,0:0:0:0:
272,132,241553,1,0,0:0:0:0:
306,364,241696,1,8,0:0:0:0:
123,167,241839,21,0,1:2:0:0:
376,238,241982,1,0,1:2:0:0:
48,384,242125,22,0,P|27:322|40:250,1,139.499995742798,4|0,1:2|0:0,0:0:0:0:
92,166,242553,21,8,0:0:0:0:
209,362,242696,1,0,0:0:0:0:
234,141,242839,21,0,1:2:0:0:
119,324,242982,1,0,1:2:0:0:
324,362,243125,1,8,0:0:0:0:
16,83,243268,38,0,L|175:71,1,139.499995742798,0|0,1:2|0:0,0:0:0:0:
310,21,243696,2,0,L|305:118,1,69.749997871399,8|0,0:0|0:0,0:0:0:0:
174,267,243982,2,0,L|169:170,2,69.749997871399,0|0|8,1:2|1:2|0:0,0:0:0:0:
307,384,244411,6,0,P|318:332|364:275,1,108.499996688843,6|0,1:2|0:0,0:0:0:0:
490,127,244839,2,0,P|491:164|484:200,1,69.749997871399,10|0,0:0|0:0,0:0:0:0:
452,295,245125,1,2,1:2:0:0:
241,119,245268,2,0,L|329:105,1,69.749997871399,2|8,0:0|0:0,0:0:0:0:
188,315,245553,6,0,P|127:287|51:300,1,139.499995742798,6|0,1:2|0:0,0:0:0:0:
28,90,245982,2,0,P|25:125|29:161,1,69.749997871399,10|0,0:0|0:0,0:0:0:0:
57,296,246268,1,2,1:2:0:0:
343,238,246411,2,0,L|244:224,1,81.3749975166321,10|0,0:0|0:0,0:0:0:0:
182,153,246696,6,0,L|331:132,1,139.499995742798,4|0,1:2|0:0,0:0:0:0:
425,51,247125,2,0,P|424:90|431:128,1,69.749997871399,8|0,0:0|0:0,0:0:0:0:
466,212,247411,5,8,0:0:0:0:
328,35,247553,1,0,1:2:0:0:
271,257,247696,1,8,0:0:0:0:
71,117,247839,6,0,P|135:101|219:127,1,139.499995742798,4|0,1:2|0:0,0:0:0:0:
339,188,248268,2,0,P|336:152|341:112,1,69.749997871399,8|0,0:0|0:0,0:0:0:0:
171,294,248553,2,0,P|159:257|140:222,1,69.749997871399,8|0,0:0|0:0,0:0:0:0:
261,356,248839,1,0,1:2:0:0:
469,146,248982,6,0,L|465:293,1,139.499995742798,4|0,1:2|0:0,0:0:0:0:
373,375,249411,2,0,L|364:279,1,85.2500026016236,8|0,0:0|0:0,0:0:0:0:
281,140,249696,2,0,L|273:234,2,69.749997871399,0|0|8,1:2|1:2|0:0,0:0:0:0:
62,255,250125,6,0,P|112:251|167:272,1,104.624996807098,4|0,1:2|0:0,0:0:0:0:
181,297,250411,1,0,1:2:0:0:
42,134,250553,2,0,L|54:52,1,69.749997871399,8|0,0:0|0:0,0:0:0:0:
216,30,250839,21,8,0:0:0:0:
195,57,250911,1,0,1:2:0:0:
183,90,250982,1,0,1:2:0:0:
178,124,251053,1,0,1:2:0:0:
183,158,251125,1,0,1:2:0:0:
448,112,251268,22,0,P|381:99|308:120,1,139.499995742798,4|0,1:2|0:0,0:0:0:0:
268,204,251696,1,8,0:0:0:0:
289,97,251839,1,0,1:2:0:0:
409,286,251982,22,0,P|409:246|398:208,2,77.5,8|0|0,0:0|0:0|0:0,0:0:0:0:
372,362,252268,1,0,1:2:0:0:
267,334,252363,22,0,P|254:306|294:320,2,92.9999971618653,8|0|0,0:0|0:0|0:0,0:0:0:0:
152,354,252649,22,0,P|113:361|133:337,2,92.9999971618653,0|0|0,1:2|0:0|0:0,0:0:0:0:
180,227,252934,22,0,P|151:215|176:237,2,92.9999971618653,0|0|0,1:2|0:0|0:0,0:0:0:0:
180,227,253268,1,0,1:2:0:0:
186,123,253411,1,8,0:0:0:0:
192,19,253553,38,0,L|319:24,1,108.499996688843
400,9,253982,2,0,L|393:79,1,54.2499983444214,0|0,0:0|0:0,0:0:0:0:
383,161,254268,1,0,0:0:0:0:
383,161,254696,22,0,P|333:142|266:147,1,108.499996688843,0|0,0:0|0:0,0:0:0:0:
201,203,255125,2,0,P|198:242|201:267,1,54.2499983444214,0|0,0:0|0:0,0:0:0:0:
215,354,255411,1,0,0:0:0:0:
215,354,255839,22,0,L|97:343,1,108.499996688843,0|0,0:0|0:0,0:0:0:0:
15,378,256268,2,0,L|8:306,1,54.2499983444214,0|0,0:0|0:0,0:0:0:0:
26,227,256553,1,0,0:0:0:0:
26,227,256982,22,0,P|80:220|132:182,1,108.499996688843,0|0,0:0|0:0,0:0:0:0:
201,129,257411,2,0,P|236:122|257:123,1,54.2499983444214,0|0,0:0|0:0,0:0:0:0:
353,131,257696,1,0,0:0:0:0:
353,131,258125,22,0,L|361:259,1,108.499996688843,0|0,0:0|0:0,0:0:0:0:
419,356,258553,2,0,L|432:299,1,54.2499983444214,0|0,0:0|0:0,0:0:0:0:
501,234,258839,1,0,0:0:0:0:
501,234,259268,22,0,P|479:192|476:132,1,108.499996688843,0|0,0:0|0:0,0:0:0:0:
424,41,259696,2,0,P|401:66|391:92,1,54.2499983444214,0|0,0:0|0:0,0:0:0:0:
369,180,259982,1,0,0:0:0:0:
369,180,260411,22,0,P|316:163|258:166,1,108.499996688843,0|0,0:0|0:0,0:0:0:0:
183,220,260839,2,0,P|156:224|124:223,1,54.2499983444214,0|0,0:0|0:0,0:0:0:0:
48,166,261125,38,0,L|27:162,1,18.0833327814738,0|0,0:0|0:0,0:0:0:0:
133,319,261268,2,0,L|112:323,1,18.0833327814738,0|0,0:0|0:0,0:0:0:0:
193,97,261411,2,0,L|172:93,1,18.0833327814738,0|0,0:0|0:0,0:0:0:0:
322,252,261553,2,0,L|301:256,1,18.0833327814738,0|0,0:0|0:0,0:0:0:0:
432,107,261696,22,0,L|326:99,1,85.2500026016236,8|0,0:0|0:0,0:0:0:0:
270,38,261982,1,0,1:2:0:0:
397,345,262125,22,0,L|291:353,1,85.2500026016236,8|0,0:0|0:0,0:0:0:0:
464,276,262411,1,0,1:2:0:0:
306,153,262553,1,8,0:0:0:0:
404,113,262696,38,0,L|319:124,2,85.2500026016236,0|8|0,0:0|0:0|0:0,0:0:0:0:
502,193,263125,6,0,L|513:278,1,85.2500026016236,0|0,1:2|0:0,0:0:0:0:
495,110,263411,21,0,1:2:0:0:
358,292,263553,1,8,0:0:0:0:
307,49,263696,1,0,1:2:0:0:
68,235,263839,22,0,B|106:232|142:242|142:242|163:216|163:216|201:224|248:215,1,174.375006651879,4|0,1:2|0:0,0:0:0:0:
255,236,264125,1,0,1:2:0:0:
419,36,264268,2,0,P|367:20|286:18,1,116.250004434586
502,193,264553,2,0,P|503:254|493:313,1,116.250004434586
235,108,264839,2,0,P|178:125|125:162,1,116.250004434586
357,340,265125,22,0,B|350:269|350:269|371:227|371:227|360:107,1,201.499990776062,4|8,1:2|0:0,0:0:0:0:
354,45,265553,1,0,1:2:0:0:
74,181,265696,2,0,P|125:180|179:191,1,100.749995388031,0|0,1:2|0:0,0:0:0:0:
263,230,265982,1,8,0:0:0:0:
215,40,266125,22,0,B|206:155|283:125|261:243,1,201.499990776062,0|0,1:2|0:0,0:0:0:0:
342,340,266553,2,0,P|349:296|372:254,1,85.2500026016236,8|0,0:0|0:0,0:0:0:0:
154,167,266839,2,0,P|131:207|95:239,1,85.2500026016236,0|0,1:2|1:2,0:0:0:0:
0,277,267125,1,8,0:0:0:0:
25,87,267268,1,0,0:0:0:0:
205,310,267411,22,0,P|217:238|294:174,1,170.500005203247,4|0,1:2|0:0,0:0:0:0:
505,350,267839,2,0,P|488:296|397:266,1,151.124993082047,4|0,1:2|0:0,0:0:0:0:
382,286,268125,1,0,1:2:0:0:
339,41,268268,1,8,0:0:0:0:
123,242,268411,2,0,B|158:167|111:113|111:113|77:131|69:177,1,201.499990776062,4|0,1:2|0:0,0:0:0:0:
19,281,268839,6,0,P|34:312|67:333,1,69.749997871399,8|0,0:0|0:0,0:0:0:0:
250,134,269125,2,0,P|230:163|228:202,1,69.749997871399,8|0,0:0|0:0,0:0:0:0:
399,340,269411,2,0,P|410:308|401:270,1,69.749997871399,8|0,0:0|0:0,0:0:0:0:
508,122,269696,6,0,B|442:141|442:141|372:88,1,116.250004434586,4|0,1:2|0:0,0:0:0:0:
305,35,269982,2,0,B|269:4|269:4|199:18,1,116.250004434586,8|0,0:0|0:0,0:0:0:0:
7,102,270268,2,0,B|67:137|67:137|114:124,1,116.250004434586,0|0,1:2|0:0,0:0:0:0:
236,217,270553,2,0,P|295:192|380:217,1,127.875003902435,8|0,0:0|0:0,0:0:0:0:
385,187,270839,22,0,L|390:296,1,100.749995388031,0|0,1:2|0:0,0:0:0:0:
465,132,271125,1,8,0:0:0:0:
254,244,271268,2,0,L|259:135,1,100.749995388031,0|0,1:2|0:0,0:0:0:0:
262,44,271553,1,8,0:0:0:0:
38,193,271696,2,0,B|108:212|135:183|135:178|164:138|249:172,1,201.499990776062,4|0,1:2|0:0,0:0:0:0:
229,165,272125,1,0,1:2:0:0:
360,345,272268,22,0,P|339:302|335:247,1,100.749995388031,8|0,0:0|0:0,0:0:0:0:
170,23,272553,2,0,P|166:58|148:98,2,69.749997871399,0|8|0,1:2|0:0|1:2,0:0:0:0:
9,277,272982,22,0,B|72:272|72:272|103:253|103:253|198:245,1,151.124993082047,4|0,1:2|0:0,0:0:0:0:
181,265,273268,1,0,1:2:0:0:
283,100,273411,2,0,P|277:44|259:-3,1,100.749995388031,8|0,0:0|0:0,0:0:0:0:
263,296,273696,2,0,P|283:348|312:389,1,100.749995388031,8|0,0:0|0:0,0:0:0:0:
404,53,273982,2,0,P|448:37|508:36,1,100.749995388031,8|0,0:0|0:0,0:0:0:0:
508,296,274268,22,0,P|493:212|529:101,1,170.500005203247,4|0,1:2|0:0,0:0:0:0:
512,131,274696,1,0,1:2:0:0:
287,209,274839,22,0,P|316:129|402:51,1,170.500005203247,4|0,1:2|0:0,0:0:0:0:
373,68,275268,1,0,1:2:0:0:
210,94,275411,22,0,L|111:72,1,85.2500026016236,0|0,1:2|0:0,0:0:0:0:
308,233,275696,2,0,L|407:211,1,85.2500026016236,8|0,0:0|0:0,0:0:0:0:
149,308,275982,2,0,L|51:292,1,85.2500026016236,0|0,1:2|1:2,0:0:0:0:
232,384,276268,1,8,0:0:0:0:
306,114,276411,22,0,P|325:191|409:242,1,170.500005203247,4|0,1:2|0:0,0:0:0:0:
192,207,276839,22,0,P|148:212|98:237,1,85.2500026016236,8|0,0:0|0:0,0:0:0:0:
49,306,277125,1,0,1:2:0:0:
108,42,277268,2,0,P|112:92|128:136,1,85.2500026016236,8|0,0:0|0:0,0:0:0:0:
432,257,277553,22,0,B|395:260|364:245|364:245|336:259|336:259|303:238|262:249,1,174.375006651879,4|0,1:2|0:0,0:0:0:0:
241,266,277839,1,0,1:2:0:0:
131,68,277982,2,0,P|83:53|23:52,1,100.749995388031,8|0,0:0|0:0,0:0:0:0:
302,152,278268,2,0,P|351:140|403:111,1,100.749995388031,8|0,0:0|0:0,0:0:0:0:
141,286,278553,2,0,P|126:333|124:394,1,100.749995388031,8|0,0:0|0:0,0:0:0:0:
36,185,278839,22,0,P|120:189|215:131,1,170.500005203247,4|8,1:2|0:0,0:0:0:0:
306,8,279268,2,0,P|312:52|335:100,1,85.2500026016236,0|0,1:2|0:0,0:0:0:0:
512,219,279553,2,0,P|447:204|367:218,1,139.499995742798,0|0,1:2|0:0,0:0:0:0:
230,228,279982,22,0,L|221:327,1,85.2500026016236,0|0,1:2|0:0,0:0:0:0:
30,156,280268,2,0,L|39:255,1,85.2500026016236,8|0,0:0|0:0,0:0:0:0:
291,83,280553,2,0,L|300:182,1,85.2500026016236,0|0,1:2|1:2,0:0:0:0:
187,39,280839,1,8,0:0:0:0:
511,271,280982,6,0,P|447:232|350:244,1,170.500005203247,4|0,1:2|0:0,0:0:0:0:
211,167,281411,2,0,P|211:218|221:267,1,85.2500026016236,8|0,0:0|0:0,0:0:0:0:
247,346,281696,1,0,1:2:0:0:
420,128,281839,2,0,L|316:113,1,85.2500026016236,8|0,0:0|0:0,0:0:0:0:
48,330,282125,22,0,L|63:152,1,170.500005203247,0|0,1:2|0:0,0:0:0:0:
40,13,282553,2,0,L|126:27,1,85.2500026016236,8|0,0:0|0:0,0:0:0:0:
263,5,282839,1,0,1:2:0:0:
172,247,282982,6,0,P|186:197|232:154,1,104.624996807098,8|0,0:0|0:0,0:0:0:0:
219,128,283268,22,0,L|310:154,1,92.9999971618653,4|0,1:2|0:0,0:0:0:0:
366,222,283696,21,8,0:0:0:0:
74,273,283839,1,0,0:0:0:0:
346,305,283982,21,8,0:0:0:0:
84,164,284125,1,0,0:0:0:0:
402,141,284268,21,8,0:0:0:0:
149,232,284411,1,0,0:0:0:0:
448,252,284553,21,8,0:0:0:0:
311,46,284696,1,0,0:0:0:0:
231,320,284839,21,8,0:0:0:0:
182,61,284982,1,0,0:0:0:0:
24,246,285125,21,8,0:0:0:0:
57,8,285268,1,0,0:0:0:0:
106,345,285411,21,8,0:0:0:0:
18,116,285553,1,0,0:0:0:0:
334,302,285696,22,0,L|200:288,2,116.250004434586,0|0|8,1:2|1:2|0:0,0:0:0:0:
136,181,286125,1,0,1:2:0:0:
415,70,286268,2,0,P|421:142|452:202,1,116.250004434586,0|8,1:2|0:0,0:0:0:0:
230,46,286553,1,0,1:2:0:0:
327,333,286696,22,0,B|320:271|320:271|333:238|333:238|326:158,1,174.375006651879,4|0,1:2|0:0,0:0:0:0:
315,78,286982,1,0,1:2:0:0:
213,211,287125,1,8,0:0:0:0:
120,31,287268,1,0,1:2:0:0:
36,241,287411,1,8,0:0:0:0:
142,8,287553,22,0,L|150:97,1,85.2500026016236,0|0,1:2|0:0,0:0:0:0:
310,302,287839,22,0,P|365:268|442:279,1,139.499995742798,4|0,1:2|0:0,0:0:0:0:
499,352,288268,21,8,0:0:0:0:
413,85,288411,1,0,0:0:0:0:
292,328,288553,21,8,0:0:0:0:
322,39,288696,1,0,0:0:0:0:
149,326,288839,21,8,0:0:0:0:
129,82,288982,1,0,0:0:0:0:
316,307,289125,21,8,0:0:0:0:
52,233,289268,1,0,0:0:0:0:
404,181,289411,21,8,0:0:0:0:
172,197,289553,1,0,0:0:0:0:
433,291,289696,21,8,0:0:0:0:
353,49,289839,1,0,0:0:0:0:
190,319,289982,21,8,0:0:0:0:
212,57,290125,1,0,0:0:0:0:
316,346,290268,21,8,0:0:0:0:
125,127,290411,2,0,L|107:252,2,100.749995388031,0|0|0,1:2|1:2|0:0,0:0:0:0:
171,344,290839,1,8,0:0:0:0:
230,30,290982,2,0,P|239:85|272:134,1,104.624996807098,0|0,1:2|0:0,0:0:0:0:
260,159,291268,6,0,P|332:142|424:167,1,151.124993082047,0|0,1:2|0:0,0:0:0:0:
468,215,291553,1,0,1:2:0:0:
357,57,291696,1,8,0:0:0:0:
271,258,291839,1,0,1:2:0:0:
127,118,291982,1,8,0:0:0:0:
11,339,292125,6,0,L|106:352,1,85.2500026016236,0|0,1:2|0:0,0:0:0:0:
250,60,292411,22,0,P|261:135|311:195,1,139.499995742798,4|0,1:2|0:0,0:0:0:0:
385,232,292839,21,8,0:0:0:0:
184,177,292982,1,0,0:0:0:0:
400,76,293125,1,0,1:2:0:0:
195,287,293268,21,0,1:2:0:0:
266,28,293411,1,8,0:0:0:0:
512,302,293553,22,0,L|364:325,1,139.499995742798,4|0,1:2|0:0,0:0:0:0:
230,177,293982,21,8,0:0:0:0:
278,366,294125,1,0,1:2:0:0:
388,171,294268,21,8,0:0:0:0:
165,301,294411,1,0,0:0:0:0:
161,56,294553,1,0,1:2:0:0:
295,281,294696,22,0,P|246:232|156:220,1,139.499995742798,4|0,1:2|0:0,0:0:0:0:
85,242,295125,21,8,0:0:0:0:
256,121,295268,1,0,0:0:0:0:
246,363,295411,1,0,1:2:0:0:
141,80,295553,21,0,1:2:0:0:
160,313,295696,1,8,0:0:0:0:
375,71,295839,22,0,L|397:226,1,139.499995742798,4|0,1:2|0:0,0:0:0:0:
452,290,296268,21,8,0:0:0:0:
112,167,296411,1,0,1:2:0:0:
311,329,296553,21,8,0:0:0:0:
227,64,296696,1,0,0:0:0:0:
35,294,296839,1,0,1:2:0:0:
187,0,296982,22,0,P|203:73|183:156,1,139.499995742798,4|0,1:2|0:0,0:0:0:0:
114,210,297411,21,8,0:0:0:0:
363,174,297553,1,0,0:0:0:0:
112,67,297696,21,0,1:2:0:0:
253,276,297839,1,0,1:2:0:0:
332,35,297982,1,8,0:0:0:0:
124,326,298125,22,0,L|138:158,1,139.499995742798,4|0,1:2|0:0,0:0:0:0:
124,93,298553,21,8,0:0:0:0:
272,252,298696,1,0,0:0:0:0:
306,20,298839,1,8,0:0:0:0:
123,217,298982,21,0,1:2:0:0:
376,146,299125,1,0,1:2:0:0:
48,0,299268,22,0,P|27:62|40:134,1,139.499995742798,4|0,1:2|0:0,0:0:0:0:
92,218,299696,21,8,0:0:0:0:
209,22,299839,1,0,0:0:0:0:
234,243,299982,21,0,1:2:0:0:
119,60,300125,1,0,1:2:0:0:
329,20,300268,1,8,0:0:0:0:
16,301,300411,6,0,L|175:313,1,139.499995742798,0|0,1:2|0:0,0:0:0:0:
310,363,300839,2,0,L|305:266,1,69.749997871399,8|0,0:0|0:0,0:0:0:0:
174,117,301125,2,0,L|169:214,2,69.749997871399,0|0|8,1:2|1:2|0:0,0:0:0:0:
307,0,301553,6,0,P|318:52|364:109,1,108.499996688843,6|0,1:2|0:0,0:0:0:0:
490,257,301982,2,0,P|491:220|484:184,1,69.749997871399,10|0,0:0|0:0,0:0:0:0:
452,89,302268,1,2,1:2:0:0:
241,265,302411,2,0,L|329:279,1,69.749997871399,2|8,0:0|0:0,0:0:0:0:
188,69,302696,6,0,P|127:97|51:84,1,139.499995742798,6|0,1:2|0:0,0:0:0:0:
61,315,303125,2,0,P|62:279|72:248,1,69.749997871399,10|0,0:0|0:0,0:0:0:0:
165,182,303411,1,2,1:2:0:0:
230,370,303553,2,0,L|330:374,1,81.3749975166321,10|0,0:0|0:0,0:0:0:0:
348,384,303839,6,0,L|369:235,1,139.499995742798,4|0,1:2|0:0,0:0:0:0:
433,141,304268,2,0,P|394:142|356:135,1,69.749997871399,8|0,0:0|0:0,0:0:0:0:
277,91,304553,5,8,0:0:0:0:
245,313,304696,1,0,1:2:0:0:
85,149,304839,1,8,0:0:0:0:
0,351,304982,6,0,P|47:305|133:285,1,139.499995742798,4|0,1:2|0:0,0:0:0:0:
269,226,305411,2,0,P|266:262|271:302,1,69.749997871399,8|0,0:0|0:0,0:0:0:0:
101,120,305696,2,0,P|89:155|67:186,1,69.749997871399,8|0,0:0|0:0,0:0:0:0:
191,58,305982,1,0,1:2:0:0:
398,264,306125,6,0,L|394:117,1,139.499995742798,4|0,1:2|0:0,0:0:0:0:
302,35,306553,2,0,L|293:131,1,85.2500026016236,8|0,0:0|0:0,0:0:0:0:
217,278,306839,2,0,L|209:184,2,69.749997871399,0|0|8,1:2|1:2|0:0,0:0:0:0:
88,63,307268,6,0,P|129:91|187:100,1,104.624996807098,4|0,1:2|0:0,0:0:0:0:
212,86,307553,1,0,1:2:0:0:
63,204,307696,2,0,L|54:291,1,69.749997871399,8|0,0:0|0:0,0:0:0:0:
222,347,307982,21,8,0:0:0:0:
201,320,308053,1,0,1:2:0:0:
189,287,308125,1,0,1:2:0:0:
184,253,308196,1,0,1:2:0:0:
189,219,308268,1,0,1:2:0:0:
463,273,308411,22,0,P|396:286|323:265,1,139.499995742798,4|0,1:2|0:0,0:0:0:0:
283,181,308839,1,8,0:0:0:0:
304,288,308982,1,0,1:2:0:0:
402,99,309125,22,0,P|402:139|391:177,2,77.5,8|0|0,0:0|0:0|0:0,0:0:0:0:
345,24,309411,1,0,1:2:0:0:
226,18,309506,22,0,P|211:47|258:34,2,92.9999971618653,8|0|0,0:0|0:0|0:0,0:0:0:0:
188,186,309791,22,0,P|149:178|169:202,2,92.9999971618653,0|0|0,1:2|0:0|0:0,0:0:0:0:
97,62,310077,22,0,P|68:74|93:52,2,92.9999971618653,0|0|0,1:2|0:0|0:0,0:0:0:0:
97,62,310411,1,0,1:2:0:0:
103,166,310553,1,8,0:0:0:0:
109,270,310696,6,0,L|236:265,1,108.499996688843,4|0,0:0|0:0,0:0:0:0:
299,355,311125,2,0,L|306:287,1,54.2499983444214,0|0,0:0|0:0,0:0:0:0:
320,202,311411,1,0,0:0:0:0:
320,202,311839,22,0,P|264:192|213:157,1,108.499996688843,0|0,0:0|0:0,0:0:0:0:
128,94,312268,2,0,P|131:133|128:158,1,54.2499983444214,0|0,0:0|0:0,0:0:0:0:
104,243,312553,1,0,0:0:0:0:
104,243,312982,22,0,L|222:254,1,108.499996688843,0|0,0:0|0:0,0:0:0:0:
304,219,313411,2,0,L|311:291,1,54.2499983444214,0|0,0:0|0:0,0:0:0:0:
293,370,313696,1,0,0:0:0:0:
293,370,314125,22,0,P|339:345|397:342,1,108.499996688843,0|0,0:0|0:0,0:0:0:0:
479,291,314553,2,0,P|486:256|485:235,1,54.2499983444214,0|0,0:0|0:0,2:0:0:0:
464,140,314839,1,0,0:0:0:0:
464,140,315268,22,0,L|336:148,1,108.499996688843,0|0,0:0|0:0,0:0:0:0:
239,206,315696,2,0,L|296:219,1,54.2499983444214,0|0,0:0|0:0,0:0:0:0:
361,288,315982,1,0,0:0:0:0:
361,288,316411,22,0,P|308:302|267:346,1,108.499996688843,0|0,0:0|0:0,0:0:0:0:
186,384,316839,2,0,P|175:351|158:329,1,54.2499983444214,0|0,0:0|0:0,0:0:0:0:
90,271,317125,1,0,0:0:0:0:
90,271,317553,22,0,P|144:259|193:227,1,108.499996688843,0|0,0:0|0:0,0:0:0:0:
231,143,317982,2,0,P|252:126|280:110,1,54.2499983444214,0|0,0:0|0:0,0:0:0:0:
406,162,318268,2,0,P|419:181|430:208,2,38.75,0|0|0,0:0|0:0|0:0,0:0:0:0:
379,140,318696,2,0,L|385:13,1,116.25,0|0,0:0|0:0,0:0:0:0:
