osu file format v14

[General]
AudioFilename: audio.mp3
AudioLeadIn: 0
PreviewTime: 68961
Countdown: 0
SampleSet: Soft
StackLeniency: 0.4
Mode: 0
LetterboxInBreaks: 0
WidescreenStoryboard: 0

[Editor]
Bookmarks: 317795,318501,319207,319913,320619,321325,322030,322736,323442,324148,324854,325560,326266,326972,327677,328383
DistanceSpacing: 1
BeatDivisor: 4
GridSize: 8
TimelineZoom: 1.9

[Metadata]
Title:Akaito
TitleUnicode:アカイト
Artist:620
ArtistUnicode:620
Creator:Maffe
Version:Blooming Flower
Source:
Tags:red thread hatsune miku 620 utaite mikito-p chris shobon tomodachiboshuu-p
BeatmapID:1564537
BeatmapSetID:741604

[Difficulty]
HPDrainRate:6
CircleSize:4
OverallDifficulty:8
ApproachRate:9.2
SliderMultiplier:1.7
SliderTickRate:1

[Events]
//Background and Video events
0,0,"akaitobg.jpg",0,0
//Break Periods
2,243514,253125
//Storyboard Layer 0 (Background)
//Storyboard Layer 1 (Fail)
//Storyboard Layer 2 (Pass)
//Storyboard Layer 3 (Foreground)
//Storyboard Layer 4 (Overlay)
//Storyboard Sound Samples

[TimingPoints]
667,352.941176470588,4,2,1,80,1,0
667,-142.857142857143,4,2,1,80,0,0
3137,-142.857142857143,4,2,1,40,0,0
3490,-142.857142857143,4,2,1,80,0,0
5961,-200,4,2,1,60,0,0
6225,-200,4,2,1,5,0,0
6314,-200,4,2,1,50,0,0
7019,-200,4,2,1,60,0,0
7725,-200,4,2,1,70,0,0
8431,-200,4,2,1,80,0,0
9137,-142.857142857143,4,2,1,50,0,0
10549,-90.909090909091,4,2,1,50,0,0
10814,-90.909090909091,4,2,1,5,0,0
10902,-76.9230769230769,4,2,1,60,0,0
11166,-76.9230769230769,4,2,1,5,0,0
11255,-66.6666666666667,4,2,1,70,0,0
11519,-66.6666666666667,4,2,1,5,0,0
11608,-66.6666666666667,4,2,1,70,0,0
11784,-58.8235294117647,4,2,1,80,0,0
12049,-58.8235294117647,4,2,1,5,0,0
12137,-58.8235294117647,4,2,1,80,0,0
12314,-66.6666666666667,4,2,1,80,0,0
13637,-66.6666666666667,4,2,1,5,0,0
13725,-111.111111111111,4,2,1,80,0,0
14608,-66.6666666666667,4,2,1,80,0,0
14872,-66.6666666666667,4,2,1,5,0,0
14961,-66.6666666666667,4,2,1,80,0,0
16196,-76.9230769230769,4,2,1,80,0,0
16461,-76.9230769230769,4,2,1,5,0,0
16549,-111.111111111111,4,2,1,80,0,0
16902,-76.9230769230769,4,2,1,80,0,0
17166,-76.9230769230769,4,2,1,5,0,0
17255,-76.9230769230769,4,2,1,80,0,0
17431,-66.6666666666667,4,2,1,80,0,0
17696,-66.6666666666667,4,2,1,5,0,0
17784,-66.6666666666667,4,2,1,80,0,0
19725,-200,4,2,1,80,0,0
19902,-200,4,2,1,80,0,0
20078,-66.6666666666667,4,2,1,80,0,0
20343,-66.6666666666667,4,2,1,5,0,0
20431,-66.6666666666667,4,2,1,70,0,0
20961,-66.6666666666667,4,2,1,60,0,0
21490,-66.6666666666667,4,2,1,50,0,0
23078,-76.9230769230769,4,2,1,60,0,0
23343,-76.9230769230769,4,2,1,5,0,0
23431,-76.9230769230769,4,2,1,60,0,0
23608,-90.9090909090909,4,2,1,60,0,0
26166,-90.9090909090909,4,2,1,5,0,0
26255,-90.9090909090909,4,2,1,60,0,0
26784,-200,4,2,1,60,0,0
27137,-90.9090909090909,4,2,1,60,0,0
28725,-111.111111111111,4,2,1,60,0,0
28990,-111.111111111111,4,2,1,5,0,0
29078,-111.111111111111,4,2,1,60,0,0
29255,-90.9090909090909,4,2,1,60,0,0
29519,-90.9090909090909,4,2,1,5,0,0
29608,-90.9090909090909,4,2,1,60,0,0
31814,-90.9090909090909,4,2,1,5,0,0
31902,-90.9090909090909,4,2,1,60,0,0
34372,-76.9230769230769,4,2,1,70,0,0
34637,-76.9230769230769,4,2,1,5,0,0
34725,-76.9230769230769,4,2,1,70,0,0
35255,-90.9090909090909,4,2,1,70,0,0
35961,-76.9230769230769,4,2,1,70,0,0
37461,-76.9230769230769,4,2,1,5,0,0
37549,-76.9230769230769,4,2,1,70,0,0
38961,-90.9090909090909,4,2,1,70,0,0
40019,-76.9230769230769,4,2,1,70,0,0
40284,-76.9230769230769,4,2,1,5,0,0
40372,-76.9230769230769,4,2,1,70,0,0
41784,-90.9090909090909,4,2,1,70,0,0
42843,-76.9230769230769,4,2,1,70,0,0
43108,-76.9230769230769,4,2,1,5,0,0
43196,-76.9230769230769,4,2,1,70,0,0
45137,-90.9090909090909,4,2,1,70,0,0
45402,-90.9090909090909,4,2,1,5,0,0
45490,-90.9090909090909,4,2,1,70,0,0
45666,-76.9230769230769,4,2,1,60,0,0
45931,-76.9230769230769,4,2,1,5,0,0
46019,-76.9230769230769,4,2,1,60,0,0
46196,-90.9090909090909,4,2,1,60,0,0
46814,-90.9090909090909,4,2,1,5,0,0
46902,-90.9090909090909,4,2,1,60,0,0
47166,-90.9090909090909,4,2,1,5,0,0
47255,-90.9090909090909,4,2,1,60,0,0
47696,-90.9090909090909,4,2,1,5,0,0
47784,-90.9090909090909,4,2,1,60,0,0
48490,-90.9090909090909,4,2,1,60,0,0
49637,-90.9090909090909,4,2,1,5,0,0
49725,-90.9090909090909,4,2,1,60,0,0
50078,-111.111111111111,4,2,1,60,0,0
50784,-111.111111111111,4,2,3,60,0,0
50872,-111.111111111111,4,2,1,60,0,0
51314,-76.9230769230769,4,2,1,60,0,0
51578,-76.9230769230769,4,2,1,5,0,0
51666,-76.9230769230769,4,2,1,60,0,0
51843,-90.9090909090909,4,2,1,60,0,0
52814,-90.9090909090909,4,2,1,5,0,0
52902,-90.9090909090909,4,2,1,60,0,0
53519,-90.9090909090909,4,2,1,5,0,0
53608,-90.9090909090909,4,2,1,60,0,0
54402,-90.9090909090909,4,2,1,5,0,0
54490,-90.9090909090909,4,2,1,60,0,0
54931,-90.9090909090909,4,2,1,5,0,0
55019,-90.9090909090909,4,2,1,60,0,0
55549,-90.9090909090909,4,2,1,60,0,0
55725,-111.111111111111,4,2,1,60,0,0
56078,-90.9090909090909,4,2,3,60,0,0
56166,-90.9090909090909,4,2,1,60,0,0
56255,-90.9090909090909,4,2,1,60,0,0
56961,-76.9230769230769,4,2,1,70,0,0
57225,-76.9230769230769,4,2,1,5,0,0
57314,-76.9230769230769,4,2,1,70,0,0
57490,-90.9090909090909,4,2,1,70,0,0
60049,-90.9090909090909,4,2,1,5,0,0
60137,-90.9090909090909,4,2,1,70,0,0
61637,-90.9090909090909,4,2,1,5,0,0
61725,-111.111111111111,4,2,1,70,0,0
62255,-90.9090909090909,4,2,1,70,0,0
62784,-90.9090909090909,4,2,1,60,0,0
69137,-66.6666666666667,4,2,1,5,0,0
69666,-58.8235294117647,4,2,1,80,0,1
69931,-58.8235294117647,4,2,1,5,0,1
70019,-58.8235294117647,4,2,1,80,0,1
70196,-66.6666666666667,4,2,1,80,0,1
72490,-66.6666666666667,4,2,1,80,0,1
72755,-66.6666666666667,4,2,1,5,0,1
72843,-66.6666666666667,4,2,1,80,0,1
73637,-66.6666666666667,4,2,1,5,0,1
73725,-66.6666666666667,4,2,1,80,0,1
74784,-66.6666666666667,4,2,1,60,0,0
75314,-66.6666666666667,4,2,1,60,0,0
75578,-66.6666666666667,4,2,1,5,0,0
75666,-66.6666666666667,4,2,1,60,0,0
75843,-76.9230769230769,4,2,1,60,0,0
76108,-76.9230769230769,4,2,1,5,0,0
76196,-76.9230769230769,4,2,1,60,0,0
77519,-76.9230769230769,4,2,1,5,0,0
77608,-76.9230769230769,4,2,1,60,0,0
78137,-90.9090909090909,4,2,1,60,0,0
79549,-76.9230769230769,4,2,1,60,0,0
79814,-76.9230769230769,4,2,1,5,0,0
79902,-76.9230769230769,4,2,1,60,0,0
80078,-90.9090909090909,4,2,1,60,0,0
80961,-66.6666666666667,4,2,1,80,0,1
81225,-66.6666666666667,4,2,1,5,0,1
81314,-66.6666666666667,4,2,1,80,0,1
82108,-66.6666666666667,4,2,1,5,0,1
82196,-66.6666666666667,4,2,1,80,0,1
83784,-66.6666666666667,4,2,1,80,0,1
84049,-66.6666666666667,4,2,1,5,0,1
84137,-66.6666666666667,4,2,1,80,0,1
85196,-76.9230769230769,4,2,1,60,0,0
85902,-111.111111111111,4,2,1,60,0,0
86784,-90.9090909090909,4,2,1,60,0,0
87049,-90.9090909090909,4,2,1,5,0,0
87137,-111.111111111111,4,2,1,60,0,0
87843,-90.9090909090908,4,2,1,60,0,0
89872,-90.9090909090908,4,2,1,5,0,0
89961,-90.9090909090908,4,2,1,60,0,0
91284,-90.9090909090908,4,2,1,5,0,0
91372,-90.9090909090908,4,2,1,60,0,0
92431,-76.9230769230769,4,2,1,60,0,0
92696,-76.9230769230769,4,2,1,5,0,0
92784,-90.9090909090909,4,2,1,60,0,0
94461,-90.9090909090909,4,2,1,5,0,0
94549,-90.9090909090909,4,2,1,60,0,0
95078,-66.6666666666667,4,2,1,70,0,0
95343,-66.6666666666667,4,2,1,5,0,0
95431,-66.6666666666667,4,2,1,70,0,0
95608,-76.9230769230769,4,2,1,70,0,0
96931,-76.9230769230769,4,2,1,5,0,0
97019,-90.9090909090909,4,2,1,70,0,0
97902,-76.9230769230769,4,2,1,70,0,0
98166,-76.9230769230769,4,2,1,5,0,0
98255,-76.9230769230769,4,2,1,70,0,0
99755,-76.9230769230769,4,2,1,5,0,0
99843,-90.9090909090909,4,2,1,70,0,0
100372,-90.9090909090909,4,2,1,70,0,0
100725,-76.9230769230769,4,2,1,70,0,0
100990,-76.9230769230769,4,2,1,5,0,0
101078,-76.9230769230769,4,2,1,70,0,0
101255,-90.9090909090909,4,2,1,70,0,0
102578,-90.9090909090909,4,2,1,5,0,0
102666,-111.111111111111,4,2,1,70,0,0
103196,-111.111111111111,4,2,1,70,0,0
103372,-90.9090909090909,4,2,1,70,0,0
103637,-90.9090909090909,4,2,1,5,0,0
103725,-90.9090909090909,4,2,1,60,0,0
106372,-76.9230769230769,4,2,1,60,0,0
106637,-76.9230769230769,4,2,1,5,0,0
106725,-76.9230769230769,4,2,1,60,0,0
106902,-90.9090909090909,4,2,1,60,0,0
107519,-90.9090909090909,4,2,1,5,0,0
107608,-90.9090909090909,4,2,1,60,0,0
109461,-90.9090909090909,4,2,1,5,0,0
109549,-90.9090909090909,4,2,1,60,0,0
112019,-111.111111111111,4,2,1,60,0,0
112284,-111.111111111111,4,2,1,5,0,0
112372,-111.111111111111,4,2,1,60,0,0
112549,-90.9090909090909,4,2,1,60,0,0
115108,-90.9090909090909,4,2,1,5,0,0
115196,-90.9090909090909,4,2,1,60,0,0
117666,-76.9230769230769,4,2,1,60,0,0
117931,-76.9230769230769,4,2,1,5,0,0
118019,-76.9230769230769,4,2,1,60,0,0
118549,-90.9090909090909,4,2,1,60,0,0
119255,-76.9230769230769,4,2,1,60,0,0
120755,-76.9230769230769,4,2,1,5,0,0
120843,-76.9230769230769,4,2,1,60,0,0
122078,-90.9090909090909,4,2,1,60,0,0
123314,-76.9230769230769,4,2,1,60,0,0
123578,-76.9230769230769,4,2,1,5,0,0
123666,-76.9230769230769,4,2,1,60,0,0
124902,-90.9090909090909,4,2,1,60,0,0
126137,-76.9230769230769,4,2,1,60,0,0
126402,-76.9230769230769,4,2,1,5,0,0
126490,-76.9230769230769,4,2,1,60,0,0
128343,-76.9230769230769,4,2,3,60,0,0
128519,-76.9230769230769,4,2,1,60,0,0
128961,-76.9230769230769,4,2,1,60,0,0
129225,-76.9230769230769,4,2,1,5,0,0
129314,-76.9230769230769,4,2,1,60,0,0
129490,-90.9090909090909,4,2,1,60,0,0
130108,-90.9090909090909,4,2,1,5,0,0
130196,-90.9090909090909,4,2,1,60,0,0
130461,-90.9090909090909,4,2,1,5,0,0
130549,-90.9090909090909,4,2,1,60,0,0
130990,-90.9090909090909,4,2,1,5,0,0
131078,-90.9090909090909,4,2,1,60,0,0
131431,-90.9090909090909,4,2,1,60,0,0
132931,-90.9090909090909,4,2,1,5,0,0
133019,-90.9090909090909,4,2,1,60,0,0
133372,-111.111111111111,4,2,1,60,0,0
134608,-76.9230769230769,4,2,1,60,0,0
134872,-76.9230769230769,4,2,1,5,0,0
134961,-76.9230769230769,4,2,1,60,0,0
135137,-111.111111111111,4,2,1,60,0,0
135843,-90.9090909090908,4,2,1,60,0,0
136108,-90.9090909090909,4,2,1,5,0,0
136196,-90.9090909090909,4,2,1,60,0,0
136814,-90.9090909090909,4,2,1,5,0,0
136902,-90.9090909090909,4,2,1,60,0,0
137696,-90.9090909090909,4,2,1,5,0,0
137784,-90.9090909090909,4,2,1,60,0,0
138225,-90.9090909090909,4,2,1,5,0,0
138314,-90.9090909090909,4,2,1,60,0,0
139902,-90.9090909090909,4,2,3,60,0,0
139990,-90.9090909090909,4,2,1,60,0,0
140255,-76.9230769230769,4,2,1,70,0,0
140519,-76.9230769230769,4,2,1,5,0,0
140608,-76.9230769230769,4,2,1,70,0,0
140784,-90.9090909090909,4,2,1,70,0,0
143343,-90.9090909090909,4,2,1,5,0,0
143431,-90.9090909090909,4,2,1,70,0,0
144490,-111.111111111111,4,2,1,70,0,0
145549,-90.9090909090909,4,2,1,70,0,0
146078,-76.9230769230769,4,2,1,60,0,0
151549,-76.9230769230769,4,2,1,5,0,0
151725,-111.111111111111,4,2,1,60,0,0
152078,-90.9090909090909,4,2,1,60,0,0
152431,-90.9090909090909,4,2,3,60,0,0
152961,-58.8235294117647,4,2,1,80,0,1
153225,-58.8235294117647,4,2,1,5,0,1
153314,-58.8235294117647,4,2,1,80,0,1
153490,-66.6666666666667,4,2,1,80,0,1
154108,-66.6666666666667,4,2,1,5,0,1
154196,-66.6666666666667,4,2,1,80,0,1
156049,-66.6666666666667,4,2,1,5,0,1
156137,-66.6666666666667,4,2,1,80,0,1
158078,-66.6666666666667,4,2,1,60,0,0
158608,-76.9230769230769,4,2,1,60,0,0
159314,-90.9090909090909,4,2,1,60,0,0
159578,-90.9090909090909,4,2,1,5,0,0
159666,-90.9090909090909,4,2,1,60,0,0
160019,-76.9230769230769,4,2,1,60,0,0
160549,-90.9090909090909,4,2,1,60,0,0
160814,-90.9090909090909,4,2,1,5,0,0
160902,-90.9090909090909,4,2,1,60,0,0
161431,-76.9230769230769,4,2,1,60,0,0
161961,-90.9090909090909,4,2,1,60,0,0
163108,-90.9090909090909,4,2,1,5,0,0
163196,-90.9090909090909,4,2,1,60,0,0
164255,-66.6666666666667,4,2,1,80,0,1
164519,-66.6666666666667,4,2,1,5,0,1
164608,-66.6666666666667,4,2,1,80,0,1
164784,-76.9230769230769,4,2,1,80,0,1
165402,-76.9230769230769,4,2,1,5,0,1
165490,-76.9230769230769,4,2,1,80,0,1
167078,-66.6666666666667,4,2,1,80,0,1
167343,-66.6666666666667,4,2,1,5,0,1
167431,-66.6666666666667,4,2,1,80,0,1
168137,-76.9230769230769,4,2,1,80,0,1
168490,-76.9230769230769,4,2,1,60,0,0
169196,-111.111111111111,4,2,1,60,0,0
170078,-90.9090909090909,4,2,1,60,0,0
170343,-90.9090909090909,4,2,1,5,0,0
170431,-111.111111111111,4,2,1,60,0,0
171137,-90.9090909090909,4,2,1,60,0,0
173166,-90.9090909090909,4,2,1,5,0,0
173255,-90.9090909090909,4,2,1,60,0,0
174666,-111.111111111111,4,2,1,60,0,0
175549,-76.9230769230769,4,2,1,60,0,0
175814,-76.9230769230769,4,2,1,5,0,0
175902,-76.9230769230769,4,2,1,60,0,0
176078,-90.9090909090909,4,2,1,60,0,0
176696,-90.9090909090909,4,2,1,5,0,0
176784,-111.111111111111,4,2,1,60,0,0
177137,-90.9090909090909,4,2,1,60,0,0
177402,-90.9090909090909,4,2,1,5,0,0
177490,-90.9090909090909,4,2,1,60,0,0
177755,-90.9090909090909,4,2,1,5,0,0
177843,-90.9090909090909,4,2,1,60,0,0
178108,-90.9090909090909,4,2,1,5,0,0
178196,-90.9090909090909,4,2,1,60,0,0
178372,-76.9230769230769,4,2,1,60,0,0
178637,-76.9230769230769,4,2,1,5,0,0
178725,-76.9230769230769,4,2,1,60,0,0
178902,-90.9090909090909,4,2,1,60,0,0
180225,-90.9090909090909,4,2,1,5,0,0
180314,-111.111111111111,4,2,1,60,0,0
181196,-76.9230769230769,4,2,1,60,0,0
181461,-76.9230769230769,4,2,1,5,0,0
181549,-76.9230769230769,4,2,1,60,0,0
181725,-90.9090909090909,4,2,1,60,0,0
182343,-90.9090909090909,4,2,1,5,0,0
182431,-111.111111111111,4,2,1,60,0,0
182784,-90.9090909090909,4,2,1,60,0,0
183049,-90.9090909090909,4,2,1,5,0,0
183137,-90.9090909090909,4,2,1,60,0,0
183402,-90.9090909090909,4,2,1,5,0,0
183490,-90.9090909090909,4,2,1,60,0,0
183755,-90.9090909090909,4,2,1,5,0,0
183843,-90.9090909090909,4,2,1,60,0,0
184019,-76.9230769230769,4,2,1,60,0,0
184284,-76.9230769230769,4,2,1,5,0,0
184372,-76.9230769230769,4,2,1,60,0,0
184549,-90.9090909090909,4,2,1,60,0,0
185608,-90.9090909090909,4,2,3,60,0,0
185784,-90.9090909090909,4,2,1,70,0,0
186314,-111.111111111111,4,2,1,70,0,0
186843,-90.9090909090908,4,2,1,70,0,0
187108,-90.9090909090908,4,2,1,5,0,0
187196,-90.9090909090908,4,2,1,70,0,0
189666,-111.111111111111,4,2,1,70,0,0
190196,-90.9090909090909,4,2,1,70,0,0
191078,-111.111111111111,4,2,1,70,0,0
191608,-90.9090909090909,4,2,1,70,0,0
192490,-111.111111111111,4,2,1,70,0,0
195314,-90.9090909090909,4,2,1,70,0,0
197696,-90.9090909090909,4,2,1,5,0,0
197784,-90.9090909090909,4,2,1,70,0,0
198137,-111.111111111111,4,2,1,50,0,0
198931,-111.111111111111,4,2,3,60,0,0
199108,-111.111111111111,4,2,1,60,0,0
200343,-111.111111111111,4,2,3,60,0,0
200696,-111.111111111111,4,2,1,60,0,0
201137,-90.9090909090908,4,2,1,60,0,0
201755,-90.9090909090908,4,2,3,60,0,0
202108,-90.9090909090908,4,2,1,60,0,0
203078,-90.9090909090908,4,2,3,60,0,0
203431,-90.909090909091,4,2,1,60,0,0
203784,-111.111111111111,4,2,1,60,0,0
204578,-111.111111111111,4,2,3,60,0,0
204755,-111.111111111111,4,2,1,60,0,0
205990,-111.111111111111,4,2,3,60,0,0
206343,-111.111111111111,4,2,1,60,0,0
207049,-111.111111111111,4,2,1,5,0,0
207137,-111.111111111111,4,2,1,60,0,0
207402,-111.111111111111,4,2,3,60,0,0
207755,-111.111111111111,4,2,1,60,0,0
208725,-142.857142857143,4,2,3,60,0,0
209078,-142.857142857143,4,2,1,60,0,0
209608,-142.857142857143,4,2,1,60,0,0
210314,-142.857142857143,4,2,3,60,0,0
210578,-142.857142857143,4,2,1,60,0,0
211549,-142.857142857143,4,2,3,60,0,0
211990,-142.857142857143,4,2,1,60,0,0
213137,-142.857142857143,4,2,3,60,0,0
213402,-142.857142857143,4,2,1,60,0,0
214372,-142.857142857143,4,2,3,60,0,0
214902,-142.857142857143,4,2,1,60,0,0
215255,-111.111111111111,4,2,1,60,0,0
217725,-142.857142857143,4,2,1,60,0,0
218078,-111.111111111111,4,2,1,60,0,0
218343,-111.111111111111,4,2,1,5,0,0
218431,-111.111111111111,4,2,1,60,0,0
218872,-111.111111111111,4,2,1,5,0,0
218961,-111.111111111111,4,2,1,60,0,0
219843,-90.9090909090909,4,2,1,60,0,0
220549,-90.9090909090909,4,2,3,60,0,0
220902,-200,4,2,1,60,0,0
229372,-142.857142857143,4,2,1,60,0,0
231843,-200,4,2,1,60,0,0
232108,-200,4,2,1,5,0,0
232196,-111.111111111111,4,2,1,60,0,0
232372,-111.111111111111,4,2,2,60,0,0
235019,-111.111111111111,4,2,1,60,0,0
235196,-111.111111111111,4,2,2,60,0,0
237490,-200,4,2,1,60,0,0
237755,-200,4,2,1,5,0,0
237843,-200,4,2,1,60,0,0
239255,-200,4,2,1,60,0,0
239961,-200,4,2,1,60,0,0
253725,-76.9230769230769,4,2,1,60,0,0
254608,-90.9090909090909,4,2,1,60,0,0
254872,-90.9090909090909,4,2,1,5,0,0
254961,-90.9090909090909,4,2,1,60,0,0
257696,-90.9090909090909,4,2,1,5,0,0
257784,-90.9090909090909,4,2,1,60,0,0
260431,-200,4,2,1,60,0,0
261843,-90.9090909090909,4,2,1,60,0,0
262196,-111.111111111111,4,2,1,60,0,0
262549,-111.111111111111,4,2,3,60,0,0
263078,-58.8235294117647,4,2,1,80,0,1
263343,-58.8235294117647,4,2,1,5,0,1
263431,-58.8235294117647,4,2,1,80,0,1
265019,-76.9230769230769,4,2,1,80,0,1
265284,-76.9230769230769,4,2,1,5,0,1
265372,-76.9230769230769,4,2,1,80,0,1
265902,-58.8235294117647,4,2,1,80,0,1
266166,-58.8235294117647,4,2,1,5,0,1
266255,-58.8235294117647,4,2,1,80,0,1
267049,-58.8235294117647,4,2,1,5,0,1
267137,-58.8235294117647,4,2,1,80,0,1
268196,-58.8235294117647,4,2,1,60,0,0
268725,-76.9230769230769,4,2,1,60,0,0
269519,-76.9230769230769,4,2,1,5,0,0
269608,-76.9230769230769,4,2,1,60,0,0
270931,-76.9230769230769,4,2,1,5,0,0
271019,-76.9230769230769,4,2,1,60,0,0
273225,-76.9230769230769,4,2,1,5,0,0
273314,-76.9230769230769,4,2,1,60,0,0
274372,-66.6666666666667,4,2,1,80,0,1
274637,-66.6666666666667,4,2,1,5,0,1
274725,-66.6666666666667,4,2,1,80,0,1
275519,-66.6666666666667,4,2,1,5,0,1
275608,-66.6666666666667,4,2,1,80,0,1
277461,-66.6666666666667,4,2,1,5,0,1
277549,-66.6666666666667,4,2,1,80,0,1
278519,-66.6666666666667,4,2,1,5,0,1
278608,-76.9230769230769,4,2,1,60,0,0
279314,-111.111111111111,4,2,1,60,0,0
280196,-76.9230769230769,4,2,1,60,0,0
280461,-76.9230769230769,4,2,1,5,0,0
280549,-90.9090909090909,4,2,1,60,0,0
281255,-76.9230769230769,4,2,1,60,0,0
283284,-76.9230769230769,4,2,1,5,0,0
283372,-90.9090909090909,4,2,1,60,0,0
284078,-76.9230769230769,4,2,1,60,0,0
284696,-76.9230769230769,4,2,1,5,0,0
284784,-90.9090909090909,4,2,1,60,0,0
285666,-90.9090909090909,4,2,3,60,0,0
286019,-90.9090909090909,4,2,1,60,0,0
287961,-111.111111111111,4,2,1,60,0,0
288137,-142.857142857143,4,2,1,60,0,0
288402,-142.857142857143,4,2,1,5,0,0
288490,-58.8235294117647,4,2,1,80,0,0
288755,-58.8235294117647,4,2,1,5,0,0
288843,-58.8235294117647,4,2,1,80,0,0
289019,-66.6666666666667,4,2,1,80,0,0
290343,-66.6666666666667,4,2,1,5,0,0
290431,-111.111111111111,4,2,1,80,0,0
291314,-66.6666666666667,4,2,1,80,0,0
291578,-66.6666666666667,4,2,1,5,0,0
291666,-66.6666666666667,4,2,1,80,0,0
291843,-76.9230769230769,4,2,1,80,0,0
293166,-76.9230769230769,4,2,1,5,0,0
293255,-111.111111111111,4,2,1,80,0,0
294137,-66.6666666666667,4,2,1,80,0,0
294402,-66.6666666666667,4,2,1,5,0,0
294490,-66.6666666666667,4,2,1,80,0,0
294666,-76.9230769230769,4,2,1,80,0,0
297225,-76.9230769230769,4,2,1,5,0,0
297314,-76.9230769230769,4,2,1,80,0,0
298549,-142.857142857143,4,2,1,80,0,0
298902,-111.111111111111,4,2,1,80,0,0
299255,-76.9230769230769,4,2,1,80,0,0
299784,-66.6666666666667,4,2,1,80,0,0
300049,-66.6666666666667,4,2,1,5,0,0
300137,-66.6666666666667,4,2,1,80,0,0
300314,-76.9230769230769,4,2,1,80,0,0
301637,-76.9230769230769,4,2,1,5,0,0
301725,-111.111111111111,4,2,1,80,0,0
302608,-66.6666666666667,4,2,1,80,0,0
302872,-66.6666666666667,4,2,1,5,0,0
302961,-66.6666666666667,4,2,1,80,0,0
303137,-76.9230769230769,4,2,1,80,0,0
304461,-76.9230769230769,4,2,1,5,0,0
304549,-111.111111111111,4,2,1,80,0,0
305255,-90.9090909090909,4,2,1,80,0,0
305519,-90.9090909090909,4,2,1,5,0,0
305608,-90.9090909090909,4,2,1,60,0,0
308255,-1000,4,2,1,60,0,0
328372,-1000,4,2,1,5,0,0

[Colours]
Combo1 : 255,128,128
Combo2 : 165,74,255
Combo3 : 128,128,128
Combo4 : 191,191,255
Combo5 : 255,0,0
Combo6 : 255,255,128
Combo7 : 211,211,211
Combo8 : 255,191,255

[HitObjects]
65,82,667,6,0,B|148:55|183:116|183:117|231:162|305:120,3,237.999992736817,4|0|0|0,1:2|0:0|0:0|0:0,0:0:0:0:
286,128,3137,1,0,0:0:0:0:
435,10,3490,54,0,B|377:69|377:69|413:229,3,237.999992736817,4|0|0|0,1:2|0:0|0:0|0:0,0:0:0:0:
411,220,5961,2,0,P|375:221|340:234,1,63.75,2|0,0:0|0:0,0:0:0:0:
281,282,6314,85,4,1:2:0:0:
281,282,6666,1,0,1:2:0:0:
113,73,7019,53,0,1:2:0:0:
113,73,7371,1,0,1:2:0:0:
65,312,7725,53,0,1:2:0:0:
65,312,8077,1,0,1:2:0:0:
289,52,8431,53,0,1:2:0:0:
289,52,8783,1,0,1:2:0:0:
24,205,9137,38,0,P|109:200|170:274,1,178.499994552612,4|0,1:2|0:0,0:0:0:0:
167,264,9755,1,0,0:0:0:0:
167,264,9843,1,0,0:0:0:0:
238,178,10108,1,0,0:0:0:0:
231,196,10196,1,0,0:0:0:0:
160,110,10372,1,0,0:0:0:0:
266,377,10549,6,0,P|238:336|296:359,1,140.25000428009,2|0,0:0|0:0,0:0:0:0:
381,317,10902,2,0,P|409:276|350:303,1,165.749992412568,2|0,0:0|0:0,0:0:0:0:
260,261,11255,2,0,P|232:220|292:253,1,191.250007295609,2|0,0:0|0:0,0:0:0:0:
294,250,11608,1,2,0:0:0:0:
449,44,11784,86,0,B|316:95|316:95|244:58,1,216.750004134178,4|0,1:2|0:0,0:0:0:0:
242,43,12137,1,0,1:2:0:0:
59,186,12314,2,0,P|117:159|182:174,1,127.500004863739,8|0,0:0|0:0,0:0:0:0:
260,261,12666,1,0,1:2:0:0:
260,261,12843,1,0,1:2:0:0:
404,108,13019,2,0,L|393:250,1,127.500004863739,8|0,0:0|0:0,0:0:0:0:
260,384,13372,54,0,P|255:317|125:284,1,191.250007295609,0|0,1:2|0:0,0:0:0:0:
135,261,13725,2,0,P|126:220|130:176,1,76.4999976654053,8|0,0:0|0:0,0:0:0:0:
201,113,14078,1,0,1:2:0:0:
174,357,14255,1,0,1:2:0:0:
0,227,14431,1,8,0:0:0:0:
243,275,14608,54,0,B|341:293|339:209|447:247,1,191.250007295609,4|0,1:2|0:0,0:0:0:0:
439,256,14961,1,0,1:2:0:0:
269,163,15137,2,0,B|248:101|248:101|267:37,1,127.500004863739,8|0,0:0|0:0,0:0:0:0:
373,96,15490,1,0,1:2:0:0:
373,96,15666,1,0,1:2:0:0:
161,204,15843,2,0,P|96:211|31:183,1,127.500004863739,8|0,0:0|0:0,0:0:0:0:
0,0,16196,54,0,P|65:3|133:86,1,165.749992412568,0|0,1:2|0:0,0:0:0:0:
125,93,16549,2,0,P|164:71|215:67,1,76.4999976654053,8|0,0:0|0:0,0:0:0:0:
468,197,16902,2,0,P|404:183|334:264,1,165.749992412568,0|0,1:2|0:0,0:0:0:0:
342,267,17255,1,8,0:0:0:0:
235,0,17431,54,0,B|228:71|228:71|241:104|241:104|234:192,1,191.250007295609,4|0,1:2|0:0,0:0:0:0:
221,201,17784,1,0,1:2:0:0:
84,44,17961,2,0,P|109:95|111:167,1,127.500004863739,8|0,0:0|0:0,0:0:0:0:
71,260,18314,1,0,1:2:0:0:
71,260,18490,1,0,1:2:0:0:
325,63,18666,2,0,P|269:98|209:89,1,127.500004863739,8|0,0:0|0:0,0:0:0:0:
439,197,19019,53,0,1:2:0:0:
439,197,19196,1,0,1:2:0:0:
371,1,19372,2,0,L|365:142,1,127.500004863739,8|0,0:0|0:0,0:0:0:0:
264,273,19725,1,0,1:2:0:0:
260,252,19813,1,8,0:0:0:0:
257,231,19901,1,0,1:2:0:0:
482,291,20078,2,0,P|431:350|324:331,1,191.250007295609,4|0,1:2|0:0,0:0:0:0:
389,257,20431,85,0,1:2:0:0:
389,257,20608,1,0,1:2:0:0:
227,325,20961,53,0,1:2:0:0:
227,325,21138,1,0,1:2:0:0:
136,272,21490,53,0,1:2:0:0:
136,272,21667,1,0,1:2:0:0:
228,221,22019,53,2,0:0:0:0:
226,188,22108,1,2,0:0:0:0:
239,158,22196,1,2,0:0:0:0:
301,98,22372,1,2,0:0:0:0:
403,108,22549,1,2,0:0:0:0:
466,211,22725,1,2,0:0:0:0:
402,338,22902,1,2,0:0:0:0:
258,326,23078,54,0,B|175:346|176:277|72:310,1,165.749992412568,4|0,1:2|0:0,0:0:0:0:
88,320,23431,1,0,1:2:0:0:
18,138,23608,2,0,P|11:186|36:251,1,93.5000028533936,8|0,0:0|0:0,0:0:0:0:
109,95,23961,1,0,1:2:0:0:
109,95,24314,2,0,P|158:115|220:108,1,93.5000028533936,8|0,0:0|0:0,0:0:0:0:
395,45,24666,53,0,1:2:0:0:
294,10,24843,2,0,P|294:60|311:110,1,93.5000028533936,0|8,1:2|0:0,0:0:0:0:
225,303,25196,2,0,P|212:254|182:210,1,93.5000028533936,0|0,0:0|1:2,0:0:0:0:
399,147,25549,2,0,P|399:197|381:247,1,93.5000028533936,0|8,1:2|0:0,0:0:0:0:
139,359,25902,54,0,P|197:324|279:349,1,140.25000428009,0|0,1:2|0:0,0:0:0:0:
272,358,26255,1,0,1:2:0:0:
464,209,26431,2,0,P|411:226|362:222,1,93.5000028533936,8|0,0:0|0:0,0:0:0:0:
255,73,26784,1,0,1:2:0:0:
275,66,26872,1,0,0:0:0:0:
296,66,26960,1,0,1:2:0:0:
173,259,27137,2,0,L|153:160,1,93.5000028533936,8|0,0:0|0:0,0:0:0:0:
30,41,27490,53,0,1:2:0:0:
56,140,27666,2,0,P|50:189|31:228,1,93.5000028533936,0|8,1:2|0:0,0:0:0:0:
155,384,28019,2,0,P|161:335|153:292,1,93.5000028533936,0|0,0:0|1:2,0:0:0:0:
207,169,28372,2,0,P|252:160|298:167,1,93.5000028533936,0|8,1:2|0:0,0:0:0:0:
475,347,28725,54,0,L|463:214,1,114.749996498108,0|0,1:2|0:0,0:0:0:0:
471,215,29078,1,0,1:2:0:0:
330,302,29255,2,0,P|269:274|201:294,1,140.25000428009,8|0,0:0|0:0,0:0:0:0:
190,312,29608,1,0,1:2:0:0:
157,171,29784,1,0,1:2:0:0:
33,315,29961,2,0,L|49:220,1,93.5000028533936,8|0,0:0|0:0,0:0:0:0:
147,14,30314,53,0,1:2:0:0:
225,83,30490,2,0,P|270:99|321:92,1,93.5000028533936,0|8,1:2|0:0,0:0:0:0:
401,29,30843,2,0,P|448:25|496:45,1,93.5000028533936,0|0,0:0|1:2,0:0:0:0:
391,244,31196,2,0,P|344:235|303:203,1,93.5000028533936,0|8,1:2|0:0,0:0:0:0:
216,98,31549,54,0,P|144:83|64:129,1,140.25000428009,0|0,1:2|0:0,0:0:0:0:
74,124,31902,1,0,1:2:0:0:
28,281,32078,2,0,P|73:263|126:271,1,93.5000028533936,8|0,0:0|0:0,0:0:0:0:
196,333,32431,1,0,1:2:0:0:
196,333,32608,1,0,1:2:0:0:
362,154,32784,2,0,P|347:209|318:238,1,93.5000028533936,8|0,0:0|0:0,0:0:0:0:
107,169,33137,53,0,1:2:0:0:
107,169,33314,1,0,1:2:0:0:
187,21,33490,2,0,L|194:142,1,93.5000028533936,8|0,0:0|0:0,0:0:0:0:
148,260,33843,1,0,1:2:0:0:
287,149,34019,1,0,1:2:0:0:
57,81,34196,1,8,0:0:0:0:
437,98,34372,54,0,P|352:86|280:145,1,165.749992412568,4|0,1:2|0:0,0:0:0:0:
287,149,34725,1,0,1:2:0:0:
506,42,34902,2,0,P|524:96|504:161,1,110.499994941712,8|0,0:0|0:0,0:0:0:0:
391,269,35255,2,0,L|380:164,1,93.5000028533936,0|0,1:2|1:2,0:0:0:0:
192,83,35608,2,0,L|181:188,1,93.5000028533936,8|0,0:0|0:0,0:0:0:0:
93,359,35961,53,0,1:2:0:0:
9,162,36137,2,0,L|16:275,1,110.499994941712,0|8,1:2|0:0,0:0:0:0:
113,376,36490,2,0,L|120:263,1,110.499994941712,0|0,0:0|1:2,0:0:0:0:
234,171,36843,2,0,L|347:178,1,110.499994941712,0|8,1:2|0:0,0:0:0:0:
467,314,37196,54,0,P|386:296|331:355,1,165.749992412568,0|0,1:2|0:0,0:0:0:0:
334,371,37549,1,0,1:2:0:0:
208,257,37725,2,0,L|217:141,1,110.499994941712,8|0,0:0|0:0,0:0:0:0:
181,52,38078,1,0,1:2:0:0:
181,52,38255,1,0,1:2:0:0:
319,210,38431,2,0,P|376:204|422:169,1,110.499994941712,8|0,0:0|0:0,0:0:0:0:
494,39,38784,53,0,1:2:0:0:
380,68,38961,2,0,P|331:68|268:42,1,93.5000028533936,0|8,1:2|0:0,0:0:0:0:
175,29,39314,2,0,P|128:28|83:42,1,93.5000028533936,0|0,0:0|1:2,0:0:0:0:
0,146,39666,2,0,P|47:158|101:200,1,93.5000028533936,0|8,1:2|0:0,0:0:0:0:
209,363,40019,54,0,L|217:192,1,165.749992412568,0|0,1:2|0:0,0:0:0:0:
207,180,40372,1,0,1:2:0:0:
440,150,40549,2,0,P|382:175|332:163,1,110.499994941712,8|0,0:0|0:0,0:0:0:0:
264,89,40902,1,0,1:2:0:0:
264,89,41078,1,0,1:2:0:0:
244,356,41255,2,0,P|260:296|305:255,1,110.499994941712,8|0,0:0|0:0,0:0:0:0:
443,260,41608,53,0,1:2:0:0:
400,128,41784,2,0,P|400:79|420:28,1,93.5000028533936,0|8,1:2|0:0,0:0:0:0:
250,0,42137,2,0,P|249:48|269:99,1,93.5000028533936,0|0,0:0|1:2,0:0:0:0:
174,195,42490,2,0,P|126:182|72:188,1,93.5000028533936,0|8,1:2|0:0,0:0:0:0:
21,384,42843,54,0,P|52:315|157:320,1,165.749992412568,0|0,1:2|0:0,0:0:0:0:
144,323,43196,1,0,1:2:0:0:
321,173,43372,2,0,L|202:182,1,110.499994941712,8|0,0:0|0:0,0:0:0:0:
82,185,43725,1,0,1:2:0:0:
82,185,43902,1,0,1:2:0:0:
150,80,44078,1,8,0:0:0:0:
221,270,44255,1,0,1:2:0:0:
313,48,44431,54,0,L|310:170,1,110.499994941712,2|0,0:0|0:0,0:0:0:0:
213,366,44784,2,0,L|210:244,1,110.499994941712,10|0,0:0|0:0,0:0:0:0:
80,108,45049,1,8,0:0:0:0:
80,108,45137,2,0,P|149:96|216:148,1,140.25000428009,10|0,0:0|0:0,0:0:0:0:
208,152,45490,1,10,0:0:0:0:
310,294,45666,54,0,P|365:242|449:257,1,165.749992412568,4|0,1:2|0:0,0:0:0:0:
458,274,46019,1,0,1:2:0:0:
323,154,46196,2,0,P|315:100|330:54,1,93.5000028533936,0|0,1:2|0:0,0:0:0:0:
512,37,46549,2,0,P|446:48|414:122,1,140.25000428009,8|0,0:0|0:0,0:0:0:0:
418,127,46902,2,0,P|371:77|304:83,1,140.25000428009,2|0,0:0|0:0,0:0:0:0:
289,69,47255,53,0,1:2:0:0:
134,220,47431,2,0,P|199:193|290:234,1,140.25000428009,0|0,0:0|0:0,0:0:0:0:
279,200,47784,2,0,P|289:249|276:296,1,93.5000028533936,0|8,0:0|0:0,0:0:0:0:
207,378,48137,2,0,P|158:388|111:375,1,93.5000028533936,0|0,0:0|0:0,0:0:0:0:
27,271,48490,54,0,B|-2:174|71:172|26:62,1,187.000005706787,4|0,1:2|0:0,0:0:0:0:
141,5,49019,2,0,P|150:61|144:118,1,93.5000028533936,0|0,1:2|0:0,0:0:0:0:
140,234,49372,2,0,P|194:189|291:194,1,140.25000428009,8|0,0:0|0:0,0:0:0:0:
276,198,49725,1,0,0:0:0:0:
378,298,49902,53,0,1:2:0:0:
378,298,50078,2,0,P|364:220|400:134,1,152.999995330811,0|0,1:2|0:0,0:0:0:0:
387,151,50608,1,0,1:2:0:0:
299,89,50784,1,0,0:0:0:0:
484,190,50961,1,0,1:2:0:0:
282,290,51137,1,8,0:0:0:0:
431,90,51314,54,0,P|381:149|397:257,1,165.749992412568,4|0,1:2|0:0,0:0:0:0:
398,248,51666,1,0,1:2:0:0:
285,366,51843,2,0,P|280:315|243:264,1,93.5000028533936,0|0,1:2|0:0,0:0:0:0:
226,157,52196,2,0,P|231:106|268:55,1,93.5000028533936,8|0,0:0|0:0,0:0:0:0:
58,0,52549,2,0,P|97:61|94:146,1,140.25000428009,0|0,0:0|0:0,0:0:0:0:
109,145,52902,54,0,P|59:135|14:150,1,93.5000028533936,0|0,1:2|0:0,0:0:0:0:
33,339,53255,2,0,P|73:279|153:271,1,140.25000428009,0|0,1:2|0:0,0:0:0:0:
149,283,53608,1,8,0:0:0:0:
207,384,53784,1,0,0:0:0:0:
247,189,53961,1,8,0:0:0:0:
476,307,54137,54,0,P|426:259|350:269,1,140.25000428009,4|0,1:2|0:0,0:0:0:0:
349,279,54490,1,0,1:2:0:0:
224,374,54666,2,0,P|153:375|93:316,1,140.25000428009,0|0,0:0|0:0,0:0:0:0:
85,247,55019,1,8,0:0:0:0:
85,247,55372,1,8,0:0:0:0:
114,144,55549,1,0,1:2:0:0:
186,290,55725,54,0,P|225:276|270:276,1,76.4999976654053,0|0,1:2|0:0,0:0:0:0:
397,339,56078,1,0,0:0:0:0:
419,343,56166,1,0,0:0:0:0:
442,340,56255,1,8,0:0:0:0:
462,328,56343,1,8,0:0:0:0:
476,309,56431,1,8,0:0:0:0:
459,182,56608,1,0,1:2:0:0:
273,287,56784,1,8,0:0:0:0:
334,0,56961,54,0,B|298:82|364:91|324:177,1,165.749992412568,4|0,1:2|0:0,0:0:0:0:
317,176,57314,1,0,1:2:0:0:
117,96,57490,2,0,P|164:81|220:89,1,93.5000028533936,8|0,0:0|0:0,0:0:0:0:
64,305,57843,2,0,L|50:195,1,93.5000028533936,0|0,1:2|1:2,0:0:0:0:
222,73,58196,2,0,L|208:183,1,93.5000028533936,8|0,0:0|0:0,0:0:0:0:
257,322,58549,53,0,1:2:0:0:
337,208,58725,2,0,P|386:200|444:219,1,93.5000028533936,0|8,1:2|0:0,0:0:0:0:
479,354,59078,2,0,P|433:374|372:371,1,93.5000028533936,0|0,0:0|1:2,0:0:0:0:
257,322,59431,2,0,P|211:301|150:304,1,93.5000028533936,0|8,1:2|0:0,0:0:0:0:
0,317,59784,54,0,P|19:259|100:236,1,140.25000428009,0|0,1:2|0:0,0:0:0:0:
105,246,60137,1,0,1:2:0:0:
243,133,60314,2,0,L|145:143,1,93.5000028533936,8|0,0:0|0:0,0:0:0:0:
24,0,60666,2,0,P|48:39|53:105,1,93.5000028533936,0|0,1:2|1:2,0:0:0:0:
194,327,61019,2,0,P|207:283|194:218,1,93.5000028533936,8|0,0:0|0:0,0:0:0:0:
347,117,61372,54,0,P|390:103|482:137,1,140.25000428009,0|0,1:2|0:0,0:0:0:0:
494,123,61725,2,0,P|500:168|487:213,1,76.4999976654053,8|0,0:0|0:0,0:0:0:0:
445,313,62078,1,0,1:2:0:0:
210,220,62255,2,0,L|317:203,1,93.5000028533936,0|8,1:2|0:0,0:0:0:0:
413,231,62608,1,0,0:0:0:0:
233,80,62784,54,0,P|248:31|252:97,1,187.000005706787,12|0,1:2|0:0,0:0:0:0:
46,165,63314,2,0,P|29:96|80:145,1,187.000005706787,8|0,0:0|0:0,0:0:0:0:
167,273,63843,2,0,L|154:366,1,93.5000028533936,8|0,0:0|0:0,0:0:0:0:
376,296,64196,54,0,P|361:345|357:279,1,187.000005706787,12|0,1:2|0:0,0:0:0:0:
454,125,64725,2,0,P|470:193|419:144,1,187.000005706787,8|0,0:0|0:0,0:0:0:0:
279,93,65255,2,0,L|285:-3,1,93.5000028533936,8|0,0:0|0:0,0:0:0:0:
147,177,65608,1,0,0:0:0:0:
256,192,65696,12,12,66666,0:0:0:0:
256,192,67019,12,0,69137,0:0:0:0:
214,230,69666,22,0,P|260:139|370:141,1,216.750004134178,4|0,1:2|0:0,0:0:0:0:
387,168,70019,1,0,1:2:0:0:
286,331,70196,2,0,L|156:340,1,127.500004863739,8|0,0:0|0:0,0:0:0:0:
5,122,70549,2,0,P|72:122|133:179,1,127.500004863739,0|0,1:2|1:2,0:0:0:0:
153,245,70902,1,8,0:0:0:0:
297,55,71078,54,0,L|158:69,1,127.500004863739,0|0,0:0|1:2,0:0:0:0:
39,247,71431,2,0,L|178:261,1,127.500004863739,0|8,1:2|0:0,0:0:0:0:
273,341,71784,1,0,0:0:0:0:
411,111,71961,85,0,1:2:0:0:
216,174,72137,1,0,1:2:0:0:
411,298,72314,1,8,0:0:0:0:
277,71,72490,86,0,B|325:124|325:124|292:263,1,191.250007295609,4|0,1:2|0:0,0:0:0:0:
276,272,72843,1,0,1:2:0:0:
0,145,73019,2,0,P|57:113|134:126,1,127.500004863739,8|0,0:0|0:0,0:0:0:0:
388,252,73372,2,0,P|357:169|236:170,1,191.250007295609,0|0,1:2|0:0,0:0:0:0:
236,178,73725,1,8,0:0:0:0:
116,364,73902,54,0,L|98:229,1,127.500004863739,0|0,0:0|1:2,0:0:0:0:
268,40,74255,2,0,L|250:175,1,127.500004863739,0|8,1:2|0:0,0:0:0:0:
230,296,74608,1,0,0:0:0:0:
140,99,74784,85,0,1:2:0:0:
343,166,74961,1,0,1:2:0:0:
112,270,75137,1,8,0:0:0:0:
279,81,75314,54,0,B|373:39|376:126|486:79,1,191.250007295609,4|0,1:2|0:0,0:0:0:0:
477,70,75666,1,0,1:2:0:0:
436,270,75843,2,0,P|416:203|308:194,1,165.749992412568,8|0,0:0|0:0,0:0:0:0:
317,166,76196,1,0,1:2:0:0:
240,307,76372,1,0,1:2:0:0:
126,156,76549,1,8,0:0:0:0:
0,336,76725,54,0,P|47:308|109:312,1,110.499994941712,0|0,0:0|1:2,0:0:0:0:
181,363,77078,1,0,1:2:0:0:
314,92,77255,2,0,L|305:278,1,165.749992412568,8|0,0:0|0:0,0:0:0:0:
292,273,77608,1,0,1:2:0:0:
512,132,77784,2,0,P|461:113|404:124,1,110.499994941712,0|8,1:2|0:0,0:0:0:0:
187,262,78137,54,0,P|184:206|71:159,1,187.000005706787,4|0,1:2|1:2,0:0:0:0:
0,254,78666,2,0,L|17:356,1,93.5000028533936,8|0,0:0|0:0,0:0:0:0:
148,384,79019,1,0,1:2:0:0:
198,246,79196,2,0,L|323:235,1,93.5000028533936,0|8,1:2|0:0,0:0:0:0:
512,130,79549,54,0,P|430:112|363:177,1,165.749992412568,4|0,1:2|0:0,0:0:0:0:
368,179,79902,1,0,1:2:0:0:
140,29,80078,2,0,P|220:53|251:145,1,187.000005706787,8|0,0:0|1:2,0:0:0:0:
204,251,80608,1,0,1:2:0:0:
92,281,80784,1,8,0:0:0:0:
0,58,80961,86,0,B|102:15|102:15|194:62,1,191.250007295609,4|0,1:2|0:0,0:0:0:0:
186,88,81314,1,0,1:2:0:0:
281,261,81490,2,0,L|292:119,1,127.500004863739,8|0,0:0|0:0,0:0:0:0:
461,56,81843,2,0,B|414:83|414:83|402:235,1,191.250007295609,0|0,1:2|0:0,0:0:0:0:
416,256,82196,1,8,0:0:0:0:
186,88,82372,54,0,P|260:92|308:129,1,127.500004863739,0|0,0:0|1:2,0:0:0:0:
197,321,82725,2,0,P|126:297|89:249,1,127.500004863739,0|8,1:2|0:0,0:0:0:0:
81,153,83078,1,0,0:0:0:0:
31,338,83255,85,0,1:2:0:0:
188,147,83431,1,0,1:2:0:0:
273,380,83608,1,8,0:0:0:0:
1,238,83784,86,0,B|109:208|88:294|225:245,1,191.250007295609,4|0,1:2|0:0,0:0:0:0:
215,230,84137,1,0,1:2:0:0:
254,56,84314,1,8,0:0:0:0:
384,187,84490,1,0,0:0:0:0:
180,130,84666,1,0,1:2:0:0:
395,202,84843,2,0,L|384:349,1,127.500004863739,0|8,1:2|0:0,0:0:0:0:
512,108,85196,22,0,P|459:91|389:105,1,110.499994941712,0|0,1:2|0:0,0:0:0:0:
283,247,85549,2,0,P|230:264|160:250,1,110.499994941712,0|8,1:2|0:0,0:0:0:0:
57,90,85902,2,0,P|112:87|155:104,1,76.4999976654053,0|0,0:0|1:2,0:0:0:0:
248,180,86255,2,0,P|278:226|283:277,1,76.4999976654053,0|8,1:2|0:0,0:0:0:0:
246,376,86608,1,0,0:0:0:0:
512,193,86784,54,0,B|438:173|449:224|359:196,1,140.25000428009,4|0,1:2|0:0,0:0:0:0:
359,210,87137,2,0,P|350:166|357:128,1,76.4999976654053,8|0,0:0|0:0,0:0:0:0:
405,43,87490,1,0,1:2:0:0:
405,43,87666,1,0,1:2:0:0:
249,176,87843,2,0,P|196:177|147:158,1,93.5000028533936,8|0,0:0|0:0,0:0:0:0:
44,20,88196,54,0,L|52:122,1,93.5000028533936,0|0,1:2|1:2,0:0:0:0:
61,218,88549,1,8,0:0:0:0:
230,57,88725,2,0,P|177:53|133:74,1,93.5000028533936,0|0,0:0|1:2,0:0:0:0:
10,226,89078,2,0,P|62:235|99:267,1,93.5000028533936,0|8,1:2|0:0,0:0:0:0:
144,371,89431,1,0,0:0:0:0:
386,176,89608,54,0,P|312:165|257:215,1,140.25000428009,4|0,1:2|0:0,0:0:0:0:
257,222,89961,2,0,P|255:171|225:131,1,93.5000028533936,8|0,0:0|0:0,0:0:0:0:
134,74,90314,1,0,1:2:0:0:
134,74,90490,1,0,1:2:0:0:
40,263,90666,2,0,P|87:237|138:243,1,93.5000028533936,8|0,0:0|0:0,0:0:0:0:
310,334,91019,54,0,P|378:344|456:306,1,140.25000428009,0|0,1:2|0:0,0:0:0:0:
461,325,91372,2,0,P|466:271|455:232,1,93.5000028533936,8|0,0:0|0:0,0:0:0:0:
399,132,91725,1,0,1:2:0:0:
307,250,91902,2,0,L|190:259,1,93.5000028533936,0|8,1:2|0:0,0:0:0:0:
149,335,92255,1,0,0:0:0:0:
16,138,92431,54,0,P|89:123|150:183,1,165.749992412568,4|0,1:2|0:0,0:0:0:0:
145,202,92784,2,0,P|167:159|210:138,1,93.5000028533936,8|0,0:0|0:0,0:0:0:0:
347,117,93137,1,0,0:0:0:0:
193,348,93402,1,0,0:0:0:0:
115,43,93666,1,0,1:2:0:0:
86,232,93843,53,8,0:0:0:0:
86,232,94196,2,0,P|143:189|226:200,1,140.25000428009,0|0,1:2|0:0,0:0:0:0:
220,209,94549,1,0,1:2:0:0:
334,359,94814,1,0,0:0:0:0:
351,353,94902,1,8,0:0:0:0:
491,108,95078,86,0,B|404:70|392:154|294:111,1,191.250007295609,4|0,1:2|0:0,0:0:0:0:
295,98,95431,1,0,1:2:0:0:
85,229,95608,2,0,P|130:198|200:200,1,110.499994941712,8|0,0:0|0:0,0:0:0:0:
302,240,95961,1,0,1:2:0:0:
302,240,96137,1,0,1:2:0:0:
432,109,96314,2,0,L|427:227,1,110.499994941712,8|0,0:0|0:0,0:0:0:0:
271,384,96666,54,0,P|259:322|145:288,1,165.749992412568,0|0,1:2|0:0,0:0:0:0:
159,294,97019,2,0,P|151:243|159:193,1,93.5000028533936,8|0,0:0|0:0,0:0:0:0:
235,132,97372,1,0,1:2:0:0:
46,245,97549,1,0,1:2:0:0:
245,353,97725,1,8,0:0:0:0:
5,132,97902,54,0,P|96:130|150:209,1,165.749992412568,4|0,1:2|0:0,0:0:0:0:
143,201,98255,1,0,1:2:0:0:
259,368,98431,2,0,P|273:313|324:262,1,110.499994941712,8|0,0:0|0:0,0:0:0:0:
401,226,98784,1,0,1:2:0:0:
401,226,98961,1,0,1:2:0:0:
254,70,99137,2,0,P|246:126|269:201,1,110.499994941712,8|0,0:0|0:0,0:0:0:0:
490,278,99490,54,0,P|410:255|343:307,1,165.749992412568,0|0,1:2|0:0,0:0:0:0:
338,317,99843,2,0,P|347:263|330:208,1,93.5000028533936,8|0,0:0|0:0,0:0:0:0:
154,157,100196,1,0,1:2:0:0:
148,179,100284,1,8,0:0:0:0:
148,202,100372,1,0,1:2:0:0:
172,305,100549,1,8,0:0:0:0:
303,84,100725,54,0,B|388:58|383:115|480:88,1,165.749992412568,4|0,1:2|0:0,0:0:0:0:
480,78,101078,1,0,1:2:0:0:
268,286,101255,2,0,P|254:238|265:189,1,93.5000028533936,8|0,0:0|0:0,0:0:0:0:
316,104,101608,1,0,1:2:0:0:
316,104,101784,1,0,1:2:0:0:
394,286,101961,2,0,L|499:297,1,93.5000028533936,8|0,0:0|0:0,0:0:0:0:
253,213,102314,54,0,P|189:222|148:304,1,140.25000428009,0|0,1:2|0:0,0:0:0:0:
153,301,102666,2,0,P|116:277|63:277,1,76.4999976654053,8|0,0:0|0:0,0:0:0:0:
0,384,103019,1,0,1:2:0:0:
5,365,103108,1,8,0:0:0:0:
10,346,103196,1,0,1:2:0:0:
121,50,103372,2,0,L|130:195,1,140.25000428009,12|0,0:0|0:0,0:0:0:0:
100,290,103725,85,8,1:2:0:0:
100,290,103902,1,8,1:2:0:0:
242,70,104255,53,8,1:2:0:0:
242,70,104432,1,8,1:2:0:0:
325,219,104784,53,8,1:2:0:0:
325,219,104961,1,8,1:2:0:0:
219,176,105314,53,2,0:0:0:0:
214,198,105402,1,2,0:0:0:0:
219,220,105491,1,2,0:0:0:0:
272,290,105666,1,2,0:0:0:0:
377,301,105843,1,2,0:0:0:0:
470,217,106019,1,2,0:0:0:0:
445,78,106196,1,2,0:0:0:0:
292,33,106372,54,0,B|209:13|210:82|106:49,1,165.749992412568,4|0,1:2|0:0,0:0:0:0:
122,39,106725,1,0,1:2:0:0:
38,191,106902,2,0,P|80:171|141:174,1,93.5000028533936,8|0,0:0|0:0,0:0:0:0:
266,343,107255,2,0,P|238:275|256:203,1,140.25000428009,0|0,1:2|0:0,0:0:0:0:
267,197,107608,1,8,0:0:0:0:
406,155,107784,1,0,0:0:0:0:
378,350,107960,53,0,1:2:0:0:
432,259,108137,2,0,P|432:209|415:159,1,93.5000028533936,0|8,1:2|0:0,0:0:0:0:
219,55,108490,2,0,P|206:103|209:155,1,93.5000028533936,0|0,0:0|1:2,0:0:0:0:
302,314,108843,2,0,L|306:205,1,93.5000028533936,0|8,1:2|0:0,0:0:0:0:
451,72,109196,54,0,P|393:107|311:82,1,140.25000428009,0|0,1:2|0:0,0:0:0:0:
318,73,109549,1,0,1:2:0:0:
114,271,109725,2,0,P|167:254|216:258,1,93.5000028533936,8|0,0:0|0:0,0:0:0:0:
316,294,110078,1,0,1:2:0:0:
316,294,110255,1,0,1:2:0:0:
414,131,110431,2,0,L|410:232,1,93.5000028533936,8|0,0:0|0:0,0:0:0:0:
374,359,110784,53,0,1:2:0:0:
291,212,110960,2,0,P|242:218|203:237,1,93.5000028533936,0|8,1:2|0:0,0:0:0:0:
56,372,111314,2,0,P|75:326|78:283,1,93.5000028533936,0|0,0:0|1:2,0:0:0:0:
11,172,111666,2,0,P|56:152|99:149,1,93.5000028533936,0|8,1:2|0:0,0:0:0:0:
281,266,112019,54,0,L|269:133,1,114.749996498108,0|0,1:2|0:0,0:0:0:0:
282,137,112372,1,0,1:2:0:0:
67,31,112549,2,0,P|119:50|166:46,1,93.5000028533936,8|0,0:0|0:0,0:0:0:0:
263,7,112902,1,0,1:2:0:0:
263,7,113078,1,0,1:2:0:0:
167,159,113255,2,0,L|183:254,1,93.5000028533936,8|0,0:0|0:0,0:0:0:0:
162,355,113608,53,0,1:2:0:0:
282,287,113784,2,0,P|327:271|378:278,1,93.5000028533936,0|8,1:2|0:0,0:0:0:0:
421,371,114137,2,0,P|468:375|516:355,1,93.5000028533936,0|0,0:0|1:2,0:0:0:0:
461,128,114490,2,0,P|414:137|373:169,1,93.5000028533936,0|8,1:2|0:0,0:0:0:0:
270,275,114843,54,0,P|204:241|115:265,1,140.25000428009,0|0,1:2|0:0,0:0:0:0:
126,263,115196,1,0,1:2:0:0:
31,89,115372,2,0,P|76:107|129:99,1,93.5000028533936,8|0,0:0|0:0,0:0:0:0:
200,35,115725,1,0,1:2:0:0:
200,35,115902,1,0,1:2:0:0:
186,184,116078,1,8,0:0:0:0:
394,43,116255,53,2,0:0:0:0:
255,114,116431,1,2,0:0:0:0:
418,189,116608,1,2,0:0:0:0:
295,15,116784,1,2,0:0:0:0:
410,208,116961,1,2,0:0:0:0:
238,104,117137,2,0,L|144:126,2,93.5000028533936,2|2|2,0:0|0:0|0:0,0:0:0:0:
461,103,117666,54,0,P|408:170|423:262,1,165.749992412568,4|0,1:2|0:0,0:0:0:0:
430,258,118019,1,0,1:2:0:0:
221,345,118196,2,0,P|268:313|336:316,1,110.499994941712,8|0,0:0|0:0,0:0:0:0:
292,108,118549,2,0,L|298:214,1,93.5000028533936,0|0,1:2|1:2,0:0:0:0:
320,310,118902,1,8,0:0:0:0:
190,143,119078,1,0,0:0:0:0:
84,322,119255,53,0,1:2:0:0:
0,125,119431,2,0,P|2:182|-9:240,1,110.499994941712,0|8,1:2|0:0,0:0:0:0:
95,339,119784,2,0,P|97:278|118:229,1,110.499994941712,0|0,0:0|1:2,0:0:0:0:
211,166,120137,2,0,P|263:168|319:194,1,110.499994941712,0|8,1:2|0:0,0:0:0:0:
512,118,120490,54,0,P|431:136|376:77,1,165.749992412568,0|0,1:2|0:0,0:0:0:0:
379,61,120843,1,0,1:2:0:0:
324,212,121019,2,0,L|213:227,1,110.499994941712,8|0,0:0|0:0,0:0:0:0:
123,295,121372,1,0,1:2:0:0:
123,295,121549,1,0,1:2:0:0:
99,58,121725,2,0,P|151:75|185:130,1,110.499994941712,8|0,0:0|0:0,0:0:0:0:
225,329,122078,53,0,1:2:0:0:
398,252,122255,2,0,P|349:252|286:278,1,93.5000028533936,0|8,1:2|0:0,0:0:0:0:
216,345,122608,2,0,P|169:346|124:332,1,93.5000028533936,0|0,0:0|1:2,0:0:0:0:
8,224,122961,2,0,P|53:210|100:212,1,93.5000028533936,0|8,1:2|0:0,0:0:0:0:
231,362,123314,54,0,P|199:292|239:191,1,165.749992412568,0|0,1:2|0:0,0:0:0:0:
238,200,123666,1,0,1:2:0:0:
496,165,123843,2,0,L|384:152,1,110.499994941712,8|0,0:0|0:0,0:0:0:0:
338,241,124196,1,0,1:2:0:0:
338,241,124372,1,0,1:2:0:0:
256,0,124549,2,0,P|272:60|317:101,1,110.499994941712,8|0,0:0|0:0,0:0:0:0:
459,90,124902,53,0,1:2:0:0:
338,241,125078,2,0,L|231:253,1,93.5000028533936,0|8,1:2|0:0,0:0:0:0:
100,334,125431,2,0,L|207:346,1,93.5000028533936,0|0,0:0|1:2,0:0:0:0:
351,227,125784,2,0,L|334:120,1,93.5000028533936,0|8,1:2|0:0,0:0:0:0:
2,23,126137,54,0,P|33:92|138:87,1,165.749992412568,4|0,1:2|0:0,0:0:0:0:
126,88,126490,1,0,1:2:0:0:
338,241,126666,2,0,L|219:232,1,110.499994941712,8|0,0:0|0:0,0:0:0:0:
89,195,127019,1,0,1:2:0:0:
89,195,127196,1,0,1:2:0:0:
67,384,127372,2,0,P|89:330|139:291,1,110.499994941712,8|0,0:0|0:0,0:0:0:0:
209,16,127725,54,0,L|223:139,1,110.499994941712,2|0,1:2|0:0,0:0:0:0:
337,324,128078,2,0,L|351:201,1,110.499994941712,10|0,0:0|0:0,0:0:0:0:
363,190,128343,1,0,0:0:0:0:
377,166,128431,1,2,0:0:0:0:
470,130,128608,1,0,1:2:0:0:
479,254,128784,1,10,0:0:0:0:
169,131,128960,54,0,P|224:79|308:94,1,165.749992412568,4|0,1:2|0:0,0:0:0:0:
317,111,129313,1,0,0:0:0:0:
217,265,129490,2,0,L|114:277,1,93.5000028533936,0|0,1:2|0:0,0:0:0:0:
0,119,129843,2,0,P|66:130|98:204,1,140.25000428009,8|0,0:0|0:0,0:0:0:0:
114,200,130196,2,0,P|161:150|228:156,1,140.25000428009
240,142,130549,53,0,1:2:0:0:
345,295,130725,2,0,P|414:317|507:267,1,140.25000428009,0|0,0:0|0:0,0:0:0:0:
493,305,131078,2,0,P|503:256|490:209,1,93.5000028533936,0|8,0:0|0:0,0:0:0:0:
415,128,131431,2,0,P|366:118|319:131,1,93.5000028533936,0|0,0:0|0:0,0:0:0:0:
215,350,131784,54,0,P|170:274|58:292,1,187.000005706787,4|0,1:2|0:0,0:0:0:0:
10,133,132314,2,0,P|59:117|114:125,1,93.5000028533936,0|0,1:2|0:0,0:0:0:0:
187,260,132666,2,0,P|256:271|337:219,1,140.25000428009,8|0,0:0|0:0,0:0:0:0:
319,223,133019,1,0,0:0:0:0:
390,30,133196,53,0,0:0:0:0:
390,30,133372,2,0,P|376:108|412:194,1,152.999995330811,0|8,1:2|0:0,0:0:0:0:
399,177,133902,1,0,1:2:0:0:
317,241,134078,1,8,0:0:0:0:
502,140,134255,1,0,1:2:0:0:
285,30,134431,1,8,0:0:0:0:
454,329,134608,54,0,P|404:270|420:162,1,165.749992412568,4|0,1:2|0:0,0:0:0:0:
421,171,134960,1,0,0:0:0:0:
320,282,135137,2,0,P|275:292|218:276,1,76.4999976654053,0|0,1:2|0:0,0:0:0:0:
152,218,135490,2,0,P|129:175|131:116,1,76.4999976654053,12|0,0:0|0:0,0:0:0:0:
291,0,135843,2,0,P|330:61|327:146,1,140.25000428009
338,144,136196,54,0,P|288:134|243:149,1,93.5000028533936,0|0,1:2|0:0,0:0:0:0:
41,191,136549,2,0,P|84:244|163:248,1,140.25000428009,0|0,1:2|0:0,0:0:0:0:
164,238,136902,1,8,0:0:0:0:
237,132,137078,1,0,1:2:0:0:
311,301,137255,1,8,0:0:0:0:
490,105,137431,54,0,P|440:153|364:143,1,140.25000428009,4|0,1:2|0:0,0:0:0:0:
360,135,137784,1,0,1:2:0:0:
223,19,137960,2,0,P|152:18|92:77,1,140.25000428009,0|0,1:2|0:0,0:0:0:0:
83,144,138314,1,8,0:0:0:0:
83,144,138666,1,8,0:0:0:0:
122,237,138843,1,0,1:2:0:0:
243,144,139019,54,0,P|286:162|337:162,1,93.5000028533936,0|0,1:2|0:0,0:0:0:0:
347,153,139284,1,8,0:0:0:0:
361,141,139372,1,8,0:0:0:0:
492,235,139637,1,8,0:0:0:0:
488,215,139725,1,8,0:0:0:0:
397,304,139902,1,0,0:0:0:0:
305,80,140078,1,8,0:0:0:0:
276,384,140255,54,0,B|238:302|306:293|266:207,1,165.749992412568,4|0,1:2|0:0,0:0:0:0:
253,208,140608,1,0,1:2:0:0:
49,280,140784,2,0,P|96:295|152:287,1,93.5000028533936,8|0,0:0|0:0,0:0:0:0:
104,65,141137,2,0,L|90:175,1,93.5000028533936,0|0,1:2|1:2,0:0:0:0:
252,315,141490,2,0,L|238:205,1,93.5000028533936,8|0,0:0|0:0,0:0:0:0:
282,89,141843,53,0,1:2:0:0:
356,191,142019,2,0,P|405:199|463:180,1,93.5000028533936,0|8,1:2|0:0,0:0:0:0:
497,64,142372,2,0,P|451:44|390:47,1,93.5000028533936,0|0,0:0|1:2,0:0:0:0:
282,89,142725,2,0,P|232:97|173:78,1,93.5000028533936,0|8,1:2|0:0,0:0:0:0:
0,64,143078,54,0,P|19:122|100:145,1,140.25000428009,0|0,1:2|0:0,0:0:0:0:
105,135,143431,1,0,1:2:0:0:
238,268,143608,2,0,L|140:258,1,93.5000028533936,8|0,0:0|0:0,0:0:0:0:
3,384,143960,2,0,P|27:345|27:278,1,93.5000028533936,0|0,1:2|1:2,0:0:0:0:
0,197,144314,1,8,0:0:0:0:
274,116,144490,54,0,P|170:151|144:258,1,229.499992996216,0|8,0:0|0:0,0:0:0:0:
144,258,145372,1,0,1:2:0:0:
292,367,145549,2,0,P|280:318|240:284,1,93.5000028533936,0|8,1:2|0:0,0:0:0:0:
130,270,145902,1,0,1:2:0:0:
409,173,146078,54,0,P|359:235|376:157,1,220.999989883423,4|0,1:2|0:0,0:0:0:0:
253,88,146608,2,0,P|270:166|220:103,1,220.999989883423,8|0,0:0|0:0,0:0:0:0:
333,27,147049,1,0,1:2:0:0:
353,27,147137,2,0,L|451:80,1,110.499994941712,4|0,0:0|0:0,0:0:0:0:
367,281,147490,54,0,P|331:237|393:275,1,220.999989883423,0|0,1:2|0:0,0:0:0:0:
207,321,148019,2,0,P|250:252|242:333,1,220.999989883423,8|0,1:2|0:0,0:0:0:0:
101,353,148549,1,0,1:2:0:0:
240,92,148725,1,8,0:0:0:0:
242,119,148814,1,8,0:0:0:0:
244,146,148902,1,12,0:0:0:0:
256,192,148990,12,12,149961,0:0:0:0:
256,192,150314,12,0,151549,0:0:0:0:
57,61,151725,53,4,0:0:0:0:
83,54,151813,1,0,0:0:0:0:
124,64,151901,1,0,0:0:0:0:
152,93,151989,1,0,0:0:0:0:
166,131,152078,1,4,0:0:0:0:
180,169,152167,1,0,0:0:0:0:
208,198,152255,1,0,0:0:0:0:
249,208,152343,1,0,0:0:0:0:
286,200,152431,1,4,0:0:0:0:
317,170,152519,1,0,0:0:0:0:
325,132,152608,1,0,0:0:0:0:
347,97,152696,1,0,0:0:0:0:
384,79,152784,1,0,0:0:0:0:
422,78,152872,1,0,0:0:0:0:
457,104,152961,22,0,B|369:111|369:111|339:138|339:138|243:146,1,216.750004134178,4|0,1:2|0:0,0:0:0:0:
229,120,153314,1,0,1:2:0:0:
96,293,153490,2,0,P|147:256|229:261,1,127.500004863739,8|0,0:0|0:0,0:0:0:0:
442,384,153843,2,0,P|424:320|308:290,1,191.250007295609,0|0,1:2|0:0,0:0:0:0:
287,311,154196,1,8,0:0:0:0:
392,58,154372,54,0,L|404:191,1,127.500004863739,0|0,0:0|1:2,0:0:0:0:
445,285,154725,1,0,1:2:0:0:
275,132,154902,1,8,0:0:0:0:
170,343,155078,1,0,0:0:0:0:
200,332,155166,1,0,0:0:0:0:
232,332,155255,1,0,1:2:0:0:
335,365,155431,1,0,1:2:0:0:
263,119,155608,1,8,0:0:0:0:
0,246,155784,54,0,B|91:211|103:285|201:242,1,191.250007295609,4|0,1:2|0:0,0:0:0:0:
209,217,156137,1,0,1:2:0:0:
81,13,156314,2,0,L|73:150,1,127.500004863739,8|0,0:0|0:0,0:0:0:0:
322,248,156666,2,0,P|271:212|202:219,1,127.500004863739,0|0,1:2|1:2,0:0:0:0:
133,315,157019,1,8,0:0:0:0:
352,29,157196,54,0,B|372:80|372:80|350:155,1,127.500004863739,0|0,0:0|1:2,0:0:0:0:
196,228,157549,2,0,B|163:183|163:183|165:105,1,127.500004863739,0|8,1:2|0:0,0:0:0:0:
216,21,157902,1,0,0:0:0:0:
102,267,158078,85,0,1:2:0:0:
257,151,158255,1,0,1:2:0:0:
283,347,158431,1,8,0:0:0:0:
509,234,158608,54,0,B|385:198|415:288|275:248,1,220.999989883423,4|0,1:2|1:2,0:0:0:0:
295,253,159137,1,8,0:0:0:0:
307,19,159314,2,0,P|344:56|342:144,1,140.25000428009,0|0,0:0|0:0,0:0:0:0:
332,154,159666,1,0,1:2:0:0:
168,47,159843,1,8,0:0:0:0:
31,213,160019,54,0,P|79:183|141:182,1,110.499994941712,0|0,0:0|1:2,0:0:0:0:
230,236,160372,1,0,1:2:0:0:
351,61,160549,2,0,L|342:221,1,140.25000428009,8|0,0:0|0:0,0:0:0:0:
333,218,160902,1,0,1:2:0:0:
502,320,161078,2,0,P|465:294|396:294,1,93.5000028533936,0|8,1:2|0:0,0:0:0:0:
201,364,161431,54,0,B|248:250|154:257|208:133,1,220.999989883423,4|0,1:2|0:0,0:0:0:0:
82,55,161961,2,0,P|68:100|69:165,1,93.5000028533936,8|0,0:0|0:0,0:0:0:0:
101,263,162314,1,0,1:2:0:0:
215,136,162490,1,0,1:2:0:0:
280,315,162666,1,8,0:0:0:0:
411,45,162843,54,0,L|402:208,1,140.25000428009,4|0,1:2|0:0,0:0:0:0:
410,204,163196,1,0,1:2:0:0:
290,46,163372,2,0,B|190:17|207:87|80:48,1,187.000005706787,8|0,0:0|1:2,0:0:0:0:
198,244,163902,1,0,1:2:0:0:
198,244,163990,1,0,1:2:0:0:
198,244,164078,1,8,0:0:0:0:
430,24,164255,86,0,B|423:95|423:95|444:129|444:129|437:209,1,191.250007295609,4|0,1:2|0:0,0:0:0:0:
425,240,164608,1,0,1:2:0:0:
203,153,164784,2,0,P|255:133|322:137,1,110.499994941712,8|0,0:0|0:0,0:0:0:0:
499,336,165137,2,0,B|398:362|398:362|330:333,1,165.749992412568,0|0,1:2|0:0,0:0:0:0:
327,306,165490,1,8,0:0:0:0:
214,72,165666,54,0,L|207:200,1,110.499994941712,0|0,0:0|1:2,0:0:0:0:
52,343,166019,2,0,L|45:215,1,110.499994941712,0|8,1:2|0:0,0:0:0:0:
92,133,166372,1,0,0:0:0:0:
339,162,166549,85,0,1:2:0:0:
145,268,166725,1,0,1:2:0:0:
353,367,166902,1,8,0:0:0:0:
228,63,167078,86,0,B|276:160|190:159|255:272,1,191.250007295609,4|0,1:2|0:0,0:0:0:0:
262,277,167431,1,0,1:2:0:0:
359,157,167608,1,8,0:0:0:0:
410,346,167784,1,0,0:0:0:0:
375,145,167961,1,0,1:2:0:0:
394,359,168137,2,0,L|271:373,1,110.499994941712,0|8,1:2|0:0,0:0:0:0:
479,170,168490,22,0,P|499:220|490:280,1,110.499994941712,0|0,1:2|0:0,0:0:0:0:
294,356,168843,2,0,P|261:312|254:252,1,110.499994941712,0|8,1:2|0:0,0:0:0:0:
335,145,169196,2,0,P|327:90|295:46,1,76.4999976654053,0|0,0:0|1:2,0:0:0:0:
199,10,169549,2,0,P|144:-3|98:9,1,76.4999976654053,0|8,1:2|0:0,0:0:0:0:
23,79,169902,1,0,0:0:0:0:
170,204,170078,54,0,B|245:227|234:167|324:199,1,140.25000428009,4|0,1:2|0:0,0:0:0:0:
322,181,170431,2,0,P|329:232|319:260,1,76.4999976654053,8|0,0:0|0:0,0:0:0:0:
288,353,170784,1,0,1:2:0:0:
288,353,170961,1,0,1:2:0:0:
512,230,171137,2,0,L|396:216,1,93.5000028533936,8|0,0:0|0:0,0:0:0:0:
278,63,171490,54,0,P|290:109|285:159,1,93.5000028533936,0|0,1:2|0:0,0:0:0:0:
243,250,171843,1,8,0:0:0:0:
35,175,172019,2,0,L|138:159,1,93.5000028533936,0|0,0:0|1:2,0:0:0:0:
323,280,172372,2,0,L|220:264,1,93.5000028533936,0|8,1:2|0:0,0:0:0:0:
140,318,172725,1,0,0:0:0:0:
374,68,172902,54,0,P|413:127|406:202,1,140.25000428009,4|0,1:2|0:0,0:0:0:0:
352,260,173255,1,0,1:2:0:0:
330,267,173608,1,0,1:2:0:0:
306,267,173961,1,0,1:2:0:0:
235,189,174314,53,8,0:0:0:0:
250,356,174490,1,0,1:2:0:0:
187,115,174666,53,8,0:0:0:0:
222,101,174754,1,8,0:0:0:0:
260,104,174842,1,8,0:0:0:0:
293,123,174930,1,8,0:0:0:0:
315,153,175018,1,8,0:0:0:0:
323,190,175107,1,8,0:0:0:0:
314,227,175195,1,8,0:0:0:0:
290,257,175283,1,8,0:0:0:0:
257,274,175371,1,8,0:0:0:0:
219,276,175460,1,8,0:0:0:0:
184,261,175549,54,0,B|101:235|109:300|13:270,1,165.749992412568,4|0,1:2|0:0,0:0:0:0:
11,257,175902,1,0,1:2:0:0:
83,68,176078,2,0,P|103:116|93:174,1,93.5000028533936,12|0,0:0|0:0,0:0:0:0:
144,376,176431,2,0,P|160:309|240:275,1,140.25000428009,0|0,1:2|0:0,0:0:0:0:
236,284,176784,2,0,P|241:243|233:202,1,76.4999976654053,8|0,0:0|0:0,0:0:0:0:
478,105,177137,54,0,L|332:118,1,140.25000428009,0|0,1:2|0:0,0:0:0:0:
303,168,177490,2,0,L|449:181,1,140.25000428009,8|0,0:0|0:0,0:0:0:0:
478,231,177843,2,0,L|332:244,1,140.25000428009,0|0,1:2|0:0,0:0:0:0:
300,289,178196,1,8,0:0:0:0:
87,92,178372,54,0,P|163:93|207:182,1,165.749992412568,4|0,1:2|0:0,0:0:0:0:
205,183,178725,1,0,1:2:0:0:
109,307,178902,2,0,L|-2:313,1,93.5000028533936,8|0,0:0|0:0,0:0:0:0:
36,196,179255,1,0,1:2:0:0:
36,196,179431,1,0,1:2:0:0:
186,379,179608,2,0,L|297:385,1,93.5000028533936,8|0,0:0|0:0,0:0:0:0:
465,188,179961,54,0,P|397:191|354:249,1,140.25000428009,0|0,1:2|0:0,0:0:0:0:
348,264,180314,2,0,P|346:221|324:189,1,76.4999976654053,8|0,0:0|0:0,0:0:0:0:
119,95,180666,1,0,1:2:0:0:
115,114,180755,1,0,1:2:0:0:
115,133,180843,1,0,1:2:0:0:
122,220,181019,1,8,0:0:0:0:
284,59,181196,54,0,B|367:33|359:98|455:68,1,165.749992412568,4|0,1:2|0:0,0:0:0:0:
457,55,181549,1,0,1:2:0:0:
317,161,181725,2,0,P|310:212|334:265,1,93.5000028533936,8|0,0:0|0:0,0:0:0:0:
512,384,182078,2,0,P|496:317|416:283,1,140.25000428009,0|0,1:2|0:0,0:0:0:0:
420,292,182431,2,0,P|415:251|423:210,1,76.4999976654053,8|0,0:0|0:0,0:0:0:0:
145,66,182784,54,0,L|291:79,1,140.25000428009,0|0,1:2|0:0,0:0:0:0:
320,129,183137,2,0,L|174:142,1,140.25000428009,8|0,0:0|0:0,0:0:0:0:
145,192,183490,2,0,L|291:205,1,140.25000428009,0|0,1:2|0:0,0:0:0:0:
323,250,183843,1,8,0:0:0:0:
127,46,184019,54,0,P|180:100|148:194,1,165.749992412568,4|0,1:2|0:0,0:0:0:0:
145,192,184372,1,0,1:2:0:0:
2,329,184549,2,0,P|46:312|113:313,1,93.5000028533936,8|0,0:0|0:0,0:0:0:0:
191,347,184902,1,0,1:2:0:0:
191,347,185078,1,0,1:2:0:0:
279,184,185255,2,0,L|274:283,1,93.5000028533936,8|0,0:0|0:0,0:0:0:0:
356,384,185608,1,0,0:0:0:0:
507,171,185784,5,2,0:0:0:0:
360,296,185961,1,10,0:0:0:0:
312,64,186137,1,2,0:0:0:0:
38,210,186314,53,10,0:0:0:0:
73,195,186402,1,10,0:0:0:0:
111,196,186490,1,10,0:0:0:0:
146,211,186578,1,10,0:0:0:0:
172,239,186666,1,10,0:0:0:0:
206,254,186754,1,10,0:0:0:0:
243,249,186843,54,0,P|266:181|242:114,1,140.25000428009,6|0,1:2|0:0,0:0:0:0:
230,105,187196,1,2,1:2:0:0:
159,243,187372,1,10,0:0:0:0:
61,97,187549,1,2,0:0:0:0:
77,335,187725,53,2,1:2:0:0:
124,161,187902,1,2,1:2:0:0:
285,354,188078,53,2,0:0:0:0:
242,201,188255,1,2,0:0:0:0:
172,305,188431,53,2,1:2:0:0:
340,239,188608,1,2,1:2:0:0:
210,99,188784,53,10,0:0:0:0:
417,165,188961,1,10,0:0:0:0:
163,197,189137,53,2,1:2:0:0:
205,12,189314,1,2,1:2:0:0:
205,12,189490,1,10,0:0:0:0:
24,263,189666,54,0,L|4:107,1,152.999995330811,6|2,1:2|1:2,0:0:0:0:
136,303,190196,2,0,L|152:175,1,93.5000028533936,10|2,0:0|0:0,0:0:0:0:
296,112,190549,1,2,1:2:0:0:
137,193,190725,1,2,1:2:0:0:
311,268,190902,1,10,0:0:0:0:
33,86,191078,54,0,B|126:58|103:122|200:90,1,152.999995330811,2|2,1:2|0:0,0:0:0:0:
346,8,191608,2,0,P|296:4|252:27,1,93.5000028533936,10|2,0:0|0:0,0:0:0:0:
92,206,191961,2,0,P|182:207|228:300,1,187.000005706787,2|10,1:2|0:0,0:0:0:0:
351,371,192490,54,0,P|348:293|409:237,1,152.999995330811,6|2,1:2|0:0,0:0:0:0:
493,202,193019,1,10,0:0:0:0:
177,105,193196,53,2,0:0:0:0:
284,166,193372,1,2,1:2:0:0:
398,119,193549,1,2,1:2:0:0:
198,88,193725,53,10,0:0:0:0:
286,175,193901,1,2,0:0:0:0:
408,159,194078,1,2,1:2:0:0:
223,78,194255,53,2,1:2:0:0:
285,185,194431,1,10,0:0:0:0:
408,201,194608,1,2,0:0:0:0:
250,75,194784,53,2,1:2:0:0:
282,194,194960,1,2,1:2:0:0:
396,241,195137,1,10,0:0:0:0:
155,0,195314,54,0,L|140:204,1,187.000005706787,6|2,1:2|1:2,0:0:0:0:
129,291,195843,1,10,0:0:0:0:
464,99,196019,53,2,0:0:0:0:
355,159,196196,1,2,1:2:0:0:
233,140,196372,1,2,1:2:0:0:
458,214,196549,53,10,0:0:0:0:
329,53,196726,1,2,0:0:0:0:
249,286,196902,54,0,B|205:301|205:301|158:289,2,93.5000028533936,6|2|2,1:2|0:0|0:0,0:0:0:0:
26,161,197431,2,0,P|8:230|57:319,1,140.25000428009,6|0,0:0|0:0,0:0:0:0:
100,373,197784,1,10,0:0:0:0:
100,373,197961,1,10,0:0:0:0:
137,42,198137,86,0,L|153:199,1,152.999995330811,4|0,1:2|0:0,0:0:0:0:
278,264,198666,2,0,L|286:163,1,76.4999976654053,8|0,0:0|0:0,0:0:0:0:
298,174,198931,1,0,0:0:0:0:
312,160,199019,1,0,1:2:0:0:
391,258,199196,1,0,1:2:0:0:
458,69,199372,2,0,L|466:170,1,76.4999976654053,8|0,0:0|0:0,0:0:0:0:
497,246,199725,53,0,1:2:0:0:
497,246,199902,1,0,1:2:0:0:
293,99,200078,2,0,L|386:86,1,76.4999976654053,8|0,0:0|0:0,0:0:0:0:
387,94,200343,1,0,0:0:0:0:
405,100,200431,1,0,0:0:0:0:
423,105,200519,1,0,0:0:0:0:
441,111,200608,1,0,1:2:0:0:
357,227,200784,1,8,0:0:0:0:
277,86,200961,1,0,0:0:0:0:
175,298,201137,54,0,L|67:311,1,93.5000028533936,0|0,1:2|1:2,0:0:0:0:
0,157,201490,2,0,L|108:170,1,93.5000028533936,8|0,0:0|0:0,0:0:0:0:
115,163,201755,1,0,0:0:0:0:
137,158,201843,1,0,0:0:0:0:
160,154,201931,1,0,0:0:0:0:
183,150,202019,1,0,1:2:0:0:
306,314,202196,2,0,L|313:216,1,93.5000028533936,8|0,0:0|0:0,0:0:0:0:
426,105,202549,53,0,1:2:0:0:
426,105,202725,1,0,1:2:0:0:
465,269,202902,1,8,0:0:0:0:
326,205,203078,1,0,0:0:0:0:
302,207,203166,1,0,0:0:0:0:
278,209,203255,1,0,0:0:0:0:
254,210,203343,1,0,0:0:0:0:
230,212,203431,2,0,L|221:116,1,93.5000028533936,4|0,0:0|0:0,0:0:0:0:
67,24,203784,54,0,L|52:193,1,152.999995330811,0|0,1:2|0:0,0:0:0:0:
119,346,204314,2,0,L|112:244,1,76.4999976654053,8|0,0:0|0:0,0:0:0:0:
123,253,204578,1,0,0:0:0:0:
133,237,204666,1,0,1:2:0:0:
221,324,204843,1,0,1:2:0:0:
300,164,205019,2,0,L|299:259,1,76.4999976654053,8|0,0:0|0:0,0:0:0:0:
309,384,205372,53,0,1:2:0:0:
309,384,205549,1,0,1:2:0:0:
493,224,205725,2,0,L|401:216,1,76.4999976654053,8|0,0:0|0:0,0:0:0:0:
399,225,205990,1,0,0:0:0:0:
381,232,206078,1,0,0:0:0:0:
363,239,206166,1,0,0:0:0:0:
345,245,206255,1,0,1:2:0:0:
296,368,206431,1,8,0:0:0:0:
216,205,206608,1,0,0:0:0:0:
0,322,206784,54,0,L|140:337,1,114.749996498108,0|0,1:2|0:0,0:0:0:0:
131,345,207137,2,0,L|124:246,1,76.4999976654053,8|0,0:0|0:0,0:0:0:0:
128,249,207402,1,0,0:0:0:0:
132,230,207490,1,0,0:0:0:0:
136,211,207578,1,0,0:0:0:0:
140,192,207666,1,0,1:2:0:0:
307,301,207843,2,0,L|291:214,1,76.4999976654053,8|0,0:0|0:0,0:0:0:0:
364,94,208196,53,0,1:2:0:0:
364,94,208372,1,0,1:2:0:0:
388,261,208549,1,8,0:0:0:0:
287,138,208725,1,0,0:0:0:0:
258,130,208813,1,0,0:0:0:0:
228,131,208901,1,0,1:2:0:0:
201,143,208989,1,0,0:0:0:0:
179,162,209078,1,8,0:0:0:0:
164,188,209166,1,8,0:0:0:0:
149,214,209255,1,8,0:0:0:0:
127,233,209343,1,8,0:0:0:0:
100,245,209431,1,8,0:0:0:0:
70,246,209519,1,8,0:0:0:0:
41,238,209608,54,0,P|27:174|48:112,1,118.999996368408,4|8,1:2|0:0,0:0:0:0:
90,51,210137,1,0,0:0:0:0:
150,187,210314,1,0,0:0:0:0:
164,188,210402,1,0,0:0:0:0:
178,189,210490,1,0,0:0:0:0:
325,81,210666,2,0,L|257:90,1,59.4999981842042,8|0,0:0|0:0,0:0:0:0:
199,10,211019,53,0,1:2:0:0:
199,10,211196,1,0,1:2:0:0:
335,97,211372,1,8,0:0:0:0:
190,172,211549,1,0,0:0:0:0:
187,201,211637,1,0,0:0:0:0:
185,231,211725,1,0,0:0:0:0:
183,261,211813,1,0,0:0:0:0:
181,290,211901,1,0,0:0:0:0:
341,384,212078,2,0,L|337:314,1,59.4999981842042,8|0,0:0|0:0,0:0:0:0:
510,160,212431,54,0,P|446:146|384:167,1,118.999996368408,0|8,1:2|0:0,0:0:0:0:
323,209,212960,1,0,0:0:0:0:
234,124,213137,1,0,0:0:0:0:
235,110,213225,1,0,0:0:0:0:
236,96,213313,1,0,0:0:0:0:
138,289,213489,2,0,L|129:221,1,59.4999981842042,8|0,0:0|0:0,0:0:0:0:
72,143,213842,53,0,1:2:0:0:
72,143,214019,1,0,1:2:0:0:
151,304,214195,1,8,0:0:0:0:
215,211,214372,1,0,0:0:0:0:
244,208,214460,1,0,0:0:0:0:
274,206,214548,1,0,0:0:0:0:
304,204,214636,1,0,0:0:0:0:
333,202,214724,1,0,0:0:0:0:
427,362,214901,6,0,L|357:358,1,59.4999981842042,12|0,0:0|0:0,0:0:0:0:
152,138,215255,54,0,P|124:204|155:286,1,152.999995330811,4|0,1:2|0:0,0:0:0:0:
215,359,215784,1,0,0:0:0:0:
489,192,215961,54,0,L|324:206,1,152.999995330811,8|0,0:0|0:0,0:0:0:0:
233,220,216490,1,0,0:0:0:0:
352,97,216666,53,0,1:2:0:0:
394,295,216843,1,8,0:0:0:0:
213,122,217019,53,0,0:0:0:0:
428,163,217196,1,0,1:2:0:0:
230,322,217372,2,0,L|131:311,1,76.4999976654053,8|0,0:0|0:0,0:0:0:0:
38,265,217725,2,0,L|34:190,1,59.4999981842042
92,53,218078,54,0,P|148:52|211:107,1,114.749996498108,4|0,1:2|0:0,0:0:0:0:
203,102,218431,1,0,0:0:0:0:
338,310,218608,2,0,P|309:262|325:179,1,114.749996498108
324,189,218961,1,0,0:0:0:0:
460,22,219137,2,0,L|468:179,1,152.999995330811,8|0,0:0|0:0,0:0:0:0:
467,174,219843,54,0,L|398:167,2,62.3333352355958
298,112,220196,54,0,L|229:119,2,62.3333352355958
83,195,220549,54,0,L|14:188,2,62.3333352355958
107,62,220902,38,0,B|183:151|191:266|191:271|169:402|40:373|39:371|78:243|193:282|197:283|301:371|441:298,1,680,4|4,1:2|1:2,0:0:0:0:
437,259,226549,54,0,B|373:190|418:89|418:89|362:184|262:214|149:163|194:-15|343:44,1,595,4|0,1:2|0:0,0:0:0:0:
327,256,229372,54,0,B|197:275|216:188|84:220,1,237.999992736817,4|0,1:2|0:0,0:0:0:0:
110,109,230431,1,0,0:0:0:0:
179,363,230784,54,0,P|204:310|198:242,1,118.999996368408,0|0,0:0|0:0,0:0:0:0:
328,43,231490,2,0,P|324:77|329:112,1,59.4999981842042,0|0,0:0|0:0,0:0:0:0:
340,118,231755,1,0,0:0:0:0:
355,132,231843,2,0,L|425:141,1,63.75,2|0,0:0|0:0,0:0:0:0:
436,132,232196,6,0,L|444:222,1,76.4999976654053,4|0,1:2|0:0,0:0:0:0:
454,226,232461,1,0,0:0:0:0:
464,243,232549,2,0,L|456:333,1,76.4999976654053,0|0,0:0|0:0,0:0:0:0:
356,269,232902,2,0,L|266:277,1,76.4999976654053,0|0,0:0|0:0,0:0:0:0:
262,287,233167,1,0,0:0:0:0:
245,297,233255,2,0,L|154:289,1,76.4999976654053,0|0,0:0|0:0,0:0:0:0:
47,169,233608,54,0,L|137:177,1,76.4999976654053,0|0,0:0|0:0,0:0:0:0:
141,187,233873,1,0,0:0:0:0:
158,197,233961,2,0,L|248:189,1,76.4999976654053
257,88,234314,2,0,L|347:80,1,76.4999976654053,0|0,0:0|0:0,0:0:0:0:
351,70,234579,1,0,0:0:0:0:
368,60,234667,2,0,L|458:68,1,76.4999976654053,0|0,0:0|0:0,0:0:0:0:
503,278,235019,54,0,L|413:270,1,76.4999976654053,0|0,1:2|0:0,0:0:0:0:
409,260,235284,1,0,0:0:0:0:
392,250,235372,2,0,L|302:258,1,76.4999976654053,0|0,0:0|0:0,0:0:0:0:
187,359,235725,2,0,L|195:269,1,76.4999976654053,0|0,0:0|0:0,0:0:0:0:
205,265,235990,1,0,0:0:0:0:
215,248,236078,2,0,L|207:158,1,76.4999976654053,0|0,0:0|0:0,0:0:0:0:
52,110,236431,54,0,L|142:102,1,76.4999976654053,0|0,0:0|0:0,0:0:0:0:
146,92,236696,1,0,0:0:0:0:
163,82,236784,2,0,L|253:90,1,76.4999976654053
337,14,237137,2,0,L|345:103,1,76.4999976654053,0|0,0:0|0:0,0:0:0:0:
410,142,237402,1,0,0:0:0:0:
420,159,237490,2,0,L|414:237,1,63.75,2|0,0:0|0:0,0:0:0:0:
378,299,237843,53,4,1:2:0:0:
378,299,238196,1,0,1:2:0:0:
167,206,238549,53,0,1:2:0:0:
167,206,238902,1,0,1:2:0:0:
389,110,239255,85,0,1:2:0:0:
368,107,239431,1,0,1:2:0:0:
346,104,239608,1,0,1:2:0:0:
324,101,239784,1,0,1:2:0:0:
266,184,239961,53,0,1:2:0:0:
236,186,240137,1,0,1:2:0:0:
206,188,240314,1,0,1:2:0:0:
176,190,240490,1,0,1:2:0:0:
110,114,240666,5,2,0:0:0:0:
110,114,240843,1,2,1:2:0:0:
78,210,241195,53,2,0:0:0:0:
78,210,241372,1,2,0:0:0:0:
46,306,241725,53,2,0:0:0:0:
46,306,241902,1,2,0:0:0:0:
256,192,241990,12,4,243314,0:0:0:0:
149,189,253725,6,0,P|200:168|264:180,1,110.499994941712,8|0,0:0|0:0,0:0:0:0:
324,207,253990,1,8,0:0:0:0:
350,211,254078,1,8,0:0:0:0:
377,208,254166,1,8,0:0:0:0:
402,199,254255,1,8,0:0:0:0:
425,65,254431,1,8,0:0:0:0:
512,303,254608,54,0,P|444:290|379:321,1,140.25000428009,4|0,1:2|0:0,0:0:0:0:
374,336,254961,1,0,1:2:0:0:
200,201,255137,2,0,L|307:192,1,93.5000028533936,12|0,0:0|0:0,0:0:0:0:
404,95,255490,2,0,L|413:-12,2,93.5000028533936,0|0|8,1:2|1:2|0:0,0:0:0:0:
187,189,256019,54,0,L|178:82,1,93.5000028533936,0|0,0:0|1:2,0:0:0:0:
131,5,256372,1,0,1:2:0:0:
0,133,256549,2,0,P|50:131|101:156,1,93.5000028533936,8|0,0:0|0:0,0:0:0:0:
191,294,256902,2,0,L|201:181,2,93.5000028533936,0|0|8,1:2|1:2|0:0,0:0:0:0:
317,27,257431,54,0,L|332:171,1,140.25000428009,4|0,1:2|0:0,0:0:0:0:
327,184,257784,1,0,1:2:0:0:
512,263,257961,2,0,P|464:245|409:256,1,93.5000028533936,8|0,0:0|0:0,0:0:0:0:
348,317,258314,1,0,1:2:0:0:
206,126,258490,2,0,L|219:232,1,93.5000028533936,0|8,1:2|0:0,0:0:0:0:
31,351,258843,54,0,P|38:297|82:254,1,93.5000028533936,0|0,1:2|0:0,0:0:0:0:
247,134,259196,2,0,P|240:188|196:231,1,93.5000028533936,0|8,1:2|0:0,0:0:0:0:
0,187,259549,54,0,P|50:166|109:182,1,93.5000028533936,0|0,0:0|1:2,0:0:0:0:
276,299,259902,2,0,P|225:319|166:303,1,93.5000028533936,0|8,1:2|0:0,0:0:0:0:
124,259,260255,1,0,0:0:0:0:
358,0,260431,54,0,L|377:305,1,297.5,4|0,1:2|0:0,0:0:0:0:
253,115,261843,38,0,L|259:216,1,93.5000028533936,0|0,1:2|0:0,0:0:0:0:
78,384,262196,5,8,0:0:0:0:
71,362,262284,1,8,0:0:0:0:
76,327,262372,1,8,0:0:0:0:
98,295,262460,1,8,0:0:0:0:
131,271,262549,1,0,0:0:0:0:
155,241,262637,1,0,0:0:0:0:
169,201,262725,1,0,0:0:0:0:
168,164,262814,1,0,0:0:0:0:
149,126,262902,1,0,0:0:0:0:
119,104,262990,1,0,0:0:0:0:
77,98,263078,22,0,B|157:146|157:146|289:108,1,216.750004134178,4|0,1:2|0:0,0:0:0:0:
309,76,263431,1,0,1:2:0:0:
356,290,263608,2,0,L|206:270,1,144.500002756119,8|0,0:0|0:0,0:0:0:0:
26,27,263961,2,0,L|33:192,1,144.500002756119,0|0,1:2|0:0,0:0:0:0:
32,289,264314,1,8,0:0:0:0:
319,100,264490,54,0,P|250:86|173:115,1,144.500002756119,0|0,0:0|1:2,0:0:0:0:
129,200,264843,1,0,1:2:0:0:
404,26,265019,2,0,L|409:205,1,165.749992412568,8|0,0:0|0:0,0:0:0:0:
424,239,265372,85,0,1:2:0:0:
275,76,265549,1,0,1:2:0:0:
227,313,265725,1,8,0:0:0:0:
0,169,265902,86,0,B|124:127|101:226|235:174,1,216.750004134178,4|0,1:2|0:0,0:0:0:0:
240,145,266255,1,0,1:2:0:0:
475,302,266431,2,0,P|415:270|322:286,1,144.500002756119,8|0,0:0|0:0,0:0:0:0:
0,300,266784,2,0,P|107:276|206:371,1,216.750004134178,0|0,1:2|0:0,0:0:0:0:
203,382,267137,1,8,0:0:0:0:
433,107,267314,54,0,L|257:132,1,144.500002756119,0|0,0:0|1:2,0:0:0:0:
178,297,267666,2,0,L|354:322,1,144.500002756119,0|8,1:2|0:0,0:0:0:0:
437,308,268019,1,0,0:0:0:0:
195,95,268196,85,0,1:2:0:0:
388,212,268372,1,0,1:2:0:0:
165,321,268549,1,8,0:0:0:0:
360,53,268725,54,0,P|293:108|309:244,1,220.999989883423,4|0,1:2|1:2,0:0:0:0:
490,384,269255,2,0,P|505:310|466:207,1,165.749992412568,8|0,0:0|0:0,0:0:0:0:
456,199,269608,1,0,1:2:0:0:
288,247,269784,1,0,1:2:0:0:
324,54,269961,1,8,0:0:0:0:
361,344,270137,54,0,L|236:355,1,110.499994941712,0|0,0:0|1:2,0:0:0:0:
121,364,270490,1,0,1:2:0:0:
127,71,270666,2,0,P|102:148|147:246,1,165.749992412568,8|0,0:0|0:0,0:0:0:0:
153,249,271019,1,0,1:2:0:0:
390,142,271196,2,0,L|274:126,1,110.499994941712,0|8,1:2|0:0,0:0:0:0:
38,267,271549,54,0,P|141:246|229:345,1,220.999989883423,4|0,1:2|0:0,0:0:0:0:
356,384,272078,2,0,L|368:254,1,110.499994941712,8|0,0:0|0:0,0:0:0:0:
420,118,272431,1,0,1:2:0:0:
277,234,272608,2,0,P|220:218|165:162,1,110.499994941712,0|0,1:2|0:0,0:0:0:0:
47,19,272961,54,0,P|71:96|11:199,1,165.749992412568,4|0,1:2|0:0,0:0:0:0:
15,191,273314,1,0,1:2:0:0:
361,47,273490,2,0,P|254:26|166:104,1,220.999989883423,8|0,0:0|1:2,0:0:0:0:
159,241,274019,1,0,1:2:0:0:
159,241,274108,1,0,1:2:0:0:
159,241,274196,1,8,0:0:0:0:
471,152,274372,86,0,P|395:211|279:182,1,191.250007295609,4|0,1:2|0:0,0:0:0:0:
276,161,274725,1,0,1:2:0:0:
44,309,274902,2,0,P|96:276|180:275,1,127.500004863739,12|0,0:0|0:0,0:0:0:0:
461,384,275255,2,0,P|404:303|443:183,1,191.250007295609,0|0,1:2|0:0,0:0:0:0:
448,178,275608,1,8,0:0:0:0:
255,22,275784,54,0,L|266:163,1,127.500004863739,0|0,0:0|1:2,0:0:0:0:
275,266,276137,1,0,1:2:0:0:
495,94,276314,2,0,P|432:86|375:118,1,127.500004863739,8|0,0:0|0:0,0:0:0:0:
339,200,276666,53,0,1:2:0:0:
412,46,276843,1,0,1:2:0:0:
500,250,277019,1,8,0:0:0:0:
101,72,277196,54,0,B|208:37|189:125|301:82,1,191.250007295609,4|0,1:2|0:0,0:0:0:0:
317,50,277549,1,0,1:2:0:0:
138,290,277725,2,0,B|119:225|119:225|139:161,1,127.500004863739,8|0,0:0|0:0,0:0:0:0:
192,65,278078,1,0,1:2:0:0:
437,237,278255,2,0,P|347:221|268:277,1,191.250007295609,0|0,1:2|0:0,0:0:0:0:
255,306,278608,22,0,P|266:246|244:187,1,110.499994941712,0|0,1:2|0:0,0:0:0:0:
60,75,278961,2,0,P|33:130|39:192,1,110.499994941712,0|8,1:2|0:0,0:0:0:0:
122,379,279314,2,0,P|111:319|126:274,1,76.4999976654053,0|0,0:0|1:2,0:0:0:0:
169,181,279666,2,0,P|180:121|168:82,1,76.4999976654053,0|8,1:2|0:0,0:0:0:0:
99,0,280019,1,0,0:0:0:0:
440,60,280196,54,0,P|359:47|291:102,1,165.749992412568,4|0,1:2|0:0,0:0:0:0:
268,75,280549,2,0,P|277:122|268:175,1,93.5000028533936,8|0,0:0|0:0,0:0:0:0:
223,273,280902,1,0,1:2:0:0:
223,273,281078,1,0,1:2:0:0:
386,375,281255,2,0,P|377:320|393:260,1,110.499994941712,8|0,0:0|0:0,0:0:0:0:
468,26,281608,54,0,L|476:145,1,110.499994941712,0|0,1:2|1:2,0:0:0:0:
491,244,281961,1,8,0:0:0:0:
266,112,282137,2,0,P|316:89|379:94,1,110.499994941712,0|0,0:0|1:2,0:0:0:0:
241,286,282490,2,0,P|186:295|127:274,1,110.499994941712,0|8,1:2|0:0,0:0:0:0:
50,193,282843,1,0,0:0:0:0:
156,0,283019,54,0,L|170:171,1,165.749992412568,0|0,1:2|0:0,0:0:0:0:
162,199,283372,2,0,P|204:179|270:174,1,93.5000028533936,8|0,0:0|0:0,0:0:0:0:
350,180,283725,1,0,1:2:0:0:
350,180,283902,1,0,1:2:0:0:
408,360,284078,2,0,L|413:243,1,110.499994941712,8|0,0:0|0:0,0:0:0:0:
495,36,284431,54,0,P|430:80|336:72,1,165.749992412568,0|0,1:2|0:0,0:0:0:0:
323,101,284784,2,0,P|311:50|319:2,1,93.5000028533936,8|0,0:0|0:0,0:0:0:0:
380,186,285137,53,0,1:2:0:0:
212,24,285314,1,0,1:2:0:0:
157,259,285490,1,8,0:0:0:0:
0,53,285666,54,0,P|86:57|145:157,1,187.000005706787
156,337,286196,2,0,P|142:288|149:234,1,93.5000028533936,0|8,0:0|0:0,0:0:0:0:
414,135,286549,2,0,L|304:145,1,93.5000028533936
247,218,286902,1,0,1:2:0:0:
122,40,287078,2,0,L|232:50,1,93.5000028533936,0|8,0:0|0:0,0:0:0:0:
215,48,287608,1,0,0:0:0:0:
312,126,287961,1,0,0:0:0:0:
148,242,288137,102,0,P|131:194|137:152,1,89.2499972763062
148,242,288490,38,0,P|250:220|356:303,1,216.750004134178,4|0,1:2|0:0,0:0:0:0:
345,294,288843,1,0,1:2:0:0:
491,117,289019,2,0,L|352:126,1,127.500004863739,8|0,0:0|0:0,0:0:0:0:
257,180,289372,1,0,1:2:0:0:
257,180,289549,1,0,1:2:0:0:
72,49,289725,2,0,P|136:47|186:83,1,127.500004863739,8|0,0:0|0:0,0:0:0:0:
74,362,290078,54,0,P|42:274|85:172,1,191.250007295609,0|0,1:2|0:0,0:0:0:0:
65,169,290431,2,0,P|108:178|157:169,1,76.4999976654053,8|0,0:0|0:0,0:0:0:0:
31,91,290784,1,0,1:2:0:0:
234,212,290961,1,0,1:2:0:0:
6,295,291137,1,8,0:0:0:0:
197,91,291314,54,0,B|302:51|303:144|407:92,1,191.250007295609,4|0,1:2|0:0,0:0:0:0:
394,87,291666,1,0,1:2:0:0:
248,318,291843,2,0,P|229:266|236:205,1,110.499994941712,8|0,0:0|0:0,0:0:0:0:
266,116,292196,1,0,1:2:0:0:
266,116,292372,1,0,1:2:0:0:
361,290,292549,2,0,L|472:298,1,110.499994941712,8|0,0:0|0:0,0:0:0:0:
266,116,292902,54,0,P|233:183|258:273,1,165.749992412568,0|0,1:2|0:0,0:0:0:0:
266,283,293255,2,0,P|220:277|168:287,1,76.4999976654053,8|0,0:0|0:0,0:0:0:0:
49,384,293608,1,0,1:2:0:0:
55,366,293696,1,0,1:2:0:0:
58,347,293784,1,0,1:2:0:0:
157,377,293961,1,8,0:0:0:0:
0,170,294137,54,0,B|107:139|94:217|196:181,1,191.250007295609,4|0,1:2|0:0,0:0:0:0:
198,172,294490,1,0,1:2:0:0:
313,0,294666,2,0,P|294:56|300:107,1,110.499994941712,8|0,0:0|0:0,0:0:0:0:
325,204,295019,1,0,1:2:0:0:
325,204,295196,1,0,1:2:0:0:
188,332,295372,2,0,P|242:314|305:321,1,110.499994941712,8|0,0:0|0:0,0:0:0:0:
404,361,295725,53,0,1:2:0:0:
404,361,295902,1,0,1:2:0:0:
491,186,296078,2,0,L|486:302,1,110.499994941712,8|0,0:0|0:0,0:0:0:0:
495,313,296343,1,0,0:0:0:0:
504,329,296431,1,8,0:0:0:0:
324,175,296608,1,0,1:2:0:0:
292,271,296784,1,8,0:0:0:0:
498,0,296961,54,0,P|436:35|420:147,1,165.749992412568,4|0,1:2|0:0,0:0:0:0:
417,140,297314,1,0,1:2:0:0:
489,282,297490,2,0,P|436:255|371:268,1,110.499994941712,8|0,0:0|0:0,0:0:0:0:
293,296,297843,1,0,1:2:0:0:
293,296,298019,1,0,1:2:0:0:
206,128,298196,2,0,L|210:241,1,110.499994941712,8|0,0:0|0:0,0:0:0:0:
69,342,298549,53,0,1:2:0:0:
79,314,298637,1,0,0:0:0:0:
82,284,298725,1,0,0:0:0:0:
77,255,298813,1,0,1:2:0:0:
63,229,298901,1,8,0:0:0:0:
47,194,298990,1,0,0:0:0:0:
44,157,299078,1,0,1:2:0:0:
54,120,299166,1,0,0:0:0:0:
75,89,299254,1,8,0:0:0:0:
104,135,299343,1,8,0:0:0:0:
152,161,299431,1,8,0:0:0:0:
207,161,299519,1,0,0:0:0:0:
254,133,299607,1,8,0:0:0:0:
358,14,299784,54,0,B|351:85|351:85|364:118|364:118|357:206,1,191.250007295609,4|0,1:2|0:0,0:0:0:0:
348,218,300137,1,0,1:2:0:0:
60,113,300314,2,0,P|110:93|168:96,1,110.499994941712,8|0,0:0|0:0,0:0:0:0:
261,140,300666,1,0,1:2:0:0:
261,140,300843,1,0,1:2:0:0:
169,305,301019,2,0,L|155:180,1,110.499994941712,8|0,0:0|0:0,0:0:0:0:
458,316,301372,54,0,P|384:295|310:339,1,165.749992412568,0|0,1:2|0:0,0:0:0:0:
301,352,301725,2,0,P|303:311|296:271,1,76.4999976654053,8|0,0:0|0:0,0:0:0:0:
222,209,302078,1,0,1:2:0:0:
403,287,302255,1,0,1:2:0:0:
202,373,302431,1,8,0:0:0:0:
495,150,302608,54,0,P|399:130|318:208,1,191.250007295609,4|0,1:2|0:0,0:0:0:0:
325,202,302961,1,0,1:2:0:0:
97,111,303137,2,0,L|212:100,1,110.499994941712,8|0,0:0|0:0,0:0:0:0:
308,80,303490,1,0,1:2:0:0:
308,80,303666,1,0,1:2:0:0:
180,301,303843,2,0,P|158:244|164:188,1,110.499994941712,8|0,0:0|0:0,0:0:0:0:
385,384,304196,54,0,P|426:316|420:224,1,165.749992412568,0|0,1:2|0:0,0:0:0:0:
428,215,304549,2,0,P|382:224|345:216,1,76.4999976654053,8|0,0:0|0:0,0:0:0:0:
152,76,304902,1,8,0:0:0:0:
170,73,304990,1,8,0:0:0:0:
189,76,305078,1,8,0:0:0:0:
93,347,305255,2,0,L|72:188,1,140.25000428009,12|0,0:0|0:0,0:0:0:0:
55,108,305608,85,8,1:2:0:0:
55,108,305784,1,8,1:2:0:0:
212,283,306137,53,8,1:2:0:0:
212,283,306313,1,8,1:2:0:0:
361,200,306666,53,8,1:2:0:0:
361,200,306842,1,8,1:2:0:0:
365,204,308255,86,0,B|380:274|314:302|277:288|274:288|111:178|240:110|243:111|374:134|269:290|266:291|230:311|184:293|184:293|266:375|371:394|461:331|510:188|382:96,1,969,4|0,0:0|0:0,0:0:0:0:
