osu file format v14

[General]
AudioFilename: audio.mp3
AudioLeadIn: 0
PreviewTime: -1
Countdown: 1
SampleSet: None
StackLeniency: 0.7
Mode: 0
LetterboxInBreaks: 0
WidescreenStoryboard: 0

[Editor]
DistanceSpacing: 1.2
BeatDivisor: 1
GridSize: 32
TimelineZoom: 1

[Metadata]
Title:Mazi Love
TitleUnicode:Mazi Love
Artist:6 Dogs
ArtistUnicode:6 Dogs
Creator:_Dalphan
Version:Hard
Source:
Tags:6 Dogs Mazi Love
BeatmapID:1739130
BeatmapSetID:830026

[Difficulty]
HPDrainRate:5
CircleSize:5
OverallDifficulty:5
ApproachRate:5
SliderMultiplier:1.00000000596046
SliderTickRate:1

[Events]
//Background and Video events
//Break Periods
2,11421,26285
//Storyboard Layer 0 (Background)
//Storyboard Layer 1 (Fail)
//Storyboard Layer 2 (Pass)
//Storyboard Layer 3 (Foreground)
//Storyboard Sound Samples

[TimingPoints]
27485.4432892155,214.285714285714,4,1,0,100,1,0

[HitObjects]
256,192,5221,12,0,11221,0:0:0:0:
32,32,27485,5,0,0:0:0:0:
96,32,27699,1,0,0:0:0:0:
32,96,27914,2,0,P|96:128|224:32,1,200.000001192093
352,32,28771,1,0,0:0:0:0:
448,32,28985,1,0,0:0:0:0:
448,96,29199,2,0,P|416:192|352:160,2,200.000001192093
192,96,30914,5,0,0:0:0:0:
224,96,31128,1,0,0:0:0:0:
256,96,31342,1,0,0:0:0:0:
288,96,31556,1,0,0:0:0:0:
320,96,31771,2,0,L|192:288,1,200.000001192092
192,96,32628,2,0,L|352:256,1,200.000001192092
192,128,33485,2,0,P|256:256|416:128,1,400.000002384184
352,128,34556,5,0,0:0:0:0:
416,192,34771,2,0,P|384:256|288:192,1,200.000001192092
96,64,35628,1,0,0:0:0:0:
160,64,35842,1,0,0:0:0:0:
64,128,36056,2,0,P|128:224|160:128,2,200.000001192092
320,96,37771,5,0,0:0:0:0:
288,96,37985,1,0,0:0:0:0:
256,96,38199,1,0,0:0:0:0:
224,96,38414,1,0,0:0:0:0:
192,96,38628,2,0,L|320:256,1,200.000001192092
384,96,39485,2,0,L|256:256,2,200.000001192092
384,96,40771,1,0,0:0:0:0:
32,32,41199,5,0,0:0:0:0:
96,32,41413,1,0,0:0:0:0:
32,96,41628,2,0,P|96:128|224:32,1,200.000001192093
352,32,42485,1,0,0:0:0:0:
448,32,42699,1,0,0:0:0:0:
448,96,42913,2,0,P|416:192|352:160,2,200.000001192093
192,96,44628,5,0,0:0:0:0:
224,96,44842,1,0,0:0:0:0:
256,96,45056,1,0,0:0:0:0:
288,96,45270,1,0,0:0:0:0:
320,96,45485,2,0,L|192:288,1,200.000001192092
192,96,46342,2,0,L|352:256,1,200.000001192092
192,128,47199,2,0,P|256:256|416:128,1,400.000002384184
352,128,48271,5,0,0:0:0:0:
416,192,48486,2,0,P|384:256|288:192,1,200.000001192092
96,64,49343,1,0,0:0:0:0:
160,64,49557,1,0,0:0:0:0:
64,128,49771,2,0,P|128:224|160:128,2,200.000001192092
320,96,51486,5,0,0:0:0:0:
288,96,51700,1,0,0:0:0:0:
256,96,51914,1,0,0:0:0:0:
224,96,52129,1,0,0:0:0:0:
192,96,52343,2,0,L|320:256,1,200.000001192092
384,96,53200,2,0,L|256:256,2,200.000001192092
384,96,54486,1,0,0:0:0:0:
