osu file format v14

[General]
AudioFilename: audio.mp3
AudioLeadIn: 0
PreviewTime: 7594
Countdown: 0
SampleSet: Soft
StackLeniency: 0.7
Mode: 0
LetterboxInBreaks: 0
WidescreenStoryboard: 1

[Editor]
DistanceSpacing: 2.8
BeatDivisor: 4
GridSize: 16
TimelineZoom: 2.2

[Metadata]
Title:GUCCI (feat. Morgenshtern)
TitleUnicode:ГУЧЧИ (feat. Morgenshtern)
Artist:55x55 and BORCH671GAMES
ArtistUnicode:55x55 and BORCH671GAMES
Creator:Anagor
Version:Insane
Source:
Tags:55x55 borch671games gucci morgenshtern russian song
BeatmapID:1989661
BeatmapSetID:952381

[Difficulty]
HPDrainRate:6
CircleSize:4
OverallDifficulty:8
ApproachRate:8
SliderMultiplier:1.7
SliderTickRate:1

[Events]
//Background and Video events
0,0,"bggucci.jpeg",0,0
//Break Periods
2,37594,44109
//Storyboard Layer 0 (Background)
//Storyboard Layer 1 (Fail)
//Storyboard Layer 2 (Pass)
//Storyboard Layer 3 (Foreground)
//Storyboard Sound Samples

[TimingPoints]
94,468.75,4,2,0,15,1,0
7594,-100,4,2,0,10,0,0
8531,-100,4,2,0,13,0,0
9469,-100,4,2,0,18,0,0
10406,-100,4,2,0,22,0,0
11344,-100,4,2,0,28,0,0
12281,-100,4,2,0,33,0,0
13219,-100,4,2,0,35,0,0
14156,-100,4,2,0,40,0,0
15094,-100,4,2,0,44,0,0
16031,-100,4,2,0,49,0,0
16969,-100,4,2,0,55,0,0
17906,-100,4,2,0,60,0,0
18844,-100,4,2,0,65,0,0
19781,-100,4,2,0,70,0,0
20719,-100,4,2,0,50,0,0
21656,-100,4,2,0,40,0,0
22594,-100,4,2,0,75,0,0
52594,-100,4,2,0,85,0,1
65719,-100,4,2,0,30,0,0
66187,-100,4,2,0,100,0,0
67125,-100,4,2,0,30,0,0
67594,-100,4,2,0,95,0,1
80719,-100,4,2,0,85,0,0
80953,-100,4,2,0,5,0,0

[Colours]
Combo1 : 145,229,103
Combo2 : 255,213,128
Combo3 : 242,121,97
Combo4 : 255,140,179
Combo5 : 187,103,229
Combo6 : 140,236,255

[HitObjects]
255,191,6656,6,0,L|255:295,2,85
255,60,7594,5,2,0:0:0:0:
129,190,8062,1,0,0:0:0:0:
255,60,8531,1,0,0:0:0:0:
311,109,8765,1,0,0:0:0:0:
359,53,9000,1,0,0:0:0:0:
463,234,9469,2,0,L|290:315,1,170,2|0,0:0|0:0,0:0:0:0:
234,342,10172,1,0,0:0:0:0:
153,282,10406,2,0,B|77:225|77:225|127:153,1,170
183,72,11344,5,2,0:0:0:0:
415,188,11812,1,0,0:0:0:0:
183,72,12281,1,0,0:0:0:0:
272,117,12515,1,0,0:0:0:0:
184,159,12750,2,0,P|173:229|264:314,1,170,0|2,0:0|0:0,0:0:0:0:
312,329,13453,1,0,0:0:0:0:
280,249,13687,1,2,0:0:0:0:
135,334,13922,1,2,0:0:0:0:
135,334,14156,2,0,P|102:284|97:150,1,170,2|2,0:0|0:0,0:0:0:0:
256,192,15094,12,0,21656,0:0:0:0:
61,118,22594,5,6,0:0:0:0:
145,45,22828,1,0,0:0:0:0:
205,129,23062,2,0,P|248:115|274:79,1,85
364,86,23531,2,0,P|390:134|435:143,1,85,2|0,0:0|0:0,0:0:0:0:
474,207,24000,2,0,P|443:291|358:317,1,170,0|2,0:0|0:0,0:0:0:0:
280,321,24703,1,0,0:0:0:0:
378,231,24937,1,0,0:0:0:0:
279,164,25172,1,0,0:0:0:0:
279,164,25406,6,0,P|232:164|181:140,1,85,2|0,0:0|0:0,0:0:0:0:
153,73,25875,2,0,P|102:48|53:42,1,85
37,131,26344,5,6,0:0:0:0:
114,196,26578,1,0,0:0:0:0:
194,127,26812,2,0,L|280:195,1,85
351,246,27281,1,2,0:0:0:0:
389,93,27515,1,0,0:0:0:0:
389,93,27750,6,0,P|316:56|206:50,1,170,0|2,0:0|0:0,0:0:0:0:
142,59,28453,1,0,0:0:0:0:
87,129,28687,2,0,L|140:219,1,85,2|0,0:0|0:0,0:0:0:0:
195,305,29156,5,2,0:0:0:0:
349,188,29390,1,2,0:0:0:0:
393,355,29625,1,6,0:0:0:0:
78,155,30094,5,6,0:0:0:0:
152,95,30328,1,0,0:0:0:0:
208,166,30562,2,0,L|264:244,1,85,2|0,0:0|0:0,0:0:0:0:
411,271,31031,5,6,0:0:0:0:
476,197,31265,1,0,0:0:0:0:
397,136,31500,2,0,L|314:73,1,85,2|0,0:0|0:0,0:0:0:0:
200,131,31969,6,0,L|278:194,1,85,6|0,0:0|0:0,0:0:0:0:
350,254,32437,1,2,0:0:0:0:
177,296,32672,1,2,0:0:0:0:
200,131,32906,1,6,0:0:0:0:
312,51,33140,6,0,L|374:140,1,85,2|2,0:0|0:0,0:0:0:0:
430,213,33609,1,2,0:0:0:0:
348,340,33844,5,6,0:0:0:0:
127,336,34312,1,6,0:0:0:0:
124,133,34781,1,6,0:0:0:0:
349,133,35250,2,0,L|443:134,1,85,6|0,0:0|0:0,0:0:0:0:
243,133,35719,1,6,0:0:0:0:
351,274,35953,1,6,0:0:0:0:
351,274,36070,2,0,P|310:307|245:300,1,116.875,2|2,0:0|0:0,0:0:0:0:
147,248,36627,5,6,0:0:0:0:
355,94,37095,1,6,0:0:0:0:
106,169,44859,5,2,0:0:0:0:
106,169,44976,1,2,0:0:0:0:
106,169,45094,2,0,L|233:301,1,170,6|2,0:0|0:0,0:0:0:0:
405,232,45797,5,2,0:0:0:0:
405,232,45913,1,2,0:0:0:0:
405,232,46031,2,0,L|278:100,1,170,6|2,0:0|0:0,0:0:0:0:
282,288,46734,5,2,0:0:0:0:
282,288,46851,1,2,0:0:0:0:
282,288,46969,2,0,L|409:156,1,170,6|2,0:0|0:0,0:0:0:0:
231,123,47672,5,2,0:0:0:0:
231,123,47789,1,2,0:0:0:0:
231,123,47907,2,0,L|104:255,1,170,6|2,0:0|0:0,0:0:0:0:
50,303,48609,1,2,0:0:0:0:
76,203,48844,2,0,L|189:253,1,85,6|2,0:0|0:0,0:0:0:0:
337,64,49312,2,0,L|306:171,1,85,6|2,0:0|0:0,0:0:0:0:
33,222,49781,2,0,L|136:267,1,85,6|2,0:0|0:0,0:0:0:0:
384,41,50250,2,0,L|356:141,1,85,6|2,0:0|0:0,0:0:0:0:
337,223,50719,5,2,0:0:0:0:
155,340,51187,1,2,0:0:0:0:
80,137,51656,1,14,0:0:0:0:
143,78,51890,1,2,0:0:0:0:
80,137,52125,2,0,L|154:205,1,85,14|2,0:0|0:0,0:0:0:0:
213,264,52594,5,14,0:0:0:0:
408,98,52828,1,0,0:0:0:0:
398,346,53062,1,0,0:0:0:0:
260,124,53297,1,0,0:0:0:0:
490,224,53531,1,2,0:0:0:0:
213,264,53765,1,0,0:0:0:0:
213,264,54000,2,0,P|138:259|124:239,1,85
72,130,54469,6,0,L|168:96,1,85,14|0,0:0|0:0,0:0:0:0:
294,102,54937,2,0,L|390:136,1,85
452,286,55406,2,0,L|356:320,1,85,10|0,0:0|0:0,0:0:0:0:
241,316,55874,2,0,L|145:282,1,85
48,249,56344,5,14,0:0:0:0:
136,63,56578,1,0,0:0:0:0:
253,193,56812,1,0,0:0:0:0:
412,124,57047,1,0,0:0:0:0:
315,335,57281,1,2,0:0:0:0:
119,168,57515,1,0,0:0:0:0:
119,168,57750,2,0,L|182:103,1,85
293,88,58219,6,0,L|394:155,1,85,14|0,0:0|0:0,0:0:0:0:
359,328,58687,2,0,L|269:273,1,85
422,171,59156,2,0,L|517:230,1,85,10|0,0:0|0:0,0:0:0:0:
230,251,59625,2,0,L|137:194,1,85,10|0,0:0|0:0,0:0:0:0:
78,153,60094,5,14,0:0:0:0:
310,120,60328,1,0,0:0:0:0:
206,314,60562,1,0,0:0:0:0:
458,279,60797,1,0,0:0:0:0:
275,219,61031,1,2,0:0:0:0:
429,84,61265,1,0,0:0:0:0:
251,36,61500,2,0,L|170:89,1,85
73,153,61969,6,0,P|77:207|111:264,1,85,14|0,0:0|0:0,0:0:0:0:
276,150,62437,2,0,P|272:204|238:261,1,85
41,203,62906,2,0,P|45:257|79:314,1,85,14|0,0:0|0:0,0:0:0:0:
309,204,63375,2,0,P|305:258|271:315,1,85
230,348,63844,5,14,0:0:0:0:
86,237,64078,1,0,0:0:0:0:
194,107,64312,1,0,0:0:0:0:
336,202,64547,1,0,0:0:0:0:
428,152,64781,6,0,L|370:66,1,85,2|0,0:0|0:0,0:0:0:0:
240,78,65250,2,0,L|183:162,1,85
113,270,65719,2,0,B|171:304|257:263|257:263|322:303|402:298|402:298|455:176|365:98,1,510,14|14,0:0|0:0,0:0:0:0:
230,89,67594,5,14,0:0:0:0:
152,314,67828,1,0,0:0:0:0:
326,157,68062,1,2,0:0:0:0:
424,332,68297,1,0,0:0:0:0:
199,203,68531,1,10,0:0:0:0:
387,108,68765,1,0,0:0:0:0:
424,332,69000,2,0,L|339:289,1,85,2|0,0:0|0:0,0:0:0:0:
176,323,69469,6,0,L|136:222,1,85,14|0,0:0|0:0,0:0:0:0:
216,175,69937,2,0,L|239:82,1,85,10|0,0:0|0:0,0:0:0:0:
372,175,70406,2,0,L|344:84,1,85,14|0,0:0|0:0,0:0:0:0:
417,322,70875,2,0,L|451:217,1,85,10|0,0:0|0:0,0:0:0:0:
473,148,71344,5,14,0:0:0:0:
240,57,71578,1,0,0:0:0:0:
332,276,71812,1,2,0:0:0:0:
415,54,72047,1,0,0:0:0:0:
207,181,72281,1,10,0:0:0:0:
443,271,72515,1,0,0:0:0:0:
339,120,72750,1,2,0:0:0:0:
207,181,72984,1,0,0:0:0:0:
185,45,73219,6,0,B|165:104|165:104|105:104,1,85,14|0,0:0|0:0,0:0:0:0:
185,233,73687,2,0,B|165:174|165:174|105:174,1,85,10|0,0:0|0:0,0:0:0:0:
28,46,74156,2,0,B|48:105|48:105|108:105,1,85,14|0,0:0|0:0,0:0:0:0:
28,233,74625,2,0,B|48:174|48:174|108:174,1,85,10|0,0:0|0:0,0:0:0:0:
151,170,75094,5,14,0:0:0:0:
383,101,75328,1,0,0:0:0:0:
254,228,75562,5,2,0:0:0:0:
475,286,75797,1,0,0:0:0:0:
338,346,76031,5,10,0:0:0:0:
263,76,76265,1,0,0:0:0:0:
245,318,76500,5,2,0:0:0:0:
331,29,76734,1,0,0:0:0:0:
409,155,76969,6,0,P|362:156|330:192,1,85,14|0,0:0|0:0,0:0:0:0:
178,158,77437,2,0,P|225:159|257:195,1,85,10|0,0:0|0:0,0:0:0:0:
408,290,77906,2,0,P|361:289|329:253,1,85,14|0,0:0|0:0,0:0:0:0:
186,290,78375,2,0,P|233:289|265:253,1,85,10|0,0:0|0:0,0:0:0:0:
292,139,78844,5,14,0:0:0:0:
278,335,79078,1,0,0:0:0:0:
272,118,79312,5,10,0:0:0:0:
155,308,79547,1,0,0:0:0:0:
267,84,79781,5,14,0:0:0:0:
54,228,80015,1,10,0:0:0:0:
276,49,80250,5,10,0:0:0:0:
13,119,80484,1,10,0:0:0:0:
256,192,80719,12,0,82359,0:0:0:0:
