osu file format v14

[General]
AudioFilename: audio.ogg
AudioLeadIn: 0
PreviewTime: 15183
Countdown: 0
SampleSet: Normal
StackLeniency: 0.7
Mode: 1
LetterboxInBreaks: 0
WidescreenStoryboard: 1

[Editor]
Bookmarks: 4056,7806,11556,15306,20931,29837,30306,37337,37806
DistanceSpacing: 1.4
BeatDivisor: 4
GridSize: 16
TimelineZoom: 1.7

[Metadata]
Title:TIPA PRIVIDENIYE (feat. Utopia Show) (Cut Ver.)
TitleUnicode:ТИПА ПРИВИДЕНИЕ (feat. Utopia Show) (Cut Ver.)
Artist:55x55
ArtistUnicode:55x55
Creator:[-E S I A-]
Version:MUZUKASHII
Source:
Tags:электроника электронная танцевальная музыка prividenie electronic russian русский dance music edm ft. featuring short version E_S_I_A [-E_S_I_A-] ESIA [-ESIA-]
BeatmapID:4001343
BeatmapSetID:1935971

[Difficulty]
HPDrainRate:9
CircleSize:2
OverallDifficulty:5
ApproachRate:10
SliderMultiplier:1.4
SliderTickRate:1

[Events]
//Background and Video events
0,0,"stolen bg.jpg",0,0
//Break Periods
//Storyboard Layer 0 (Background)
//Storyboard Layer 1 (Fail)
//Storyboard Layer 2 (Pass)
//Storyboard Layer 3 (Foreground)
//Storyboard Layer 4 (Overlay)
//Storyboard Sound Samples

[TimingPoints]
301,468.75,4,1,0,45,1,0
301,-111.111111111111,4,1,0,45,0,0
3816,-105.263157894737,4,1,0,50,0,0
7566,-100,4,1,0,55,0,0
11316,-95.2380952380952,4,1,0,60,0,0
15066,-100,4,1,0,70,0,0
22683,-100,4,1,0,75,0,0
26433,-100,4,1,0,80,0,0
30301,-95.2380952380952,4,1,0,85,0,1
37332,-95.2380952380952,4,1,0,80,0,0
37801,-95.2380952380952,4,1,0,85,0,1
45301,-95.2380952380952,4,1,0,80,0,0

[HitObjects]
211,173,301,5,0,0:0:0:0:
259,164,769,1,0,0:0:0:0:
454,175,1238,1,0,0:0:0:0:
418,168,1707,1,0,0:0:0:0:
277,185,2176,1,0,0:0:0:0:
277,185,2644,1,0,0:0:0:0:
471,159,3113,1,0,0:0:0:0:
213,129,4051,1,8,0:0:0:0:
298,176,4519,1,8,0:0:0:0:
298,176,4988,1,8,0:0:0:0:
296,179,5457,1,8,0:0:0:0:
264,199,5926,1,8,0:0:0:0:
321,119,6394,1,8,0:0:0:0:
309,162,6863,1,8,0:0:0:0:
211,173,7801,5,0,0:0:0:0:
367,183,8269,1,8,0:0:0:0:
418,168,8738,1,0,0:0:0:0:
388,171,9207,1,8,0:0:0:0:
325,190,9676,1,0,0:0:0:0:
277,185,10144,1,8,0:0:0:0:
406,167,10613,1,0,0:0:0:0:
342,181,11082,1,8,0:0:0:0:
213,129,11551,1,8,0:0:0:0:
406,167,12019,1,0,0:0:0:0:
296,179,12488,1,8,0:0:0:0:
118,197,12957,1,0,0:0:0:0:
264,199,13426,1,8,0:0:0:0:
321,119,13894,1,0,0:0:0:0:
169,179,15301,1,8,0:0:0:0:
128,235,15535,1,0,0:0:0:0:
263,153,15769,1,8,0:0:0:0:
247,189,16238,1,0,0:0:0:0:
264,222,16472,1,8,0:0:0:0:
264,222,16590,1,8,0:0:0:0:
298,189,16707,1,8,0:0:0:0:
140,38,17176,1,8,0:0:0:0:
144,237,17410,1,0,0:0:0:0:
298,189,17644,1,8,0:0:0:0:
107,110,18113,1,8,0:0:0:0:
157,121,18347,1,0,0:0:0:0:
298,189,18465,1,0,0:0:0:0:
249,157,18582,1,0,0:0:0:0:
202,201,18816,1,0,0:0:0:0:
241,142,19051,1,8,0:0:0:0:
142,237,19285,1,0,0:0:0:0:
441,188,19519,1,8,0:0:0:0:
290,206,19988,1,0,0:0:0:0:
202,192,20222,1,8,0:0:0:0:
202,192,20340,1,8,0:0:0:0:
279,144,20457,1,8,0:0:0:0:
279,144,20926,1,8,0:0:0:0:
105,191,21160,1,0,0:0:0:0:
344,253,21394,1,8,0:0:0:0:
203,235,21511,1,8,0:0:0:0:
278,185,21746,1,0,0:0:0:0:
289,233,21863,1,0,0:0:0:0:
271,223,22097,1,0,0:0:0:0:
327,191,22332,1,8,0:0:0:0:
171,236,22801,1,8,0:0:0:0:
198,257,23035,1,0,0:0:0:0:
191,286,23269,1,8,0:0:0:0:
191,286,23738,1,8,0:0:0:0:
191,286,23972,1,8,0:0:0:0:
6,243,24207,1,0,0:0:0:0:
254,253,24676,1,0,0:0:0:0:
70,298,24910,1,8,0:0:0:0:
166,253,25144,1,0,0:0:0:0:
167,253,25613,1,0,0:0:0:0:
167,253,25847,1,0,0:0:0:0:
70,298,26082,1,8,0:0:0:0:
216,233,26551,5,0,0:0:0:0:
317,234,26785,1,8,0:0:0:0:
217,300,26902,1,8,0:0:0:0:
216,233,27136,1,0,0:0:0:0:
216,233,27371,1,8,0:0:0:0:
316,166,27605,1,0,0:0:0:0:
316,166,27722,1,0,0:0:0:0:
252,141,27840,1,0,0:0:0:0:
244,247,28074,1,8,0:0:0:0:
241,181,28191,1,8,0:0:0:0:
162,225,28308,1,8,0:0:0:0:
391,194,29832,5,12,0:0:0:0:
204,209,30301,1,4,0:0:0:0:
391,194,30652,1,0,0:0:0:0:
283,284,30886,1,8,0:0:0:0:
305,211,31004,1,8,0:0:0:0:
179,155,31238,1,0,0:0:0:0:
399,158,31472,1,8,0:0:0:0:
399,158,31707,1,0,0:0:0:0:
300,158,32176,1,0,0:0:0:0:
446,159,32527,1,8,0:0:0:0:
399,158,32761,1,0,0:0:0:0:
399,158,32879,1,0,0:0:0:0:
307,193,33113,1,8,0:0:0:0:
403,174,33347,1,0,0:0:0:0:
399,158,33582,1,8,0:0:0:0:
446,71,34051,1,4,0:0:0:0:
257,176,34402,1,0,0:0:0:0:
283,157,34636,1,8,0:0:0:0:
283,157,34754,1,8,0:0:0:0:
400,62,34988,1,0,0:0:0:0:
400,62,35222,1,8,0:0:0:0:
123,200,35457,1,0,0:0:0:0:
371,156,35926,1,0,0:0:0:0:
226,179,36277,1,8,0:0:0:0:
311,165,36511,1,0,0:0:0:0:
311,165,36629,1,0,0:0:0:0:
344,150,36863,1,8,0:0:0:0:
290,65,37097,1,0,0:0:0:0:
311,165,37332,1,12,0:0:0:0:
371,156,37801,1,4,0:0:0:0:
270,160,38152,1,0,0:0:0:0:
283,199,38386,1,8,0:0:0:0:
153,244,38504,1,8,0:0:0:0:
223,140,38738,1,0,0:0:0:0:
292,177,38972,1,0,0:0:0:0:
237,162,39090,1,0,0:0:0:0:
237,162,39207,1,0,0:0:0:0:
237,162,39441,1,8,0:0:0:0:
291,113,39676,1,0,0:0:0:0:
261,212,40027,1,8,0:0:0:0:
174,181,40261,1,0,0:0:0:0:
328,187,40379,1,0,0:0:0:0:
291,169,40613,1,8,0:0:0:0:
341,218,40847,1,8,0:0:0:0:
341,218,40965,1,8,0:0:0:0:
205,252,41082,1,8,0:0:0:0:
33,171,41316,1,8,0:0:0:0:
232,218,41551,1,4,0:0:0:0:
263,245,41902,1,0,0:0:0:0:
271,223,42136,1,8,0:0:0:0:
263,245,42254,1,8,0:0:0:0:
266,189,42488,1,0,0:0:0:0:
312,188,42722,1,0,0:0:0:0:
312,188,42840,1,0,0:0:0:0:
326,173,42957,1,0,0:0:0:0:
194,208,43191,1,0,0:0:0:0:
244,170,43426,1,12,0:0:0:0:
244,170,43894,1,12,0:0:0:0:
446,170,44363,1,4,0:0:0:0:
252,138,44832,1,4,0:0:0:0:
256,192,45301,12,0,46238,0:0:0:0:
