osu file format v14

[General]
AudioFilename: audio.ogg
AudioLeadIn: 0
PreviewTime: 15183
Countdown: 0
SampleSet: Normal
StackLeniency: 0.7
Mode: 1
LetterboxInBreaks: 0
WidescreenStoryboard: 1

[Editor]
Bookmarks: 4056,7806,11556,15306,20931,29837,30306,37337,37806
DistanceSpacing: 1.4
BeatDivisor: 2
GridSize: 16
TimelineZoom: 0.3999998

[Metadata]
Title:TIPA PRIVIDENIYE (feat. Utopia Show) (Cut Ver.)
TitleUnicode:ТИПА ПРИВИДЕНИЕ (feat. Utopia Show) (Cut Ver.)
Artist:55x55
ArtistUnicode:55x55
Creator:[-E S I A-]
Version:KANTAN
Source:
Tags:электроника электронная танцевальная музыка prividenie electronic russian русский dance music edm ft. featuring short version E_S_I_A [-E_S_I_A-] ESIA [-ESIA-]
BeatmapID:4001342
BeatmapSetID:1935971

[Difficulty]
HPDrainRate:10
CircleSize:2
OverallDifficulty:3
ApproachRate:10
SliderMultiplier:1.4
SliderTickRate:1

[Events]
//Background and Video events
0,0,"stolen bg.jpg",0,0
//Break Periods
//Storyboard Layer 0 (Background)
//Storyboard Layer 1 (Fail)
//Storyboard Layer 2 (Pass)
//Storyboard Layer 3 (Foreground)
//Storyboard Layer 4 (Overlay)
//Storyboard Sound Samples

[TimingPoints]
301,468.75,4,1,0,45,1,0
301,-100,4,1,0,45,0,0
3816,-100,4,1,0,50,0,0
7566,-100,4,1,0,55,0,0
11316,-100,4,1,0,60,0,0
15066,-100,4,1,0,70,0,0
22683,-100,4,1,0,75,0,0
26433,-100,4,1,0,80,0,0
30301,-100,4,1,0,85,0,1
37332,-100,4,1,0,80,0,0
37801,-100,4,1,0,85,0,1
45301,-100,4,1,0,80,0,0

[HitObjects]
211,173,301,5,0,0:0:0:0:
454,175,1238,1,0,0:0:0:0:
277,185,2176,1,0,0:0:0:0:
471,159,3113,1,0,0:0:0:0:
213,129,4051,1,8,0:0:0:0:
298,176,4988,1,8,0:0:0:0:
264,199,5926,1,8,0:0:0:0:
309,162,6863,1,8,0:0:0:0:
211,173,7801,1,0,0:0:0:0:
388,171,8738,1,8,0:0:0:0:
406,167,9676,1,0,0:0:0:0:
325,190,10144,1,8,0:0:0:0:
213,129,10613,1,0,0:0:0:0:
298,176,11551,1,8,0:0:0:0:
341,179,12488,1,0,0:0:0:0:
264,199,13426,1,8,0:0:0:0:
331,270,13894,1,0,0:0:0:0:
169,179,15301,1,8,0:0:0:0:
348,204,16238,1,0,0:0:0:0:
140,38,16707,1,0,0:0:0:0:
298,189,17176,1,8,0:0:0:0:
158,224,18113,1,0,0:0:0:0:
111,219,19051,1,8,0:0:0:0:
227,236,19988,1,0,0:0:0:0:
235,170,20457,1,8,0:0:0:0:
105,191,20926,1,0,0:0:0:0:
198,257,22801,1,0,0:0:0:0:
191,286,23269,1,0,0:0:0:0:
191,286,23738,1,8,0:0:0:0:
70,298,24676,1,8,0:0:0:0:
166,253,25144,1,8,0:0:0:0:
167,253,25613,1,0,0:0:0:0:
256,192,26551,12,0,28308,0:0:0:0:
391,194,29832,5,12,0:0:0:0:
204,209,30301,1,4,0:0:0:0:
296,165,31004,1,8,0:0:0:0:
399,158,31707,1,8,0:0:0:0:
300,158,32176,1,0,0:0:0:0:
249,210,33582,1,8,0:0:0:0:
446,71,34051,1,4,0:0:0:0:
283,157,34754,1,8,0:0:0:0:
400,62,35457,1,8,0:0:0:0:
371,156,35926,1,0,0:0:0:0:
311,165,37332,1,12,0:0:0:0:
371,156,37801,1,4,0:0:0:0:
291,113,38738,1,8,0:0:0:0:
291,241,39207,1,8,0:0:0:0:
291,113,39676,1,0,0:0:0:0:
225,215,40613,1,0,0:0:0:0:
418,220,41082,1,8,0:0:0:0:
232,218,41551,1,4,0:0:0:0:
326,173,42488,1,0,0:0:0:0:
318,184,42957,1,0,0:0:0:0:
244,170,43426,1,12,0:0:0:0:
244,170,43894,1,12,0:0:0:0:
446,170,44363,1,4,0:0:0:0:
252,138,44832,1,4,0:0:0:0:
256,192,45301,12,0,46238,0:0:0:0:
