osu file format v14

[General]
AudioFilename: audio.mp3
AudioLeadIn: 0
PreviewTime: 14912
Countdown: 0
SampleSet: Soft
StackLeniency: 0.4
Mode: 0
LetterboxInBreaks: 0
WidescreenStoryboard: 0

[Editor]
Bookmarks: 15030
DistanceSpacing: 1.91
BeatDivisor: 4
GridSize: 4
TimelineZoom: 1.4

[Metadata]
Title:TIPA PRIVIDENIE (feat. Utopia Show)
TitleUnicode:ТИПА ПРИВИДЕНИЕ (feat. Utopia Show)
Artist:55x55
ArtistUnicode:55x55
Creator:M a r v o l l o
Version:SPIRIT SHOW
Source:
Tags:Shmiklak russian русский marvollo m_a_r_v_o_l_l_o youtube namki armin a_r_m_i_n vanucik5656 vanucik
BeatmapID:1346543
BeatmapSetID:634648

[Difficulty]
HPDrainRate:6
CircleSize:4
OverallDifficulty:8
ApproachRate:8
SliderMultiplier:2
SliderTickRate:1

[Events]
//Background and Video events
0,0,"mY4euE7U0Y8.jpg",0,0
//Break Periods
//Storyboard Layer 0 (Background)
//Storyboard Layer 1 (Fail)
//Storyboard Layer 2 (Pass)
//Storyboard Layer 3 (Foreground)
//Storyboard Sound Samples

[TimingPoints]
30,468.75,4,2,1,50,1,0
30,-133.333333333333,4,2,1,50,0,0
15030,-100,4,2,1,70,0,0
37530,-100,4,2,1,70,0,1
45030,-100,4,2,1,15,0,0
46905,-100,4,2,1,5,0,0

[Colours]
Combo1 : 242,176,77
Combo2 : 217,203,38

[HitObjects]
40,36,30,6,0,P|49:107|52:200,1,150.000005722046,8|8,0:3|0:0,0:0:0:0:
136,308,967,2,0,P|138:233|148:158,1,150.000005722046,8|8,0:0|0:0,0:0:0:0:
254,52,1905,6,0,P|263:123|266:216,1,150.000005722046,8|8,0:3|0:0,0:0:0:0:
350,324,2842,2,0,P|352:249|362:174,1,150.000005722046,8|8,0:0|0:0,0:0:0:0:
264,60,3780,6,0,P|186:56|97:52,1,150.000005722046,8|8,0:3|0:0,0:0:0:0:
8,158,4717,2,0,P|85:154|175:150,1,150.000005722046,8|8,0:0|0:0,0:0:0:0:
264,257,5655,6,0,P|186:253|97:249,1,150.000005722046,8|8,0:3|0:0,0:0:0:0:
8,355,6592,2,0,P|85:351|175:347,1,150.000005722046,8|8,0:0|0:0,0:0:0:0:
256,236,7530,5,8,0:3:0:0:
256,236,7998,2,0,P|312:252|408:228,1,150.000005722046,8|8,0:1|0:0,0:0:0:0:
324,104,8936,6,0,P|252:84|180:100,1,150.000005722046,8|8,0:1|0:3,0:0:0:0:
52,180,9873,2,0,P|57:268|63:334,1,150.000005722046,8|8,0:1|0:0,0:0:0:0:
209,362,10811,1,8,0:1:0:0:
256,192,11280,12,2,14092,0:0:0:0:
64,96,15030,6,0,P|116:98|176:104,1,100,8|0,0:3|0:0,0:0:0:0:
256,141,15381,1,0,0:0:0:0:
256,141,15498,2,0,P|248:89|252:31,1,100,8|0,0:0|0:0,0:0:0:0:
349,166,15967,2,0,P|357:218|353:276,1,100,8|0,0:1|0:0,0:0:0:0:
296,340,16319,1,0,0:0:0:0:
296,340,16436,2,0,P|246:343|160:351,1,100,8|0,0:0|0:0,0:0:0:0:
56,171,16905,6,0,P|113:168|162:185,1,100,8|0,0:0|0:0,0:0:0:0:
220,247,17256,1,0,0:0:0:0:
220,247,17373,2,0,B|269:252|269:252|328:227,1,100,8|2,0:0|0:0,0:0:0:0:
418,102,17842,2,0,P|421:80|420:53,1,50,8|0,0:1|0:0,0:0:0:0:
317,182,18076,2,0,P|314:204|315:231,1,50,2|0,0:1|0:0,0:0:0:0:
372,370,18311,1,8,0:0:0:0:
200,275,18545,1,2,0:1:0:0:
391,215,18780,6,0,P|445:208|496:202,1,100,8|0,0:0|0:0,0:0:0:0:
384,128,19131,1,0,0:0:0:0:
384,128,19248,2,0,P|313:129|265:113,1,100,8|2,0:0|0:0,0:0:0:0:
130,57,19717,2,0,P|134:109|138:173,1,100,8|0,0:1|0:0,0:0:0:0:
34,220,20069,1,0,0:0:0:0:
34,220,20186,2,0,P|39:168|26:104,1,100,8|2,0:0|0:0,0:0:0:0:
291,29,20655,6,0,P|341:26|411:26,1,100,8|2,0:0|0:0,0:0:0:0:
456,204,21123,2,0,P|405:201|336:201,1,100,8|2,0:0|0:0,0:0:0:0:
287,289,21475,1,0,0:0:0:0:
287,289,21592,2,0,P|211:309|151:285,1,100,8|0,0:1|0:0,0:0:0:0:
98,246,21944,1,0,0:0:0:0:
98,246,22061,2,0,P|102:290|107:350,1,100,8|2,0:0|0:0,0:0:0:0:
16,145,22530,5,8,0:3:0:0:
252,192,22764,1,8,0:0:0:0:
30,43,22998,2,0,P|32:84|38:143,1,100,8|8,0:3|0:0,0:0:0:0:
50,257,23467,5,8,0:3:0:0:
286,304,23701,1,8,0:0:0:0:
64,155,23936,2,0,P|66:201|72:255,1,100,8|8,0:3|0:0,0:0:0:0:
496,239,24405,5,8,0:3:0:0:
260,192,24639,1,8,0:0:0:0:
482,341,24873,2,0,P|478:289|474:241,1,100,8|8,0:3|0:0,0:0:0:0:
462,127,25342,5,8,0:3:0:0:
226,80,25576,1,8,0:0:0:0:
448,229,25811,2,0,P|445:173|440:129,1,100,8|8,0:3|0:0,0:0:0:0:
87,24,26280,5,8,0:0:0:0:
58,64,26397,1,2,0:0:0:0:
56,113,26514,1,8,0:0:0:0:
80,156,26631,1,2,0:0:0:0:
120,188,26748,5,8,0:0:0:0:
149,226,26865,1,2,0:0:0:0:
141,274,26983,1,8,0:0:0:0:
101,302,27100,1,2,0:0:0:0:
56,279,27217,5,8,0:0:0:0:
43,232,27334,1,2,0:0:0:0:
71,192,27451,1,8,0:0:0:0:
119,187,27569,1,2,0:0:0:0:
149,226,27686,5,8,0:0:0:0:
196,240,27803,1,2,0:0:0:0:
246,239,27920,1,8,0:0:0:0:
293,222,28037,1,2,0:0:0:0:
328,188,28155,5,0,0:0:0:0:
328,188,29561,5,8,3:0:0:0:
236,68,30030,6,0,P|179:70|112:76,1,100,8|0,0:3|0:0,0:0:0:0:
69,141,30381,2,0,P|75:175|75:220,1,50,2|8,0:1|0:0,0:0:0:0:
152,277,30615,1,0,0:0:0:0:
152,277,30733,2,0,P|146:243|146:198,1,50,2|0,0:0|0:0,0:0:0:0:
230,110,30967,5,8,0:0:0:0:
276,292,31201,1,2,0:1:0:0:
282,40,31436,1,8,0:0:0:0:
208,201,31670,1,2,0:1:0:0:
344,101,31905,6,0,P|396:96|468:93,1,100,8|2,0:0|0:1,0:0:0:0:
497,172,32256,2,0,P|503:206|503:251,1,50,0|8,0:0|0:0,0:0:0:0:
423,345,32490,1,2,0:1:0:0:
423,345,32608,2,0,P|417:311|417:266,1,50,2|0,0:0|0:0,0:0:0:0:
369,130,32842,5,8,0:0:0:0:
313,308,33076,1,2,0:1:0:0:
313,72,33311,1,8,0:0:0:0:
228,257,33545,1,2,0:1:0:0:
68,47,33780,6,0,P|114:35|192:39,1,100,8|0,3:0|0:0,0:0:0:0:
222,104,34131,2,0,P|256:110|301:110,1,50,2|8,0:1|0:0,0:0:0:0:
399,41,34365,1,0,0:0:0:0:
399,41,34483,2,0,P|365:35|320:35,1,50,2|0,0:0|0:0,0:0:0:0:
222,104,34717,5,8,0:0:0:0:
151,286,34951,1,2,0:1:0:0:
140,64,35186,1,8,0:0:0:0:
225,232,35420,1,2,0:1:0:0:
69,344,35655,6,0,P|64:291|62:224,1,100,8|2,0:0|0:1,0:0:0:0:
92,164,36006,2,0,P|96:132|92:96,1,50,0|8,0:0|0:0,0:0:0:0:
155,254,36240,1,2,0:1:0:0:
155,254,36358,2,0,P|151:286|155:322,1,50,2|0,0:0|0:0,0:0:0:0:
251,178,36592,5,8,0:0:0:0:
18,130,36826,1,2,0:1:0:0:
275,301,37061,1,8,3:0:0:0:
239,85,37295,1,2,0:1:0:0:
26,336,37530,6,0,P|81:338|150:344,1,100,8|0,0:3|0:0,0:0:0:0:
192,275,37881,2,0,P|226:269|271:269,1,50,2|8,0:1|0:0,0:0:0:0:
328,192,38115,1,0,0:0:0:0:
328,192,38233,2,0,P|294:198|249:198,1,50,2|0,0:0|0:0,0:0:0:0:
173,136,38467,5,8,0:0:0:0:
312,301,38701,1,2,0:1:0:0:
236,74,38936,1,8,0:0:0:0:
197,271,39170,1,2,0:1:0:0:
365,188,39405,6,0,P|364:140|368:63,1,100,8|0,0:0|0:0,0:0:0:0:
284,156,39756,2,0,P|290:190|290:235,1,50,2|8,0:1|0:0,0:0:0:0:
210,329,39990,1,2,0:1:0:0:
210,329,40108,2,0,P|204:295|204:250,1,50,2|0,0:0|0:0,0:0:0:0:
208,125,40342,5,8,0:0:0:0:
444,193,40576,1,2,0:1:0:0:
256,58,40811,1,8,0:0:0:0:
368,245,41045,1,2,0:1:0:0:
94,108,41280,6,0,P|151:106|218:100,1,100,8|0,3:0|0:0,0:0:0:0:
275,43,41631,2,0,P|309:37|354:37,1,50,2|8,0:1|0:0,0:0:0:0:
452,141,41865,1,0,0:0:0:0:
452,141,41983,2,0,P|418:135|373:135,1,50,2|0,0:0|0:0,0:0:0:0:
267,208,42217,5,8,0:0:0:0:
99,129,42451,1,2,0:1:0:0:
201,304,42686,1,8,0:0:0:0:
207,84,42920,1,2,0:1:0:0:
40,344,43155,6,0,P|41:271|48:168,1,150,8|0,0:3|0:0,0:0:0:0:
188,52,43623,6,0,P|192:132|196:228,1,150,8|0,0:3|0:0,0:0:0:0:
337,344,44092,6,0,P|341:268|345:168,1,150,8|0,0:3|0:0,0:0:0:0:
485,52,44561,6,0,P|487:121|493:228,1,150,8|0,0:3|0:0,0:0:0:0:
256,192,45030,12,0,46905,0:0:0:0:
