osu file format v14

[General]
AudioFilename: audio.mp3
AudioLeadIn: 0
PreviewTime: 14912
Countdown: 0
SampleSet: Soft
StackLeniency: 0.6
Mode: 0
LetterboxInBreaks: 0
WidescreenStoryboard: 0

[Editor]
DistanceSpacing: 2.7
BeatDivisor: 4
GridSize: 4
TimelineZoom: 2.2

[Metadata]
Title:TIPA PRIVIDENIE (feat. Utopia Show)
TitleUnicode:ТИПА ПРИВИДЕНИЕ (feat. Utopia Show)
Artist:55x55
ArtistUnicode:55x55
Creator:M a r v o l l o
Version:HARD NAMKI SHOW
Source:
Tags:Shmiklak russian русский marvollo m_a_r_v_o_l_l_o youtube namki armin a_r_m_i_n vanucik5656 vanucik
BeatmapID:1348161
BeatmapSetID:634648

[Difficulty]
HPDrainRate:6
CircleSize:4
OverallDifficulty:8
ApproachRate:8
SliderMultiplier:1.7
SliderTickRate:1

[Events]
//Background and Video events
0,0,"mY4euE7U0Y8.jpg",0,0
//Break Periods
//Storyboard Layer 0 (Background)
//Storyboard Layer 1 (Fail)
//Storyboard Layer 2 (Pass)
//Storyboard Layer 3 (Foreground)
//Storyboard Sound Samples

[TimingPoints]
30,468.75,4,2,1,50,1,0
30,-111.111111111111,4,2,1,50,0,0
15030,-100,4,2,1,70,0,0
37530,-100,4,2,1,70,0,1
45030,-100,4,2,1,15,0,0
46905,-100,4,2,1,5,0,0

[Colours]
Combo1 : 242,176,77
Combo2 : 217,203,38

[HitObjects]
164,167,30,5,8,0:3:0:0:
250,59,264,2,0,L|242:142,2,76.4999976654053,2|8|0,0:0|0:0|0:0,0:0:0:0:
162,175,967,1,8,0:0:0:0:
240,235,1201,1,2,0:0:0:0:
338,250,1436,2,0,P|380:245|416:243,1,76.4999976654053,8|0,0:0|0:0,0:0:0:0:
230,325,1905,6,0,P|232:282|248:237,1,76.4999976654053,8|2,0:3|0:0,0:0:0:0:
274,87,2373,2,0,P|284:123|285:161,1,76.4999976654053,8|0,0:0|0:0,0:0:0:0:
197,47,2842,1,8,0:0:0:0:
321,15,3076,1,2,0:0:0:0:
199,136,3311,1,8,0:0:0:0:
208,148,3780,5,8,0:3:0:0:
74,90,4014,2,0,L|150:82,2,76.4999976654053,2|8|0,0:0|0:0|0:0,0:0:0:0:
11,168,4717,2,0,P|4:215|7:250,1,76.4999976654053,8|2,0:0|0:0,0:0:0:0:
100,352,5186,2,0,P|101:313|94:276,1,76.4999976654053,8|0,0:0|0:0,0:0:0:0:
185,371,5655,5,8,0:3:0:0:
268,317,5889,1,2,0:0:0:0:
360,352,6123,2,0,P|412:359|445:359,1,76.4999976654053,8|0,0:0|0:0,0:0:0:0:
487,291,6592,1,8,0:0:0:0:
410,199,6826,1,2,0:0:0:0:
505,102,7061,1,8,0:0:0:0:
512,116,7530,5,8,0:3:0:0:
417,56,7764,1,2,0:0:0:0:
329,117,7998,2,0,L|338:207,1,76.4999976654053,8|0,0:1|0:0,0:0:0:0:
404,62,8467,1,8,0:0:0:0:
293,23,8701,1,2,0:0:0:0:
321,125,8936,2,0,L|330:215,1,76.4999976654053,8|0,0:1|0:0,0:0:0:0:
223,76,9405,6,0,P|181:65|144:74,2,76.4999976654053,8|2|8,0:3|0:0|0:1,0:0:0:0:
181,149,10108,1,0,0:0:0:0:
56,105,10342,2,0,L|59:18,1,76.4999976654053,8|2,0:0|0:0,0:0:0:0:
181,149,10811,1,8,0:1:0:0:
127,320,11280,5,8,0:3:0:0:
227,356,11514,1,2,0:0:0:0:
322,307,11748,2,0,P|384:290|417:291,1,76.4999976654053,8|0,0:1|0:0,0:0:0:0:
237,374,12217,1,8,0:0:0:0:
236,267,12451,1,2,0:0:0:0:
337,317,12686,2,0,P|399:300|432:301,1,76.4999976654053,8|0,0:1|0:0,0:0:0:0:
483,220,13155,6,0,P|491:180|480:142,2,76.4999976654053,8|0|8,0:3|0:0|0:1,0:0:0:0:
407,181,13858,1,0,0:0:0:0:
338,93,14092,2,0,L|343:16,1,76.4999976654053,2|2,0:0|0:0,0:0:0:0:
407,181,14561,1,0,0:0:0:0:
109,245,15030,6,0,P|157:255|196:255,1,85,8|0,0:3|0:0,0:0:0:0:
234,227,15381,1,0,0:0:0:0:
234,227,15498,2,0,P|231:183|228:140,1,85,8|0,0:0|0:0,0:0:0:0:
198,62,15967,1,8,0:1:0:0:
310,91,16201,1,0,0:0:0:0:
304,107,16319,1,0,0:0:0:0:
304,123,16436,2,0,P|354:126|404:125,1,85,8|0,0:0|0:0,0:0:0:0:
491,236,16905,6,0,P|486:285|451:313,1,85,8|0,0:0|0:0,0:0:0:0:
411,297,17256,1,0,0:0:0:0:
411,297,17373,2,0,P|366:297|327:301,1,85,8|2,0:0|0:0,0:0:0:0:
272,367,17842,1,8,0:1:0:0:
244,231,18076,1,2,0:1:0:0:
204,307,18311,1,8,0:0:0:0:
324,223,18545,1,2,0:1:0:0:
192,151,18780,6,0,P|127:155|90:153,1,85,8|0,0:0|0:0,0:0:0:0:
107,154,19131,1,0,0:0:0:0:
107,154,19248,1,8,0:0:0:0:
198,51,19483,1,2,0:0:0:0:
286,118,19717,1,8,0:1:0:0:
375,183,19951,1,0,0:0:0:0:
391,178,20069,1,0,0:0:0:0:
407,172,20186,2,0,L|400:270,1,85,8|2,0:0|0:0,0:0:0:0:
431,297,20537,5,0,0:0:0:0:
431,297,20655,2,0,P|394:328|346:337,1,85,8|2,0:0|0:0,0:0:0:0:
312,316,21006,1,0,0:0:0:0:
312,316,21123,1,8,0:0:0:0:
272,210,21358,1,2,0:0:0:0:
201,301,21592,1,8,0:1:0:0:
201,301,21709,1,0,0:0:0:0:
201,301,21826,1,0,0:0:0:0:
281,203,22061,2,0,P|278:170|275:101,1,85,8|2,0:0|0:0,0:0:0:0:
236,18,22530,5,8,0:3:0:0:
197,103,22764,1,8,0:0:0:0:
343,61,22998,2,0,P|390:56|437:56,1,85,8|8,0:3|0:0,0:0:0:0:
224,24,23467,5,8,0:3:0:0:
188,109,23701,1,8,0:0:0:0:
352,68,23936,2,0,P|399:63|446:63,1,85,8|8,0:3|0:0,0:0:0:0:
478,175,24405,5,8,0:3:0:0:
375,160,24639,1,8,0:0:0:0:
432,264,24873,2,0,P|436:305|442:351,1,85,8|8,0:3|0:0,0:0:0:0:
479,165,25342,5,8,0:3:0:0:
379,145,25576,1,8,0:0:0:0:
424,276,25811,2,0,P|428:317|434:363,1,85,8|8,0:3|0:0,0:0:0:0:
334,229,26280,5,8,0:0:0:0:
309,222,26397,1,2,0:0:0:0:
284,219,26514,1,8,0:0:0:0:
258,221,26631,1,2,0:0:0:0:
233,230,26748,6,0,P|233:252|240:283,3,42.5,8|2|8|2,0:0|0:0|0:0|0:0,0:0:0:0:
170,174,27217,2,0,P|173:153|173:131,3,42.5,8|2|8|2,0:0|0:0|0:0|0:0,0:0:0:0:
149,258,27686,6,0,P|113:250|80:247,1,42.5,8|2,0:0|0:0,0:0:0:0:
23,331,27920,2,0,P|58:323|92:320,1,42.5,8|2,0:0|0:0,0:0:0:0:
345,284,29561,5,8,3:0:0:0:
345,284,30030,6,0,P|339:245|335:193,1,85,8|0,0:3|0:0,0:0:0:0:
360,159,30381,1,2,0:1:0:0:
360,159,30498,2,0,P|403:148|426:154,2,42.5,8|0|2,0:0|0:0|0:0,0:0:0:0:
420,231,30967,1,8,0:0:0:0:
279,120,31201,1,2,0:1:0:0:
392,40,31436,2,0,P|471:54|488:55,1,85,8|2,0:0|0:1,0:0:0:0:
279,120,31905,6,0,P|234:129|184:143,1,85,8|2,0:0|0:1,0:0:0:0:
161,170,32256,1,2,0:1:0:0:
162,295,32490,1,2,0:1:0:0:
162,295,32608,1,2,0:0:0:0:
101,217,32842,1,8,0:0:0:0:
229,238,33076,1,2,0:1:0:0:
26,233,33311,2,0,P|15:188|8:134,1,85,8|2,0:0|0:1,0:0:0:0:
212,40,33780,6,0,P|265:32|303:45,1,85,8|0,3:0|0:0,0:0:0:0:
335,74,34131,1,2,0:1:0:0:
335,74,34248,2,0,P|330:100|328:130,2,42.5,8|2|2,0:0|0:1|0:0,0:0:0:0:
367,194,34717,1,8,0:0:0:0:
242,227,34951,1,2,0:1:0:0:
352,315,35186,2,0,P|406:308|444:302,1,85,8|2,0:0|0:1,0:0:0:0:
240,351,35655,6,0,P|243:297|243:234,1,85,8|2,0:0|0:1,0:0:0:0:
221,224,36006,1,2,0:1:0:0:
111,207,36240,1,2,0:1:0:0:
111,207,36358,1,2,0:0:0:0:
167,123,36592,1,8,0:0:0:0:
163,275,36826,1,2,0:1:0:0:
296,98,37061,6,0,P|258:105|206:105,1,85,8|2,3:0|0:1,0:0:0:0:
412,203,37530,6,0,P|347:202|302:213,1,85,8|0,0:3|0:0,0:0:0:0:
296,239,37881,1,2,0:1:0:0:
268,359,38115,1,2,0:1:0:0:
268,359,38233,1,2,0:0:0:0:
184,279,38467,2,0,L|172:194,1,85,8|2,0:0|0:1,0:0:0:0:
260,351,38936,1,8,0:0:0:0:
107,344,39170,1,2,0:1:0:0:
184,155,39405,6,0,P|250:166|285:169,1,85,8|0,0:0|0:0,0:0:0:0:
311,145,39756,1,2,0:1:0:0:
311,145,39873,2,0,P|314:97|315:89,2,42.5,8|2|2,0:0|0:1|0:0,0:0:0:0:
400,157,40342,1,8,0:0:0:0:
283,34,40576,1,2,0:1:0:0:
473,30,40811,2,0,L|474:123,1,85,8|2,0:0|0:1,0:0:0:0:
418,342,41280,6,0,L|418:257,1,85,8|2,3:0|0:1,0:0:0:0:
410,211,41631,1,2,0:1:0:0:
510,318,41865,1,2,0:1:0:0:
510,318,41983,1,2,0:0:0:0:
327,353,42217,2,0,P|287:347|241:327,1,85,8|2,0:0|0:1,0:0:0:0:
305,222,42686,1,8,0:0:0:0:
231,343,42920,1,2,0:1:0:0:
152,191,43155,6,0,P|154:134|156:98,1,85,8|0,0:3|0:0,0:0:0:0:
116,251,43623,6,0,P|99:196|75:163,1,85,8|0,0:3|0:0,0:0:0:0:
140,303,44092,6,0,P|170:254|207:240,1,85,8|0,0:3|0:0,0:0:0:0:
128,347,44561,6,0,P|86:308|48:323,1,85,8|0,0:3|0:0,0:0:0:0:
256,192,45030,12,0,46905,0:0:0:0:
